#TITLE:Crossing Field;
#SUBTITLE:;
#ARTIST:Lisa;
#TITLETRANSLIT:;
#SUBTITLETRANSLIT:;
#ARTISTTRANSLIT:;
#GENRE:;
#CREDIT:;
#MUSIC:Crossing Field.mp3;
#BANNER:;
#BACKGROUND:;
#CDTITLE:;
#SAMPLESTART:45.856;
#SAMPLELENGTH:11.357;
#SELECTABLE:YES;
#OFFSET:-0.269;
#BPMS:0.000=179.000;
#STOPS:;
#BGCHANGES:;
#FGCHANGES:;

//--------------- dance-single - ----------------
#NOTES:
     dance-single:
     Shortysnmn2010:
     Beginner:
     1:
     0.124833,0.182436,0.018592,0.055777,0,94,92,2,6,0,0,0.124833,0.182436,0.018592,0.055777,0,94,92,2,6,0,0:
0000
0000
0000
0000
,
0000
0000
0000
0000
,
0000
0000
0000
0000
,
0000
0000
0000
0000
,
0000
0000
1000
0000
,
0000
0000
0010
0000
,
0000
0000
0100
0000
,
0000
0000
0001
0000
,
0000
0000
1000
0000
,
0001
0000
1000
0000
,
0000
0000
0010
0000
,
1000
0000
0010
0000
,
0000
0000
0100
0000
,
0200
0000
0000
0000
,
0300
0000
0000
0000
,
0010
0000
0100
0000
,
0010
0000
0010
0000
,
0000
0000
1000
0000
,
0000
0000
0001
0000
,
0000
0000
0010
0000
,
0000
0000
0100
0000
,
0200
0000
0000
0000
,
0300
0000
0000
0000
,
1000
0000
0001
0000
,
1000
0000
0001
0000
,
0000
0000
0100
0000
,
0000
0000
0010
0000
,
0000
0000
1000
0000
,
0000
0000
0001
0000
,
1000
0000
0001
0000
,
0010
0000
0001
0000
,
1000
0000
0100
0000
,
0000
0000
2000
0000
,
0000
0000
3000
0000
,
0000
0000
0001
0000
,
0000
0100
0100
0000
,
0010
0000
0100
0000
,
0000
0000
0010
0000
,
1000
0000
0001
0000
,
0001
0000
0001
0000
,
0001
0000
0001
0000
,
0002
0000
0000
0000
,
0003
0000
1000
0000
,
0000
0100
0100
0000
,
0010
0000
0100
0000
,
0000
0000
0100
0000
,
0001
0000
0010
0000
,
0010
0000
0010
0000
,
0010
0000
0010
0000
,
0020
0000
0000
0000
,
0030
0000
0100
0000
,
0000
0000
1000
0000
,
0000
0000
0000
0010
0000
0000
0000
0100
,
0000
0000
0000
0010
0000
0000
0000
0100
,
0000
0000
0001
0000
,
0000
0000
1000
0000
,
0000
0000
0200
0000
,
0000
0000
0000
0000
,
0300
0000
1001
0000
,
0000
0000
0000
0000
,
0000
0000
0110
0000
,
0000
0000
0000
0000
,
0000
0000
1000
0000
,
0000
0000
0100
0000
,
0000
0000
0010
0000
,
0000
0000
0001
0000
,
0000
0000
0100
0000
,
0000
0000
0100
0000
,
0000
0000
0010
0000
,
0000
0000
0010
0000
,
0000
0000
1000
0000
,
0000
0000
1000
0000
,
0000
0000
1000
0000
,
0001
0000
1000
0000
,
0001
0000
0001
0000
,
0000
0000
0001
0000
,
0000
0000
0010
0000
,
0000
0000
0100
0000
,
0000
0000
1000
0000
;

//--------------- dance-single - ----------------
#NOTES:
     dance-single:
     Shortysnmn2010:
     Easy:
     3:
     0.19389,0.25541,0.04648,0.083665,0,146,141,5,9,0,0,0.19389,0.25541,0.04648,0.083665,0,146,141,5,9,0,0:
0000
0000
0000
0000
,
0000
0000
0000
0000
,
0000
0000
0000
0000
,
0000
0000
0000
0000
,
0000
0000
1000
0000
,
0000
0000
0010
0000
,
0100
0000
0001
0000
,
0000
0000
0000
1000
0000
0000
1000
0000
,
0000
0000
0000
0000
0001
0000
0000
0010
,
0000
0100
0000
1000
0000
0000
0000
0000
,
0010
0000
0000
0000
1000
0000
0000
0100
,
0000
0010
0000
0001
0000
0000
0000
0000
,
1000
0000
0000
0000
0010
0000
0000
0020
,
0000
0000
0000
0000
,
0130
0000
0001
0000
,
1000
0000
1000
0000
,
0010
0000
0000
0000
1000
0000
0000
0001
,
0000
0010
0000
0001
0000
0000
0000
0000
,
0100
0000
0000
0000
0010
0000
0000
1000
,
0000
0001
0000
1000
0000
0000
0000
0000
,
0100
0000
0000
0000
0010
0000
0000
0020
,
0000
0000
0000
0000
,
0130
0000
1000
0000
,
0001
0000
0001
0000
,
0010
0000
0200
0000
,
0000
0000
0300
0000
1000
0000
0000
1000
,
0000
0000
0000
0000
0001
0000
0000
0001
,
0000
0000
0000
0000
0100
0000
0000
0100
,
0000
0000
0000
0000
0010
0000
0000
1000
,
0000
0001
0000
1000
0000
0000
0000
0000
,
0100
0000
0000
0000
0010
0000
0000
0001
,
0000
1000
0000
0001
0000
0000
0000
0000
,
0100
0000
0000
0000
0010
0000
0000
1000
,
0000
0020
0000
0000
,
0030
0000
1001
0000
,
0000
0010
1000
0000
,
0100
0000
0000
0100
0000
0000
0000
0000
,
0000
0010
0000
0000
,
0000
0000
0001
0000
,
1000
0000
0001
0000
,
1000
0000
0000
0000
1000
0000
0000
0001
,
0000
0000
0000
1000
0000
0000
0000
0000
,
0001
0000
1001
0000
,
0000
0100
0001
0000
,
1000
0000
0000
1000
0000
0000
0000
0000
,
0000
0100
0000
0000
,
0000
0000
0001
0000
,
0100
0000
0001
0000
,
0001
0000
0000
0000
0100
0000
0000
0100
,
0000
0000
0000
0001
0000
0000
0000
0000
,
0100
0000
0010
0000
,
0000
1000
0001
0000
,
1000
0000
0000
0100
0000
0000
0000
0010
,
0000
0000
0000
0001
0000
0000
0000
1000
,
0000
0000
0010
0010
,
0000
0000
0100
0100
,
0000
0000
0000
0000
0001
0000
0000
0001
,
0000
0001
0000
0000
,
0000
0000
2002
0000
,
0000
0000
3003
0000
,
0010
0010
2002
0000
,
0000
0000
3003
0000
,
0100
0100
1001
0000
,
0000
0000
0000
1000
0000
0000
0000
0001
,
0000
0000
1000
0000
,
0000
0000
0000
0100
0000
0000
0000
0010
,
0000
0000
0000
0000
0100
0000
0000
0100
,
0000
0000
0100
0000
0000
0100
0000
0000
,
0100
0000
1000
0000
0001
0000
0000
0001
,
0000
0000
0000
1000
0000
0000
0000
0010
,
0000
0000
0100
0000
,
0000
0001
0100
0000
,
0000
0010
1000
0000
,
0001
0000
1000
0000
,
1000
0000
0001
0000
,
0001
0000
1000
0000
,
0001
0000
0000
0000
1000
0000
0000
0100
,
0000
1000
0002
0000
,
0000
0000
0003
0000
;

//--------------- dance-single - ----------------
#NOTES:
     dance-single:
     Shortysnmn2010:
     Medium:
     6:
     0.373172,0.474333,0.065073,0.111553,0.004648,281,274,7,12,0,0,0.373172,0.474333,0.065073,0.111553,0.004648,281,274,7,12,0,0:
0000
0000
0000
0000
,
0000
0000
0000
0000
,
0000
0000
0000
0000
,
0000
0000
0000
0000
,
0000
0000
1000
0000
,
0000
0000
0010
0000
,
0100
0000
0001
0000
,
0000
0000
0000
1001
0000
1000
0001
0000
,
0000
0000
0000
0000
1000
0100
0000
0010
,
0000
0001
0000
0100
0000
0000
0000
0000
,
0010
0000
0010
0000
1000
0010
0000
0001
,
0000
0010
0000
1000
0000
0000
0000
0000
,
0001
0000
0010
0000
0001
1000
0001
0000
,
1000
0001
1000
0000
0010
0000
0000
0100
,
0000
0001
1000
0100
,
0010
0100
0010
0000
0100
0010
0100
0000
,
0010
0000
0000
0000
0001
0100
0000
1000
,
0000
0100
0000
0100
0000
0000
0000
0000
,
0010
0000
1000
0000
0100
0010
0000
0001
,
0000
1000
0000
1000
0000
0000
0010
0000
,
1000
0100
0010
0002
,
0000
0203
0000
0000
0320
0000
0000
2030
,
0000
3002
0000
0000
,
0100
0000
0100
0000
,
1003
0000
0110
0000
,
0000
0000
1000
0000
0001
0000
0000
0010
,
0000
0000
0001
0000
0100
0000
0000
0100
,
0000
0000
0000
0000
0010
0000
0000
0010
,
0000
0000
0000
0000
1000
0100
0000
0010
,
0000
0001
0000
1000
0000
0000
0000
0000
,
0001
0000
0100
0000
0001
1000
0000
0100
,
0000
0010
0000
0001
0000
0000
0000
0000
,
1000
0000
0000
0010
0000
0000
1000
0000
0100
0000
0000
0000
0000
0000
0010
0000
,
0000
0020
0000
0030
,
0001
1000
0001
0000
0100
0000
0010
0100
,
0010
0000
1000
0000
0100
0000
0010
0100
,
0010
0000
0001
1000
0001
0000
0100
0000
,
0010
0000
0100
0001
0000
1000
0000
0001
,
0000
0010
0000
0100
1000
0000
0100
1000
,
0100
0000
0010
0100
0010
0000
0100
1000
,
0100
0000
0010
0100
0010
0000
0001
0100
,
0000
0010
0000
0100
0000
0000
0000
0000
,
0001
0010
0001
0000
1000
0000
0100
0000
,
1000
0010
1000
0000
0001
0000
0100
0000
,
0010
0100
0010
0000
1000
0001
1000
0000
,
0001
0000
0010
0100
0000
1000
0000
0100
,
0000
0001
0000
0100
1000
0000
0001
1000
,
0001
0000
0100
0010
0100
0000
0001
1000
,
0001
0000
0100
0010
0100
0000
0001
1000
,
0000
0100
0000
0100
0000
0000
0000
0000
,
1000
0001
0010
0010
,
0001
1000
0100
1000
,
0001
0100
0000
0010
0000
0100
0001
0100
,
0000
0010
1000
0010
0000
1000
0001
1000
,
0001
0000
0010
0000
0100
0000
0010
0001
,
0000
0100
0000
0000
0010
0000
1000
0001
,
0000
0010
0000
0000
0110
0000
0000
1001
,
0000
0110
0000
0000
,
0000
0000
0000
0000
1000
0001
0000
0001
,
1000
0000
1000
0001
0000
0001
1000
0000
,
0000
0000
0000
0000
0010
0100
0000
0100
,
0010
0000
0010
0100
0000
0100
0010
0000
,
1000
0001
0010
0000
,
0000
0100
0000
1000
0000
0001
0000
0010
,
0000
0001
0000
0000
1000
0000
0000
0000
,
0000
0010
1000
0010
0000
0100
0000
0001
,
0000
0010
0000
0000
0200
0000
0000
2300
,
0000
0000
3002
0000
0000
0023
0000
0000
,
0130
0000
1000
0000
0001
0000
0000
0100
,
0000
0010
0000
0100
0000
0001
0000
0010
,
0000
0100
0000
1000
0100
0000
1000
0100
,
0000
1000
0100
0000
1000
0000
0100
1000
,
0000
0100
1000
0000
0010
0000
0000
0010
,
0100
0000
0000
0100
0001
0000
0000
1001
,
0000
0000
1001
0001
,
0010
0000
0001
1000
0002
0000
0000
0000
,
0000
0000
0003
0000
0100
0000
0000
0010
,
0000
1000
0200
0000
,
0000
0000
0300
0000
;

//--------------- dance-single - ----------------
#NOTES:
     dance-single:
     Shortysnmn2010:
     Hard:
     8:
     0.482069,0.619295,0.083665,0.120849,0.032536,363,354,9,13,0,0,0.482069,0.619295,0.083665,0.120849,0.032536,363,354,9,13,0,0:
0000
0000
0000
0000
,
0000
0000
0000
0000
,
0000
0000
0000
0000
,
0000
0000
0000
0000
,
0000
0000
1000
1000
,
0010
0001
0010
0010
,
0100
0001
0010
0010
,
0100
0000
1000
0100
0000
0010
0100
0000
,
0000
0000
0000
0000
1000
0001
0000
0100
,
0000
0010
0000
2020
0000
0000
3030
0000
,
0001
0000
0001
0000
0010
0001
0000
1000
,
0000
0100
0000
0022
0000
0000
0033
0000
,
1000
0000
1000
0000
0010
0000
0001
0010
,
0100
0001
0000
0000
0010
0100
1000
0001
,
0000
1000
0100
0110
,
0001
0010
1000
0000
0010
0001
0100
0001
,
1000
0010
0100
0001
1000
0010
0000
0100
,
0000
0001
0000
0100
0010
0000
0001
0000
,
0010
0000
0010
0000
0100
0001
0000
1000
,
0000
0010
0000
0100
1000
0000
0100
0000
,
0010
0000
1000
0000
0001
0000
0010
0001
,
0100
0001
0000
0000
1000
0010
0100
0001
,
0000
0000
1000
0100
1000
0010
0100
0000
,
0002
0003
0020
0030
,
2000
0000
3000
0000
0010
0000
0001
0010
,
0001
0000
0100
0000
0010
0000
0100
0010
,
0100
0000
0001
0000
1000
0000
0000
1100
,
0000
0000
0001
0000
0010
0000
0000
0110
,
0000
0000
0100
0000
1000
0001
0000
0200
,
0000
0001
0000
0310
0000
0000
0000
0000
,
0010
0000
1000
0000
0001
0010
0000
0200
,
0000
1000
0000
0310
0000
0000
0001
0000
,
1000
0000
0000
0000
0010
0000
0000
0000
0100
0000
0000
0000
0001
0000
0000
0000
0000
0000
0000
0000
0000
0010
0000
0000
,
0000
0000
0001
0000
0000
0100
0000
0000
,
0010
1000
0001
0000
1000
0100
1000
0100
,
0010
0001
1000
0001
0100
0010
0100
0010
,
1000
0001
0100
0010
1000
0001
1000
0001
,
0010
0100
1000
0001
0000
0100
0000
1000
,
0000
0100
0000
0001
1000
0000
0010
0001
,
0010
0000
0100
0001
0010
0000
0100
0010
,
0100
0000
0010
0001
0100
0000
0010
1000
,
0000
0001
0000
0011
0000
0010
0100
0000
,
0010
0001
1000
0000
0001
0100
0001
0100
,
0010
1000
0100
1000
0010
0100
0010
0100
,
0001
0010
0100
1000
0001
0100
0001
0100
,
0010
1000
0001
1000
0000
0100
0000
0001
,
0000
0100
0000
0010
0001
0000
0100
0010
,
0100
0000
0010
1000
0100
0000
0010
0100
,
0010
0000
1000
0010
0100
0000
1000
0001
,
0000
0100
0000
0110
0000
0010
1000
0001
,
1000
0100
0010
0002
0000
0000
0000
0000
,
0003
1000
0010
0100
,
0001
1000
0000
1001
0000
0001
0010
0001
,
0000
1000
0100
0010
0000
0001
0010
0100
,
1000
0000
0001
0000
0100
0000
0001
1000
,
0000
0010
0000
0000
1000
0000
0001
0010
,
0000
0001
0000
0000
1000
0100
0000
0001
,
0100
0000
1000
0100
0000
0000
0010
0000
,
0100
0000
1000
0000
0001
0100
0000
0100
,
0010
0000
0010
1000
0000
1000
0001
0000
,
0010
0000
0100
0000
1000
0001
0000
0001
,
0010
0000
0010
0001
0000
0001
1000
0000
,
0100
0010
0001
0010
0200
0000
0000
0300
,
0000
1000
0000
0001
0000
0010
0000
1000
,
0000
0010
0000
0000
0002
0000
0000
0003
,
0000
1000
0010
0100
0000
0001
0000
1000
,
0000
0001
0000
0000
1000
0100
0010
0001
,
0000
0000
1000
0010
0001
0010
0000
0000
,
0100
0000
0001
0000
0010
0100
1000
0100
,
0000
0010
0000
0001
0000
0100
0000
0010
,
0000
1000
0000
0001
0100
0000
0010
0100
,
0000
0001
0100
0010
0100
0000
0001
0100
,
0000
0000
0001
0000
0010
0000
0100
0000
1000
0000
0000
0100
0000
0000
1000
0000
,
0010
0000
0000
0100
0000
0000
0010
0000
1000
0000
0000
0001
0000
0000
2000
0000
,
0000
3000
0100
0010
0001
0000
0100
0000
,
0010
0000
0000
0000
0100
0000
0010
0000
1000
0000
0004
4000
0000
0000
0000
0000
,
0000
3003
0000
0000
0010
0000
0000
1100
,
0000
0000
0000
0000
0001
0000
0000
0000
0400
0040
0000
0000
0000
0000
0000
0000
,
0000
0330
0000
1000
0000
0000
0000
0000
;
