#TITLE:Colossus;
#SUBTITLE:;
#ARTIST:Zircon;
#TITLETRANSLIT:;
#SUBTITLETRANSLIT:;
#ARTISTTRANSLIT:;
#GENRE:;
#CREDIT:;
#MUSIC:Colossus.mp3;
#BANNER:;
#BACKGROUND:;
#CDTITLE:;
#SAMPLESTART:71.105;
#SAMPLELENGTH:15.321;
#SELECTABLE:YES;
#OFFSET:-0.038;
#BPMS:0.000=124.988
,9.000=24.998
,10.000=124.988
,10.500=62.494
,13.000=124.988
,13.500=15.623
,14.000=124.988
;
#STOPS:4.000=0.480
,4.667=0.480
,6.000=1.440
,7.000=0.480
,10.000=0.480
,10.500=0.720
,13.000=0.480
,13.500=1.200
;
#BGCHANGES:;
#FGCHANGES:;

//--------------- dance-single - ----------------
#NOTES:
     dance-single:
     Shortysnmn2010:
     Beginner:
     1:
     0.094493,0.162056,0,0.041341,0,80,80,0,5,0,0,0.094493,0.162056,0,0.041341,0,80,80,0,5,0,0:
0000
0000
0000
0000
,
0000
0000
0000
1000
,
0000
0001
1000
0100
,
0100
0100
0010
0000
,
0000
0000
0001
0000
,
0000
0000
0100
0000
,
0000
0000
0010
0000
,
0000
0000
1000
0000
,
0000
0000
0001
0000
,
1000
0000
0001
0000
,
1000
0000
0000
0000
,
0100
0000
0010
0000
,
0000
0000
0001
0000
,
0000
0000
0100
0000
,
0000
0000
0010
0000
,
1000
0000
0010
0000
,
0000
0000
0100
0000
,
0100
0000
0001
0000
,
0001
0000
0000
0000
,
0100
0000
0010
0000
,
1000
0000
0010
0000
,
0000
0000
0100
0000
,
0001
0000
0100
0000
,
0000
0000
0010
0000
,
0100
0000
0010
0000
,
0000
0000
1000
0000
,
0001
0000
1000
0000
,
0000
0000
0200
0000
,
0300
0000
0020
0000
,
0030
0000
0002
0000
,
0003
0000
2000
0000
,
3000
0000
0001
0000
,
0000
0000
0100
0000
,
0000
0000
0010
0000
,
1000
0000
0010
0000
,
1000
0000
1000
0000
,
0000
0000
0100
0000
,
0000
0000
0010
0000
,
0001
0000
0010
0000
,
0001
0000
0001
0000
,
0000
0000
0100
0000
,
0000
0000
0010
0000
,
0100
0000
0010
0000
,
0100
0000
0100
0000
,
0000
0000
0010
0000
,
0000
0000
1000
0000
,
0100
0000
1000
0000
,
0100
0000
1000
0000
,
0000
0000
0001
0000
,
0010
0000
0010
0000
,
0000
0000
0100
0000
,
0100
0000
1000
0000
,
0000
0000
0010
0000
,
0010
0000
1000
0000
,
0000
0000
0001
0000
,
0001
0000
2000
0000
,
3000
0000
0000
0000
;

//--------------- dance-single - ----------------
#NOTES:
     dance-single:
     Shortysnmn2010:
     Easy:
     3:
     0.138196,0.185207,0.008268,0.082682,0,117,116,1,10,0,0,0.138196,0.185207,0.008268,0.082682,0,117,116,1,10,0,0:
0000
0000
0000
0000
,
0000
0000
0000
0001
,
0000
2000
3010
0100
,
0010
0000
0100
0000
0001
0000
0000
0100
,
0000
0010
0000
1000
,
0000
0000
1000
0000
1000
0000
0000
0100
,
0000
0010
0000
0000
,
0000
0000
0000
0000
0001
0000
0000
1000
,
0000
0010
0100
0000
,
0010
0000
0100
0000
,
0010
0000
0000
0000
,
1000
0000
0001
0000
1000
0000
0000
0100
,
0000
0010
0000
0100
,
0000
0000
0010
0000
0010
0000
0000
0001
,
0000
0100
0000
0000
,
0000
0000
0000
0000
0010
0000
0000
1000
,
0000
0001
0100
0000
,
0010
0000
0100
0000
,
0010
0000
0000
0000
,
1000
0001
1000
0000
,
0001
0000
1000
0000
,
0000
0000
0010
0000
,
0100
0000
0010
0000
,
0000
0000
1000
0000
,
0100
0000
1000
0000
,
0000
0000
0001
0000
,
0010
0000
0001
0000
,
0000
0000
2000
0000
,
3000
0000
0020
0000
,
0030
0000
0200
0000
,
0300
0000
0002
0000
,
0003
0000
1000
0001
,
1000
0000
0010
0000
,
1000
0000
0001
0001
,
0000
1000
0000
0001
,
0001
0000
1000
0000
,
0100
0200
0000
0300
,
0010
0000
0000
0000
0001
0000
0000
0100
,
0000
0010
0000
1000
,
0001
0000
0000
1000
0000
0000
2002
0000
,
0000
3003
0010
0000
,
0100
0000
0010
0010
,
0000
0100
0000
0010
,
0010
0000
0000
0000
0100
0000
0000
0001
,
0000
1000
1000
0000
,
0010
0000
0100
0200
,
0000
0300
0000
0001
,
0001
0000
1000
0000
,
0010
0000
1000
0001
,
1000
0001
1000
0000
,
0100
0000
0010
0000
,
0100
0000
0010
0000
,
0001
0000
1000
0001
,
1000
0001
1000
0000
,
0010
0000
0100
0010
,
0100
0001
2000
0000
,
3000
0000
0000
0000
;

//--------------- dance-single - ----------------
#NOTES:
     dance-single:
     Shortysnmn2010:
     Medium:
     6:
     0.331907,0.369586,0.297653,0.198436,0.082682,281,245,36,24,0,0,0.331907,0.369586,0.297653,0.198436,0.082682,281,245,36,24,0,0:
0000
0000
0000
0000
,
0000
0000
0000
0000
0000
0000
0000
0000
0000
0001
0000
1000
,
0000
0000
0020
0000
0130
0001
1000
0000
,
0100
0000
0010
0002
1003
0000
0000
0100
,
0000
0000
0010
0001
0100
0000
2010
0000
,
3100
0000
0010
0001
0100
0000
0000
0001
,
0000
0000
0010
0100
2000
0000
3002
0000
,
0203
0000
0310
1000
0001
0000
0000
0010
,
0000
0000
0100
1000
0001
0000
0001
0000
,
1100
0000
1010
0000
1100
0000
0000
0010
,
0000
0000
0001
1000
0100
0000
0100
0000
,
0100
1000
0001
0010
0001
0000
0000
0100
,
0000
0000
0010
1000
0100
0000
0120
0000
,
0001
0000
0130
1000
0001
0000
0000
0100
,
0000
0000
0010
0100
0002
0000
1000
0000
,
1000
0000
1003
0100
0010
0000
0000
0001
,
0000
0100
0010
0010
,
0101
0000
0011
0000
0101
0000
0000
0010
,
0000
0000
1000
0001
0020
0000
0230
0000
,
0310
0000
0000
0000
0110
0000
0000
0000
1001
0000
0000
0000
0000
0000
1000
0100
,
0000
0000
0000
0000
0000
0000
0010
0001
0000
0000
0000
0000
0000
0000
0100
0010
,
0000
0000
0000
0000
0000
0000
1000
0001
0000
0000
0000
0000
0000
0000
0001
1000
,
0000
0000
0000
0000
0000
0000
0010
1000
0000
0000
0000
0000
0000
0000
0001
0100
,
0000
0000
0000
0000
0000
0000
0010
0100
0000
0000
0000
0000
0000
0000
0001
0010
,
0000
0000
0000
0000
0000
0000
0100
1000
0000
0000
0000
0000
0000
0000
1000
0100
,
0000
0000
0000
0000
0000
0000
0010
0001
0000
0000
0000
0000
0000
0000
0100
0010
,
0000
0000
0000
0000
0000
0000
1000
0010
0000
0000
0000
0000
0000
0000
0100
0001
,
0000
0000
0000
0000
0000
0000
0001
0010
0001
0000
0000
0000
1000
0000
0100
0000
,
1000
0000
0001
0010
0001
0000
0100
0010
,
0100
0000
0010
0100
0010
0000
1000
0001
,
1000
0000
0001
1000
0001
0000
0010
0001
,
0010
0110
1000
0001
,
0100
0010
0001
0010
,
1000
0100
0010
1100
,
0010
0101
0010
1001
,
0011
1100
1001
1000
,
2010
0000
3100
0000
0010
0001
0100
0000
,
0100
0001
0010
0000
0100
0000
1000
0200
,
0000
0310
0001
1000
,
0010
0000
0000
1000
0000
0000
0001
0000
0000
0000
1000
0000
0001
0000
0000
0000
,
0010
0000
0001
0000
0100
0000
0010
1000
,
0010
1000
0010
0000
0100
0000
0101
0000
,
0010
1010
0100
1001
,
0010
0000
0110
0000
1000
0001
0000
0010
,
0000
0100
0010
0100
1000
0000
0001
0000
,
0100
0010
1000
0011
,
1000
0001
1000
0001
0000
0000
1000
0000
0000
0110
0000
0000
,
0101
1001
2200
3300
,
0022
0000
0033
0000
1000
0100
1000
0100
,
0010
0100
0010
0100
2000
0000
3000
0000
,
0002
0103
1010
1100
,
0010
0001
0100
0000
0220
0000
0330
0000
,
2002
0000
3003
0000
0010
0100
0010
0100
,
0001
0100
0001
0100
0020
0000
0030
0000
,
0200
0000
0301
0000
1000
0100
0010
0000
,
0011
0000
1100
0000
1001
0000
0000
1001
;

//--------------- dance-single - ----------------
#NOTES:
     dance-single:
     Shortysnmn2010:
     Hard:
     7:
     0.400415,0.392686,0.148827,0.181899,0.144693,339,321,18,22,0,0,0.400415,0.392686,0.148827,0.181899,0.144693,339,321,18,22,0,0:
0000
0000
0000
0000
,
0000
0000
0000
0000
0000
0000
0000
0000
0000
0001
0000
1000
,
0000
0000
0200
0000
0310
1001
0001
0010
,
0100
0000
1000
0000
0001
0000
2000
0000
3010
0000
0000
0100
0000
0000
0001
0000
,
0000
1000
0000
0000
0100
0000
0010
0000
0100
0000
0000
0000
2001
0000
0000
0000
,
0010
0000
0000
0000
3001
0000
0000
0000
1000
0000
0000
0100
0000
0000
0010
0000
,
0000
0001
0000
0000
0100
0000
0010
0000
2000
0000
0000
0000
3002
0000
0000
0000
,
0023
0000
0000
0000
0130
0000
0000
0000
0010
0000
0000
0001
0000
0000
0100
0000
,
0000
0001
0000
0000
1000
0000
0100
0000
0010
0000
0000
0000
1001
0000
0000
0000
,
0001
0000
0100
0000
0001
0000
0100
0000
0001
0000
0000
1000
0000
0000
0001
0000
,
0000
1000
0000
0000
0100
0000
0010
0000
0001
0000
0000
0000
0001
0000
0000
0000
,
2000
0000
0000
0000
3000
0000
0000
0000
0001
0000
0000
0010
0000
0000
0100
0000
,
0000
1000
0000
0000
0001
0000
0010
0000
0001
0000
0000
0000
2010
0000
0000
0000
,
0001
0000
0000
0000
3100
0000
0000
0000
0010
0000
0000
0001
0000
0000
0100
0000
,
0000
0001
0000
0000
1000
0000
0010
0000
0200
0000
0000
0000
0302
0000
0000
0000
,
2003
0000
0000
0000
3010
0000
0000
0000
0100
0000
0000
0010
0000
0000
1000
0000
,
0000
0100
0000
0000
0010
0000
0001
0000
0100
0000
0000
0000
1001
0000
0000
0000
,
0010
0000
1000
0000
0010
0000
1000
0000
0010
0000
0000
0100
0000
0000
0010
0000
,
0000
1000
0000
0000
0001
0000
0010
0000
0001
0000
0000
0000
0100
0000
0000
0000
,
0200
0000
0000
0000
0300
0000
0000
0000
0010
0000
0000
0000
1000
0000
0100
1000
,
0000
0000
0000
0000
0001
0000
0010
0001
0000
0000
0000
0000
0100
0000
0010
0100
,
0000
0000
0000
0000
0001
0000
0010
0100
0000
0000
0000
0000
1000
0000
0010
1000
,
0000
0000
0000
0000
0001
0000
1000
0100
0000
0000
0000
0000
0010
0000
0100
0010
,
0000
0000
0000
0000
0001
0000
0100
0010
0000
0000
0000
0000
1000
0000
0001
0010
,
0000
0000
0000
0000
1000
0000
0010
0100
0000
0000
0000
0000
1000
0000
0001
0100
,
0000
0000
0000
0000
1000
0000
0001
0010
0000
0000
0000
0000
0100
0000
0001
0010
,
0000
0000
0000
0000
0100
0000
1000
0001
0000
0000
0000
0000
0100
0000
0001
1000
,
0000
0000
0000
0000
0001
0000
0010
0001
1000
0000
0000
0000
0100
0000
2000
0000
,
0100
3000
0100
2000
0100
3000
0100
2000
,
0010
3000
0010
2000
0010
3000
0010
1000
,
0001
0100
0001
0100
0010
1000
0100
0010
,
0002
0000
0003
0000
1000
0010
0100
0001
,
1000
0100
0001
0100
1000
0001
0100
1000
,
0100
0100
0010
1000
0100
0000
1001
0000
,
0010
0101
0010
2100
,
0001
0000
0001
0000
3010
0100
0001
0010
,
1000
0010
0100
1000
0010
0100
0001
1000
,
0100
0100
0010
0001
0100
0000
0010
2000
,
0000
3001
0010
0100
,
1100
0000
0000
0110
0000
0000
0011
0000
0000
0000
0001
0000
2000
0000
0000
0000
,
3010
0100
0010
0100
0001
0010
0100
1000
,
0010
0100
0010
0100
0001
0000
1100
0000
,
0010
1001
1000
0201
,
0010
0000
0000
0000
0000
0000
0310
0000
0000
0000
0000
0000
1000
0000
0000
0001
0000
0010
0000
0000
0000
0001
0000
0000
,
1000
0100
0010
0100
1000
0010
0100
1000
,
0100
0001
0010
0100
0001
0000
1100
0000
,
1000
0010
0100
0001
,
2000
0000
0100
0000
3100
0010
0001
1000
,
0100
0001
0100
1000
0010
1000
0010
0100
,
0010
0001
0010
0100
0010
1000
0100
0001
,
0100
0010
0001
1000
0100
0000
0010
0000
,
0001
1000
0001
0000
1000
0010
0001
0010
,
1000
0001
0100
0010
1000
0100
1000
0001
,
1000
0010
1000
0100
0010
0001
0100
1000
,
0100
0001
0010
0100
1000
0001
1000
0000
,
0010
0000
0110
0000
1001
0000
0000
1001
;

//--------------- dance-single - ----------------
#NOTES:
     dance-single:
     Shortysnmn2010:
     Challenge:
     11:
     0.726416,0.767388,0.181899,0.512625,0.859888,615,593,22,62,0,0,0.726416,0.767388,0.181899,0.512625,0.859888,615,593,22,62,0,0:
0000
0000
0000
0000
,
0000
0000
0000
0000
0000
0000
0000
0000
0000
1100
0000
0011
,
0000
0000
0120
0000
0130
1001
0002
0023
,
0230
0000
0000
0000
2300
0000
0000
0000
3010
0000
0000
0000
0220
0000
0000
0330
0001
0000
1000
0000
0100
0000
0010
0000
0000
0000
0000
0000
0001
0000
0010
0000
,
0100
1000
0000
0000
0001
0100
0010
0100
0001
0000
0000
0000
2001
0000
0000
0000
,
3200
0000
0000
0000
0310
0001
1000
0001
0100
0010
1000
0001
0000
0000
1000
0100
,
0010
0001
0000
0000
0100
0010
0100
0010
2000
0000
0000
3000
0101
0000
0000
0000
,
0101
0000
0000
0000
0010
1000
0001
1000
0001
0010
0100
1000
0000
0000
0010
1000
,
0001
1000
0000
0000
0100
0010
0001
0010
0200
0000
0000
0000
2300
0000
0000
0000
,
3001
0100
0001
1000
0010
1000
0001
0100
0001
0010
0100
1000
0000
0000
0001
0100
,
0001
1000
0000
0000
0100
0010
0001
1000
0010
0000
0000
0000
0010
0000
0000
0000
,
0010
1000
0001
1000
0100
0010
0001
1000
0001
0100
0010
1000
0000
0000
0100
0010
,
0001
1000
0000
0000
0010
0100
0001
1000
0100
0000
0000
0000
0120
0000
0000
0000
,
0032
0000
0000
0000
1003
0010
0100
0001
1000
0100
0010
0001
0000
0000
0100
0010
,
0100
0010
0000
0000
1000
0001
0010
1000
0020
0000
0000
0030
1001
0000
0000
0000
,
1001
0000
0000
0000
0010
0100
0010
0100
0001
0010
0001
0010
0000
0000
0100
1000
,
0100
1000
0000
0000
0010
0100
0010
0100
0002
0000
0000
0000
2003
0000
0000
0000
,
3100
0010
0001
1000
0100
0010
1000
0010
0100
1000
0001
0010
0000
0000
0001
0100
,
0010
1000
0000
0000
0001
0100
0010
0100
0002
0000
0000
0000
0100
0000
0000
0000
,
0103
0010
0100
0010
1000
0001
1000
0010
0100
0000
0001
0100
0001
0000
1000
0200
,
0010
0000
0310
0000
0001
0000
1000
0020
0100
0000
0130
0001
1000
0000
0010
0200
,
0001
0000
0301
1000
0010
0000
1000
0002
0010
0000
0013
0100
1000
0000
0001
0200
,
0010
0000
0310
0000
1000
0000
0001
0020
0100
0000
0130
1000
0001
0000
1000
0200
,
1000
0000
0310
0001
1000
0000
0010
2000
0001
0000
3001
0100
0010
0000
0100
0020
,
0100
0000
0130
0000
0001
0000
1000
0200
1000
0000
0310
0001
1000
0000
0001
0020
,
0100
0000
0031
1000
0100
0000
1000
0002
0010
0000
1003
0100
0010
0000
0001
2000
,
0010
0000
3010
0000
0100
0000
0001
0020
0001
0000
0130
1000
0100
0000
1000
0002
,
1000
0000
0013
0000
0100
0000
1000
0001
1000
0100
1000
0100
0010
0001
0010
0001
,
1000
0010
1000
0010
0100
0001
0100
0001
1000
0100
0010
0100
1000
0001
0010
0100
,
0010
0001
1000
0010
0100
0010
1000
0001
0100
0010
0100
0001
1000
0001
0010
0100
,
1000
0001
0100
0010
1000
0001
1000
0001
0010
0100
1000
0010
0100
0001
1000
0001
,
0040
0400
0000
0000
0000
0000
0000
0000
0000
0000
0000
0000
0000
0000
0000
0330
0001
0000
0000
0000
1000
0000
0000
0000
0100
0000
0000
0000
0010
0000
0000
0000
,
0001
0000
1000
0100
0000
1000
0100
0000
0000
0010
0000
0000
0001
0000
1000
0010
0000
1000
0010
0000
0100
0001
0000
1000
,
0001
0000
0000
0000
0010
0000
0100
0000
0000
0010
0000
0000
0001
0000
0000
0000
0000
0000
1000
0000
0000
0000
0000
0000
0010
0000
0000
0000
0000
0000
1000
0000
0000
0000
0000
0000
0101
0000
0000
0000
0000
0000
0010
0000
0000
0000
1000
0000
,
0001
0000
0000
0010
0000
0000
1100
0000
0000
0010
0000
0001
0100
0000
0000
0010
0000
0000
1000
0000
0000
0001
0100
0001
,
0100
0000
0000
0010
1000
0010
1000
0000
0000
0001
0010
0001
0010
0000
0000
0100
0000
0000
1000
0000
0000
0010
0000
0000
,
0200
0000
0000
0001
0000
0000
0320
0000
0000
1000
0000
0000
0130
0000
0000
0001
0000
0000
1000
0000
0010
0100
0000
0010
,
0100
0000
0000
0001
0000
0010
0100
0000
0000
1000
0000
0000
0001
0000
0000
0010
0000
0000
0100
0000
0000
1000
0000
0001
,
0100
0000
0001
0100
0000
0000
0001
0000
0000
0010
0000
0100
1000
0000
0000
0001
0000
0000
0010
0000
0000
0100
1000
0100
,
1000
0000
0000
1001
0000
0000
0011
0000
0000
0000
0100
0000
1001
0000
0010
0000
,
1000
0001
1000
0001
0000
0000
0010
0100
0010
0100
0000
0000
1000
0000
0001
0010
0000
0010
0001
0000
0001
1000
0000
1000
,
0100
0000
0000
0000
0100
0000
0010
0000
0000
0001
0000
0000
1000
0000
0000
0000
0000
0000
0010
0000
0000
0000
0100
0000
0001
0000
0000
0000
0000
0000
1000
0000
0000
0000
0000
0000
0110
0000
0000
0000
0000
0000
0001
0000
0000
0000
0000
0000
,
1000
0000
0100
1000
0000
0000
0011
0000
0000
0100
0000
1000
0100
0000
0000
0010
0000
0000
0001
0000
0000
1000
0010
0100
,
0001
0000
0000
1000
0001
1000
0100
0010
0001
1000
0100
0010
0001
0000
0000
1000
0000
1000
0010
0000
0000
0102
0000
0000
,
1000
0000
0000
1003
0000
0010
0100
0000
0000
1001
0000
0010
0001
0000
0000
2000
0000
0000
0001
0000
0000
3100
0000
0010
,
0001
0000
0000
0000
0000
0000
1000
0000
0000
0000
0010
0000
1000
0000
0000
0000
0000
0000
0001
0000
0000
0000
0010
0000
0001
0000
0000
0000
0000
0000
1000
0000
0000
0000
0000
0000
1100
0000
0000
0000
0000
0000
0010
0000
0000
0001
0000
0000
,
0010
0000
0000
0000
0001
0000
0000
0000
0010
0000
0000
0000
0100
0000
0000
0000
0000
0000
1000
0000
0000
0100
0000
0000
0010
0000
0000
0000
0000
0000
0001
0000
0000
0000
0000
0000
1000
0000
0000
0000
0000
0000
0010
0000
0100
0000
0001
0000
,
1000
0000
0000
0001
1000
0100
0010
0000
0000
0001
1000
0100
0020
0000
0000
0001
0000
0000
0100
0000
0000
0031
0000
0001
,
2000
0000
0000
0010
0000
0000
0100
0000
0000
3001
0000
0000
1000
0000
0010
0100
0000
0000
0010
0000
0010
0100
0000
0000
,
0001
0000
0010
0100
0000
0000
1000
0000
1000
0010
0000
0000
0200
0000
0000
0010
0000
0000
1000
0000
0000
0301
0000
0001
,
2000
0010
3002
0100
0023
1000
0230
1000
,
0320
0000
0000
0000
0000
0000
0002
0000
0000
0030
0000
0000
0200
0000
0000
0003
0000
0000
1000
0000
0000
0000
0000
0000
0320
0000
0000
0000
0000
0000
1000
0000
0000
0000
0000
0000
0001
0000
0000
0000
0000
0000
0130
0000
0000
0000
0100
0000
,
0002
0000
0000
0010
0000
0000
1000
0000
0000
0103
0000
0100
0020
0000
0000
1000
0000
0000
0032
0000
0000
1000
0000
0000
,
0023
0000
0000
0000
0000
0000
2000
0000
0000
0030
0000
0000
0200
0000
0000
3000
0000
0000
0002
0000
0000
0300
0000
0000
2000
0000
0000
0003
0000
0000
0010
0000
0000
3000
0010
0000
0100
0000
0000
0000
0000
0000
1000
0000
0000
0000
0010
0000
,
1000
0000
0000
0000
0000
0000
0100
0000
0000
0000
0010
0000
0002
0000
0000
0000
0000
0000
0100
0000
0003
0000
1000
0000
0020
0000
0000
0000
0000
0000
2000
0000
0000
0030
0000
0000
0002
0000
0000
3000
0000
0000
0013
0000
0000
0000
0100
0000
,
1000
0000
0001
0100
0000
0010
1000
0000
0001
0010
0000
0010
0001
0000
0000
0000
0000
0000
0000
0000
0000
2002
0000
0000
,
0000
3003
0000
0000
;
