#TITLE:Cheat Codes;
#SUBTITLE:VIP;
#ARTIST:Nitro Fun;
#TITLETRANSLIT:;
#SUBTITLETRANSLIT:;
#ARTISTTRANSLIT:;
#GENRE:;
#CREDIT:;
#MUSIC:Cheat Codes VIP.mp3;
#BANNER:;
#BACKGROUND:;
#CDTITLE:;
#SAMPLESTART:30.063;
#SAMPLELENGTH:14.980;
#SELECTABLE:YES;
#OFFSET:-0.068;
#BPMS:0.000=128.000
,124.000=64.000
,126.000=128.000
,190.000=64.000
,206.000=128.000
,230.000=126.200
,231.000=128.000
;
#STOPS:;
#BGCHANGES:;
#FGCHANGES:;

//--------------- dance-single - ----------------
#NOTES:
     dance-single:
     Shortysnmn2010:
     Beginner:
     1:
     0.085575,0.119305,0.007987,0.087857,0,75,74,1,11,0,0,0.085575,0.119305,0.007987,0.087857,0,75,74,1,11,0,0:
0000
0000
0000
0000
,
0000
0000
0000
0000
,
0000
0000
0000
0000
,
0000
0000
0000
0000
,
1000
0000
0000
0000
,
1000
0000
0000
0000
,
0001
0000
0000
0000
,
0001
0000
0000
0000
,
0020
0000
0000
0030
,
0000
0000
0100
0000
,
0200
0000
0000
0300
,
0000
0000
0010
0000
,
0020
0000
0000
0030
,
0000
0000
0001
0000
,
0002
0000
0000
0003
,
0000
0000
1000
0000
,
1000
0000
0001
0000
,
1000
0000
0001
0000
,
1000
0000
0000
0000
,
0100
0000
0000
0000
,
0010
0000
0100
0000
,
0010
0000
0100
0000
,
0010
0000
0000
0000
,
0001
0000
0000
0000
,
1000
0000
0000
0000
,
0001
0000
0000
0000
,
0010
0000
0000
0000
,
0100
0000
0000
0000
,
2000
0000
0000
3000
,
0002
0000
0000
0003
,
1000
0000
0001
0000
,
1001
0000
1000
0000
,
0000
0000
0100
0000
,
0000
0000
0010
0000
,
0010
0000
0010
0000
,
0010
0000
0010
0000
,
0000
0000
0001
0000
,
0000
0000
0100
0000
,
0010
0000
0100
0000
,
0000
0000
0010
0000
,
0000
0000
0100
0000
,
0000
0000
0001
0000
,
0001
0000
0001
0000
,
0001
0000
0001
0000
,
0000
0000
1000
0000
,
0000
0000
0100
0000
,
0000
0000
1000
0000
,
0000
0000
0020
0030
,
0200
0300
0002
0003
,
2000
3000
0010
0000
,
0100
0000
0001
0000
,
1000
0000
1000
0000
,
0000
0000
0001
0000
,
0001
0000
0001
0000
,
0000
0000
0010
0000
,
0100
0000
0010
0000
,
0000
0000
0100
0000
,
0100
0000
0100
0000
,
0000
0000
1000
0000
,
0200
0000
0000
0300
;

//--------------- dance-single - ----------------
#NOTES:
     dance-single:
     Shortysnmn2010:
     Easy:
     3:
     0.130073,0.190888,0.031948,0.135778,0,114,110,4,17,16,0,0.130073,0.190888,0.031948,0.135778,0,114,110,4,17,16,0:
0000
0000
0000
0000
,
0000
0000
0000
0000
,
0000
0000
0000
0000
,
0000
0000
0000
0000
,
1000
0000
0001
0000
,
0100
0000
0001
0000
,
0010
0000
0000
0000
,
0001
0000
0000
0000
,
1000
0000
0001
0000
,
1000
0000
0010
0000
,
1000
0000
0001
0000
,
1000
0000
0000
0000
,
0001
0000
1000
0000
,
0001
0000
1000
0000
,
0100
0000
1000
0000
,
0001
0000
0000
0000
,
1000
0000
0001
0000
,
0010
0000
0001
0000
,
1000
0000
0010
0000
,
1000
0000
0001
0000
,
0010
0000
0001
0000
,
1000
0000
0100
0000
,
1000
0000
0001
0000
,
0100
0000
0001
0000
,
1000
0000
0000
0010
,
0010
0000
0000
0100
,
0100
0000
0000
0010
,
0010
0000
0000
0100
,
0100
0000
0100
0000
,
0100
0000
0100
0000
,
0100
0010
0100
0010
,
0100
0000
2002
0MM0
,
3003
0000
0010
0000
,
0000
0000
1000
00M0
,
0001
00M0
1000
0M00
,
0001
0M00
2002
0MM0
,
3003
0000
0010
0000
,
0000
0000
0100
0010
,
0100
0000
0010
0100
,
0010
0000
0220
0000
,
0330
0000
0001
0000
,
0000
0000
0100
M000
,
0010
000M
0100
M000
,
0010
000M
0220
0000
,
0330
0000
1000
0000
,
0000
0000
0001
1000
,
0001
0MM0
1000
0001
,
1000
0MM0
0002
0003
,
0020
0030
0200
0300
,
2000
3000
0020
0030
,
0200
0300
0002
0003
,
2000
3000
0001
0000
,
0001
0000
1000
1000
,
1000
0000
0001
0000
,
1000
0000
0001
1000
,
0001
0000
0010
0000
,
0100
0000
0010
0010
,
0010
0000
0100
0000
,
0010
0000
0100
0010
,
0100
0200
0000
0300
;

//--------------- dance-single - ----------------
#NOTES:
     dance-single:
     Shortysnmn2010:
     Medium:
     5:
     0.256724,0.308247,0.151752,0.111818,0,225,206,19,14,27,0,0.256724,0.308247,0.151752,0.111818,0,225,206,19,14,27,0:
0000
0000
0000
0000
,
0000
0000
0000
0000
,
0000
0000
0000
0000
,
0000
0000
0000
0000
,
1000
0001
0100
0001
,
1000
0000
0100
0000
,
0010
0001
0100
0001
,
0010
0000
0100
0000
,
1000
0001
0010
0001
,
1000
0100
1000
0000
,
0010
1000
0010
0100
,
1000
0100
0001
0000
,
0010
0001
0010
0100
,
1000
0100
0001
0000
,
0100
0010
0001
1000
,
0010
1000
0001
0000
,
0010
1001
0100
0010
,
1000
0000
0100
0000
0010
0001
0100
0000
,
0010
1001
0100
0001
,
0010
0000
0100
0000
1000
0010
0100
0000
,
0010
1001
0100
0001
,
0100
0000
1000
0000
0001
0100
0010
0000
,
1000
0110
0001
1000
,
0100
0000
0010
0000
0001
1000
0001
0000
,
0200
0000
0300
1010
,
0002
0000
0003
1100
,
0020
0000
0030
1001
,
0200
0000
0300
0011
,
1000
0001
1000
0001
,
0010
0001
1000
0001
,
1000
0100
1000
0001
,
2002
3003
0100
1001
,
1001
0000
0100
0010
0100
0000
0010
0000
,
0010
1000
0001
0010
,
MM00
0001
0MM0
1000
,
00MM
0100
0010
1100
,
1100
0000
0010
0001
0010
0000
0100
0000
,
0010
0001
0100
0101
,
0010
1010
1000
0001
,
0010
0010
0100
0011
,
0011
0000
0100
1000
0100
0000
1000
0000
,
0010
0100
0001
0010
,
M00M
0100
M00M
0010
,
M00M
0100
1000
0110
,
0110
0000
0001
1000
0001
0000
0100
0000
,
0010
0001
0010
1000
,
0001
1000
0100
0010
,
0001
0100
0001
0100
0002
0000
0003
0000
,
200M
30M0
020M
M300
,
0M20
M030
00M2
M003
,
020M
03M0
2M00
30M0
,
020M
M300
00M1
0100
,
0010
1000
0001
0010
,
0001
1000
0001
0000
1000
0000
0100
0000
,
0010
0001
1000
0010
,
1000
0001
1000
0000
0100
0000
0001
0000
,
0100
1000
0001
0100
,
1000
0100
0001
0000
1000
0000
0010
0000
,
0001
0010
1000
0001
,
1000
0100
0010
0001
0000
0000
0000
0000
;

//--------------- dance-single - ----------------
#NOTES:
     dance-single:
     Shortysnmn2010:
     Hard:
     7:
     0.381092,0.407335,0.223635,0.047922,0.07987,334,306,28,6,16,0,0.381092,0.407335,0.223635,0.047922,0.07987,334,306,28,6,16,0:
0000
0000
0000
0000
,
0000
0000
0000
0000
,
0000
0000
0000
0000
,
0000
0000
0000
0000
,
1000
0000
0100
0000
0001
0000
0100
2000
,
0000
0000
0000
0000
3010
0000
0100
0001
,
1000
0000
0010
0000
0001
0000
1000
0200
,
0001
0010
0301
1001
,
1000
0000
0100
0000
0010
0100
1000
0100
,
0010
0000
0001
0000
1000
0001
0100
0001
,
0010
0000
0001
0000
0100
0010
1000
0010
,
0100
0000
0001
0000
0010
0100
0001
0100
,
1000
0000
1010
0000
0010
0100
0001
0100
,
1000
0000
0100
0000
0001
0010
0100
0010
,
0001
0000
1000
0000
0010
0100
1000
0100
,
0001
0000
0010
0000
0100
0010
0001
0000
,
1000
0110
0001
1000
,
0001
0000
0110
0000
0001
1000
0100
0010
,
0001
0110
1000
0100
,
0001
0000
0110
0000
1000
0010
0100
0010
,
1000
1001
0010
0100
,
0010
0000
1001
0000
0100
0001
0010
1000
,
0010
1001
0100
0010
,
1000
0000
1001
0000
0001
0010
0001
0010
,
0001
0000
0000
0000
1000
0000
0000
0000
0100
0000
0000
1000
0010
0000
0000
0000
,
0100
0000
0000
0000
0001
0000
0000
0000
0010
0000
0000
0001
0010
0000
0001
0000
,
0100
0000
0000
0000
0010
0000
0000
0000
1000
0000
0000
0010
1000
0000
0000
0000
,
0010
0000
0000
0000
0100
0000
0000
0000
0001
0000
0000
1000
0001
0000
0010
0000
,
0100
1000
0100
1000
0010
0100
0010
0100
,
0001
0010
0001
0010
0100
1000
0100
1000
,
0004
4000
0000
0000
0000
0000
0000
0000
0000
0000
0000
0000
3003
0000
0000
0000
,
0010
0000
0000
0100
0001
0000
0101
0000
,
0101
0000
0010
0010
1000
0100
0010
0001
,
1000
0000
0001
0100
0010
0000
1001
0000
,
M1M0
0011
1MM0
0110
,
M0M1
1100
M01M
0110
,
0110
0000
1000
1000
0001
0100
0010
0100
,
0001
0000
1000
0100
0020
0000
0001
0000
,
0130
1000
0001
0000
0100
0000
1010
0000
,
0100
0001
0010
1000
0010
0000
1001
0000
,
1001
0000
0010
0010
1000
0001
1000
0100
,
0001
0000
0100
1000
0001
0000
1010
0000
,
01MM
0011
1MM0
1010
,
0MM1
1100
0M1M
0110
,
0110
0000
0001
0001
1000
0010
0001
0010
,
2000
0001
3001
0010
,
0100
1000
0010
0100
,
0001
0000
0000
0000
1000
0000
0000
0000
0001
0000
0000
0000
0010
0000
0000
0000
0100
0000
0000
0000
0000
0000
0000
0000
0000
0000
1000
0000
0000
0001
0000
0000
,
1000
0000
0000
0000
0000
0000
0000
0000
0000
0000
0010
0000
0000
0100
0000
0000
0010
0000
0000
0000
0000
0000
0000
0000
0000
0000
0100
0000
0000
0001
0000
0000
,
0100
0000
0000
0000
0000
0000
0000
0000
0000
0000
0010
0000
0000
1000
0000
0000
0010
0000
0000
0000
0000
0000
0000
0000
0000
0000
0100
0000
0000
0001
0000
0000
,
0010
0000
0000
0000
0000
0000
0000
0000
0000
0000
0100
0000
0000
1000
0000
0000
0010
0000
0000
0000
0000
0000
0000
0000
0000
0000
1000
0000
0000
0001
0000
0000
,
1000
0000
0000
0002
0000
0000
0000
0000
1003
0000
0010
0000
1000
0000
0000
0000
,
0100
1000
0100
0000
0010
0001
0100
0000
,
0001
1000
0010
0001
0010
1000
0001
0000
,
1000
0100
1000
0000
0001
0100
0001
0000
,
1000
0010
0001
0010
1000
0100
0010
0000
,
0100
0010
0001
0000
1000
0010
1000
0000
,
0001
0100
1000
0100
0001
1000
0001
1000
,
0100
0010
0100
0010
0001
0000
1001
0000
,
0010
0100
0001
2000
0000
0000
0000
0000
,
3000
0000
0000
0000
;

//--------------- dance-single - ----------------
#NOTES:
     dance-single:
     Shortysnmn2010:
     Challenge:
     9:
     0.452975,0.575062,0.199674,0.103831,0.267563,397,372,25,13,2,0,0.452975,0.575062,0.199674,0.103831,0.267563,397,372,25,13,2,0:
0000
0000
0000
0000
,
0000
0000
0000
0000
,
0000
0000
0000
0000
,
0000
0000
0000
0000
,
0100
1000
0100
1000
0100
1000
0010
0100
,
0001
0010
0001
0010
0001
0010
0100
1000
,
0001
0100
0001
0100
0001
0100
0010
1000
,
0002
0000
0003
0000
,
0010
0000
0110
0000
0100
1000
0010
1000
,
0100
0000
0110
0000
0010
0001
0100
0010
,
0100
0000
0110
0000
0010
1000
0100
0001
,
0100
0000
0110
0000
0010
0001
0100
1000
,
0010
0000
0110
0000
0010
1000
0001
1000
,
0100
0000
0110
0000
0010
0001
1000
0001
,
0100
0000
0110
0000
0100
0001
0010
0001
,
0100
0000
0110
0000
0010
1000
0100
0000
,
1100
0000
1000
0100
0010
0000
0011
0000
,
2000
0001
0001
0001
3001
0010
0100
1000
,
0001
0000
0101
0000
0010
1000
0001
0000
,
0100
0010
1000
0010
0100
0001
1000
0001
,
0010
0000
0100
1000
0010
0000
1001
0000
,
0002
0100
0100
0100
0103
0010
1000
0100
,
0010
0000
0011
0000
1000
0100
0010
0000
,
0001
0000
0100
0000
1000
0100
0001
0010
,
1000
0000
0000
0000
0010
0000
0000
0000
0001
0000
0000
0100
1000
0000
0100
0000
,
0001
0000
0000
0000
0010
0000
0000
0000
1000
0000
0000
0010
0001
0000
0100
0000
,
1000
0000
0000
0000
0100
0000
0000
0000
0001
0000
0000
1000
0100
0000
0001
0000
,
0100
0000
0000
0000
1000
0000
0000
0000
0010
0000
0000
0001
0000
0010
0100
0010
,
0100
0001
0010
0001
0100
0001
0010
0001
,
1000
0100
1000
0010
1000
0100
1000
0010
,
0400
0040
0000
0000
0000
0000
0000
0000
0000
0000
0000
0000
0000
0000
0000
0330
,
1001
0000
0000
0110
1002
0000
0010
0000
,
0013
0000
0000
0000
0000
0000
0100
0000
0000
0100
0000
0000
1000
0000
0000
0010
0000
0000
1000
0000
0000
0100
0000
0010
,
0100
0000
1000
0000
0002
0000
1000
0000
2003
0000
0000
0000
3010
0100
0001
0100
,
0000
0010
1000
00M0
0000
1000
0001
1000
0000
0001
0010
0001
0000
1000
0100
1000
,
0000
0010
0100
0010
0000
1000
0001
1000
0002
0000
0000
0000
0100
0000
0000
0000
,
0103
0000
0000
0000
0000
0000
0010
0000
0000
0010
0000
0000
1000
0000
0000
0100
0000
0000
0010
0000
0000
0001
0000
0010
,
0001
1000
0020
1000
1030
0000
1100
0000
,
0010
0011
1000
0001
,
0100
0001
0010
1000
0100
0000
1001
0000
,
1001
0000
0000
0000
0000
0000
0010
0000
0000
0010
0000
0000
0001
0000
0000
0100
0000
0000
0010
0000
0000
1000
0000
0100
,
1000
0000
0001
0000
0200
0000
0010
0000
0310
0000
0000
0000
1000
0001
0010
0001
,
0000
0100
0001
0M00
0000
0010
0100
0010
0000
1000
0010
1000
0000
0100
1000
0100
,
0000
0010
0100
0010
0000
0001
0010
0001
1000
0000
0000
0000
1100
0000
0000
0000
,
1100
0000
0000
0000
0000
0000
0010
0000
0000
0010
0000
0000
0001
0000
0000
0100
0000
0000
0001
0000
0000
1000
0000
0010
,
2000
3002
0103
0101
,
0010
1010
0001
1000
,
0100
0000
0000
0000
1000
0000
0000
0000
0010
0000
0000
0000
0001
0000
0000
0000
0200
0000
0000
0000
0000
0000
0000
0000
0300
0000
0010
0000
0000
0001
0000
0000
,
0100
0000
0000
0000
0000
0000
0000
0000
0000
0000
0010
0000
0000
1000
0000
0000
0100
0000
0000
0000
0000
0000
0000
0000
0000
0000
0010
0000
0000
0001
0000
0000
,
1000
0000
0000
0000
0000
0000
0000
0000
0000
0000
0100
0000
0000
0010
0000
0000
0001
0000
0000
0000
0000
0000
0000
0000
0000
0000
0100
0000
0000
0010
0000
0000
,
1000
0000
0000
0000
0000
0000
0000
0000
0000
0000
0001
0000
0000
0010
0000
0000
1000
0000
0000
0000
0000
0000
0000
0000
0000
0000
0001
0000
0000
0100
0000
0000
,
1000
0000
0000
0000
0000
0000
0000
0000
0000
0000
0000
0000
0001
1000
0001
1000
0001
0000
0010
0000
0000
0000
0001
0000
0000
0000
0010
0000
0001
0000
0000
0000
1000
0000
0000
0000
0000
0000
0000
0000
0100
0000
0000
0000
0000
0000
0000
0000
0010
0000
0000
0000
0000
0000
0000
0000
0100
0000
0000
0000
0000
0000
0000
0000
,
1000
0000
0100
0000
0000
1000
0000
0000
0010
0000
0100
0000
0001
0000
0100
0000
,
0010
0000
1000
0000
0000
0100
0000
0000
0010
0000
0001
0000
1000
0000
0001
0000
,
0100
0000
1000
0000
0000
0100
0000
0000
0001
0000
1000
0000
0001
0000
0010
0000
,
1000
0000
0010
0000
0000
0100
0000
0000
1000
0000
0001
0000
0100
0000
0001
0000
,
0010
0000
1000
0000
0000
0010
0000
0000
0001
0000
0100
0000
1000
0000
0100
0000
,
0010
0000
1000
0000
0000
0100
0000
0000
1000
0000
0001
0000
0010
0000
0001
0000
,
1000
0001
0100
0001
0010
0000
0110
0000
,
0100
1000
0010
0002
0000
0000
0000
0000
,
0003
0000
0000
0000
;
