#TITLE:Brick by Boring Brick;
#SUBTITLE:;
#ARTIST:Paramore;
#TITLETRANSLIT:;
#SUBTITLETRANSLIT:;
#ARTISTTRANSLIT:;
#GENRE:;
#CREDIT:;
#MUSIC:Brick By Boring Brick.mp3;
#BANNER:;
#BACKGROUND:;
#CDTITLE:;
#SAMPLESTART:57.891;
#SAMPLELENGTH:11.962;
#SELECTABLE:YES;
#OFFSET:-0.063;
#BPMS:0.000=164.973;
#STOPS:;
#BGCHANGES:;
#FGCHANGES:;

//--------------- dance-single - ----------------
#NOTES:
     dance-single:
     Shortysnmn2010:
     Beginner:
     1:
     0.116979,0.169111,0.035602,0.097907,0,92,88,4,11,0,0,0.116979,0.169111,0.035602,0.097907,0,92,88,4,11,0,0:
0000
0000
0000
0000
,
0000
0000
0000
0000
,
0000
0000
0000
0000
,
0000
0000
0000
0000
,
1000
0000
0000
0000
,
0001
0000
0010
0000
,
0002
0000
0000
0000
,
0000
0000
0003
0000
,
1000
0000
0000
0000
,
0100
0000
1000
0000
,
0100
0000
0000
0000
,
0010
0000
0000
0000
,
0001
0000
0000
0000
,
1000
0000
0010
0000
,
1000
0000
0000
0000
,
0001
0000
0000
0000
,
1000
0000
0000
0000
,
0100
0000
0000
0000
,
0010
0000
0000
0000
,
0001
0000
0000
0000
,
1000
0000
0000
0000
,
0010
0000
0000
0000
,
0001
0000
0000
0000
,
0010
0000
0000
0000
,
1000
0000
0001
0000
,
1000
0000
0000
0000
,
0001
0000
0000
0000
,
0010
0000
0000
0000
,
0100
0000
0010
0000
,
0100
0000
0000
0000
,
1000
0000
0000
0000
,
0010
0000
0000
0000
,
0110
0000
0000
0000
,
0000
0000
0000
0000
,
1001
0000
0000
0000
,
0000
0000
0000
0000
,
0110
0000
0000
0000
,
0000
0000
0000
0000
,
1001
0000
0000
0000
,
0000
0000
0000
0000
,
1000
0000
0100
0000
,
0100
0000
0000
0000
,
0010
0000
0000
0000
,
0001
0000
0000
0000
,
2000
0000
3000
0000
,
0002
0000
0003
0000
,
0020
0000
0030
0000
,
0200
0000
0300
0000
,
1000
0000
0001
0000
,
1000
0000
0000
0000
,
0001
0000
1000
0000
,
0001
0000
0000
0000
,
0020
0000
0030
0000
,
0002
0000
0003
0000
,
0200
0000
0300
0000
,
0020
0000
0030
0000
,
1000
0000
0001
0000
,
1000
0000
0001
0000
,
1000
0000
0001
0000
,
1000
0000
0001
0000
,
1000
0000
0000
0000
,
0100
0000
0000
0000
,
0010
0000
0001
0000
,
0100
0000
0000
0000
,
0010
0000
0000
0000
,
1000
0000
0000
0000
,
0100
0000
0010
0000
,
0001
0000
0000
0000
,
1000
0000
0100
0000
,
1000
0000
1000
0000
,
0100
0000
0100
0000
,
1000
0000
0000
0000
,
0001
0000
0100
0000
,
0100
0000
0001
0000
,
0002
0000
0003
0000
,
1000
0000
0001
0002
,
0003
0000
0000
0000
;

//--------------- dance-single - ----------------
#NOTES:
     dance-single:
     Shortysnmn2010:
     Easy:
     4:
     0.25176,0.303399,0.053404,0.106807,0.00445,198,192,6,12,4,0,0.25176,0.303399,0.053404,0.106807,0.00445,198,192,6,12,4,0:
0000
0000
0000
0000
,
0000
0000
0000
0000
,
0000
0000
0000
0000
,
0000
0000
0000
0000
,
1000
0000
0000
0000
,
0001
0000
0100
0000
,
0010
0000
0000
0000
,
1000
0000
0000
0000
,
0001
0000
0000
0001
0000
0000
0000
0000
,
0010
0000
0100
0000
,
1000
0000
0000
0000
,
0010
0010
0100
0100
,
0010
0000
0000
1000
0000
0000
0000
0000
,
0100
0000
0010
0000
,
0001
0000
0000
0000
,
1000
1000
0001
0001
,
1000
0100
0000
0100
,
0000
0100
1000
0001
,
0000
0010
0000
0010
,
0000
0010
0001
1000
,
0000
0010
0000
0010
,
0000
0010
1000
0001
,
0000
0100
0000
0100
,
0000
0001
0100
0010
,
1000
1000
0100
0100
,
0010
0010
0001
0001
,
1000
0000
0001
0000
,
1000
0000
0001
0000
,
1000
1000
0001
0001
,
0100
0100
1000
1000
,
0100
0001
1000
0001
,
1000
1000
1000
0000
,
2002
0000
3003
0000
,
0010
0000
0000
0100
0000
0000
0001
0000
,
0001
0000
0000
1000
0000
0000
0100
0000
,
0100
0000
0000
0010
0000
0000
0100
0000
,
0220
0000
0330
0000
,
1000
0000
0000
0001
0000
0000
0100
0000
,
0100
0000
0000
0010
0000
0000
1000
0000
,
0004
4000
0000
0000
0000
0000
0000
0000
3003
0000
0000
0000
0000
0000
0000
0000
,
0001
0100
0010
1000
,
1000
0000
0000
0001
,
1000
0100
0010
0001
,
0001
0000
0000
1000
,
1000
0000
0000
0010
0000
0000
1000
0000
,
0001
0000
0000
0010
0000
0000
0000
0000
,
0001
0000
0000
1000
0000
0000
0100
0000
,
1000
0000
0000
0010
0000
0000
0000
0000
,
0100
0001
1000
0010
,
0010
0000
0000
1000
,
0100
0010
0001
0100
,
0100
0000
0000
0010
,
0010
0000
0000
1000
0000
0000
0100
0000
,
0010
0000
0000
0001
0000
0000
0000
0000
,
1000
0000
0000
0010
0000
0000
0001
0000
,
0010
0000
0100
0000
,
0010
0100
001M
0010
,
0100
0010
M100
0100
,
0001
1000
00M1
0001
,
1000
0001
1M00
1000
,
0010
0200
0000
0300
,
0010
1000
0100
0100
,
2000
0000
0000
3000
,
0001
0100
1001
0000
,
0001
0020
0000
0030
,
0100
1000
0010
0010
,
2000
0000
0000
3000
,
0010
0100
1001
0000
,
0001
0200
0000
0300
,
0010
1000
0100
0100
,
2000
0000
0000
3000
,
0001
0100
1010
0000
,
1000
0200
0000
0300
,
0010
0001
0100
0100
,
0020
0000
0000
0000
0000
0000
0030
0100
,
0000
0100
0010
0000
0100
0000
0110
0000
;

//--------------- dance-single - ----------------
#NOTES:
     dance-single:
     Shortysnmn2010:
     Medium:
     6:
     0.37764,0.606798,0.373825,0.106807,0.00445,297,255,42,12,0,0,0.37764,0.606798,0.373825,0.106807,0.00445,297,255,42,12,0,0:
0000
0000
0000
0000
,
0000
0000
0000
0000
,
0000
0000
0000
0000
,
0000
0000
0000
0000
,
0220
0000
0000
0000
0000
0330
0000
0000
,
1000
0000
0001
0000
,
2200
0000
0000
0000
0000
3300
0000
0000
,
0010
0000
0001
0000
,
1000
0100
0000
0010
0000
0000
0000
0000
,
0001
0000
0100
0000
,
0001
1000
0100
1000
,
0002
0000
0000
0003
,
0100
1000
0000
0010
0000
0000
0000
0000
,
0100
0000
0010
0000
,
1000
0100
0010
0001
,
0200
0000
0000
0300
,
1000
0101
1000
0101
,
0010
1000
0100
0010
,
0100
0011
0100
0011
,
0100
1000
0001
0000
,
1000
0110
0001
0110
,
1000
0001
0010
0001
,
0100
1001
0010
1001
,
0100
0010
1000
0000
,
0101
0101
0011
0011
,
1100
1100
1010
1010
,
1001
1001
0110
0110
,
1001
0000
0000
0010
1000
0000
0001
0000
,
0100
0000
0010
0100
0000
0010
0000
1000
,
0100
0010
0001
1000
,
0010
1000
0000
0100
0000
0010
0000
0100
,
1000
0010
0010
0000
,
0100
0000
0000
1000
0000
0000
0010
1000
,
0100
0000
0000
0010
0000
0000
0001
0100
,
1000
0000
0100
0000
0000
0000
0010
1000
,
0001
0000
0000
0010
0000
0100
0010
0000
,
0001
0000
0000
1000
0000
0000
0010
1000
,
0100
0000
0000
0010
0000
0000
0100
1000
,
0010
0000
0000
0100
0000
0000
1000
0000
,
0004
0400
0000
0000
0000
0000
0000
0000
0000
0000
0303
0000
0000
0000
0010
0000
,
0000
1000
0000
0100
1000
0000
0001
0000
,
0101
0000
0000
0000
0000
0010
0000
1000
,
0000
0100
0000
0010
0001
0000
0100
0000
,
0110
1000
0001
0010
,
0002
0000
0000
0100
0000
0000
1000
0000
,
0010
0000
0000
1003
0000
0000
0000
0000
,
2000
0000
0000
0010
0000
0000
0001
0000
,
0100
0000
0000
3001
0000
0000
0000
0010
,
0000
0001
0000
0100
0010
0000
0100
0000
,
0101
0000
0000
0000
0000
0010
0000
1000
,
0000
0100
0000
1000
0010
0000
0100
0000
,
1010
0100
0001
0010
,
0200
0000
0000
0001
0000
0000
1000
0000
,
0010
0000
0000
0301
0000
0000
0000
0000
,
0020
0000
0000
0001
0000
0000
1000
0000
,
0100
0000
0031
0000
,
0012
1000
0010
1000
,
0100
1000
0100
1003
,
2010
0001
0010
0001
,
0100
0001
0100
3001
,
0010
0000
0001
0100
0000
0010
0000
0100
,
0001
1000
0100
0010
,
0100
1000
0000
0010
0000
0100
0000
0001
,
1000
1010
0101
0000
,
0010
0000
1000
0100
0000
0010
0000
0100
,
1000
0010
0001
0010
,
1000
0001
0000
0010
0000
0001
0000
1000
,
0100
0110
0011
0000
,
1000
0000
0001
0100
0000
0010
0000
0010
,
1000
0100
0010
0001
,
0100
0010
0000
1000
0000
0100
0000
0100
,
1000
1010
0101
0000
,
0001
0000
0010
0001
0000
0100
0000
0100
,
0001
0010
0100
1000
,
0010
1000
0000
1100
0000
0011
0000
1100
,
0000
0011
0011
0000
1100
0000
0011
0000
;

//--------------- dance-single - ----------------
#NOTES:
     dance-single:
     Shortysnmn2010:
     Hard:
     8:
     0.462831,0.6078,0.222515,0.240316,0.008901,364,339,25,27,0,0,0.462831,0.6078,0.222515,0.240316,0.008901,364,339,25,27,0,0:
0000
0000
0000
0000
,
0000
0000
0000
0000
,
0000
0000
0000
0000
,
0000
0000
0000
0000
,
0020
0000
0030
0000
,
0002
0003
0200
0300
,
2020
0000
3030
0000
,
1000
0001
0001
1000
0001
1000
1000
0000
,
0001
0100
0000
0020
0000
0000
0030
0000
,
1000
0001
1000
0000
0001
0010
0100
0000
,
1000
0000
0010
0000
0100
0001
0010
0000
,
0001
1000
0001
1000
0001
1000
0001
0000
,
0010
0100
0000
2000
0000
0000
3000
0000
,
0010
0100
0001
0000
0010
0001
0100
0000
,
0001
0000
1000
0000
0100
1000
0010
0000
,
1000
0001
1000
0001
1000
0001
1000
0000
,
0001
0100
0010
1000
0001
0010
0100
1000
,
0001
0100
0010
1000
0001
0010
0100
1000
,
0010
0001
0000
0010
0000
0100
0000
0001
,
0100
0010
1001
0000
,
1000
0010
0100
0001
1000
0100
0001
0100
,
1000
0100
0010
0001
1000
0010
0001
0010
,
1000
0001
0000
0010
0000
0100
0000
1000
,
0100
0010
0011
0000
,
0012
1003
2001
3100
,
1200
0310
0120
0031
,
2001
3010
0210
0301
,
2001
0000
3010
0100
0001
0000
1000
0000
,
0001
0000
0010
0001
0000
0100
0000
0100
,
0001
0010
0100
1000
,
0010
1000
0000
0001
0000
1000
0000
0100
,
0010
0001
1001
0000
,
2000
0000
0000
3010
0000
0000
0100
0001
,
2000
0000
0000
3001
0000
0000
0001
0010
,
0002
0000
0000
0103
0000
0000
0010
1000
,
0200
0000
0000
0310
0000
0001
1000
0000
,
0020
0000
0000
1030
0000
0000
0001
0100
,
0020
0000
0000
0130
0000
0000
0100
0001
,
0020
0000
0000
0031
0000
0000
0010
0100
,
4000
0004
0000
0000
0000
0000
0000
0000
0000
0000
3003
0000
0000
0000
0000
0000
,
1000
0100
0010
0100
1000
0010
0100
0001
,
0020
0000
0100
0031
,
1000
0010
0001
0010
0100
0001
0100
0010
,
2000
0000
0100
3001
,
0010
0001
1000
0001
0000
0000
0100
0000
,
0010
1000
0010
0100
0000
0000
0001
0000
,
0010
0100
1000
0100
0000
0000
0010
0000
,
0004
4000
0000
0000
0000
0000
0000
0000
0000
0000
0000
0000
3003
0000
0000
0000
,
1000
0100
1000
0100
0010
0001
0100
0001
,
2000
0000
0010
3100
,
0001
0100
0001
0100
0010
1000
0100
1000
,
0002
0000
0010
1003
,
0001
0100
0001
0100
0000
0000
0010
0000
,
1000
0100
0010
0001
0000
0000
1000
0000
,
0010
1000
0010
0100
0000
0000
0001
0000
,
1000
0001
1000
0001
0010
0100
0010
0100
,
2000
0100
0001
0100
,
0001
0010
0001
3010
,
0002
0100
1000
0100
,
1000
0010
1000
0013
,
0001
0000
1000
0100
0000
0010
0000
0100
,
1000
0000
0001
0000
0100
0001
0100
0000
,
0010
1000
0000
0100
0000
0010
0000
0100
,
1000
1010
0101
0000
,
0010
0000
1000
0100
0000
0010
0000
0010
,
0001
0000
0100
0000
0001
1000
0001
0000
,
0010
0100
0000
1000
0000
0010
0000
1000
,
0001
0101
1010
0000
,
0001
0000
0100
0001
0000
1000
0000
1000
,
0010
0000
1000
0000
0100
0010
0100
0000
,
1000
0010
0000
0100
0000
0001
0000
1000
,
0100
1100
0011
0000
,
0001
0000
0010
0001
0000
1000
0000
0100
,
0001
0000
0100
0000
1000
0010
0100
0000
,
0001
0100
0000
1001
0000
1100
0000
0011
,
0000
0110
0110
0000
1001
0000
1100
1100
;
