#TITLE:Battle Theme;
#SUBTITLE:Final Fantasy VI;
#ARTIST:The Black Mages;
#TITLETRANSLIT:;
#SUBTITLETRANSLIT:;
#ARTISTTRANSLIT:;
#GENRE:;
#CREDIT:;
#MUSIC:Battle Theme (Final Fantasy VI).mp3;
#BANNER:;
#BACKGROUND:;
#CDTITLE:;
#SAMPLESTART:82.729;
#SAMPLELENGTH:15.696;
#SELECTABLE:YES;
#OFFSET:-0.076;
#BPMS:0.000=122.014;
#STOPS:;
#BGCHANGES:;
#FGCHANGES:;

//--------------- dance-single - ----------------
#NOTES:
     dance-single:
     Shortysnmn2010:
     Beginner:
     1:
     0.104113,0.149873,0.070528,0.117547,0,93,84,9,15,0,0,0.104113,0.149873,0.070528,0.117547,0,93,84,9,15,0,0:
0000
0000
0000
0000
,
0000
0000
0000
0000
,
0000
0000
0000
0000
,
0000
0000
0000
0000
,
0110
0000
0000
0001
,
0001
0000
0000
0000
,
0110
0000
0000
1000
,
1000
0000
0000
0000
,
1001
0000
0000
0100
,
0100
0000
0000
0000
,
1001
0000
0000
0010
,
0010
0000
0000
0000
,
2002
0000
0000
0000
,
0000
0000
3003
0000
,
1000
0000
0000
0000
,
0100
0100
0000
0000
,
0100
0100
0000
0000
,
0010
0000
0000
0000
,
0001
0000
0000
0000
,
1000
1000
0000
0000
,
0002
0000
0003
0000
,
2000
0000
3000
0000
,
0110
0000
0000
1000
,
1000
0000
0000
0000
,
1001
0000
0000
0100
,
0100
0000
0000
0000
,
0010
0000
0000
0000
,
0001
0001
0000
0000
,
0001
0001
0000
0000
,
1000
0000
0000
0000
,
0010
0000
0000
0000
,
1000
0000
0100
0000
,
2000
0000
3000
0000
,
0002
0000
0003
0000
,
1000
0000
0001
0000
,
1000
0000
0000
0000
,
0010
0000
1000
0000
,
0010
0000
0000
0000
,
0100
0000
0001
0000
,
0100
0000
0000
0000
,
0010
0000
0100
0000
,
0010
0000
0000
0000
,
2000
0000
0000
3000
,
0001
0001
0000
0000
,
1000
1000
0000
0000
,
0020
0000
0000
0030
,
0100
0000
0000
0000
,
0010
0000
0100
0000
,
0010
0000
0000
0000
,
2002
0000
3003
0000
,
1000
1000
0000
0000
,
0001
0001
0000
0000
,
2000
0000
3000
0000
,
0020
0000
0030
0000
,
0100
0100
0000
0000
,
0010
0010
0000
0000
,
0100
0000
0002
0000
,
0000
0003
1000
0000
,
0100
0000
0000
0000
,
0010
0000
0000
0100
,
0000
0000
0010
0000
,
1000
0000
0000
0001
,
0000
0000
0000
0000
,
2002
0000
0000
3003
;

//--------------- dance-single - ----------------
#NOTES:
     dance-single:
     Shortysnmn2010:
     Easy:
     2:
     0.123145,0.149873,0.007836,0.070528,0,110,109,1,9,0,0,0.123145,0.149873,0.007836,0.070528,0,110,109,1,9,0,0:
0000
0000
0000
0000
,
0000
0000
0000
0000
,
0000
0000
0000
0000
,
0000
0000
0000
0000
,
1000
0000
0001
0000
,
2000
0000
3000
0000
,
0100
0000
0010
0000
,
0200
0000
0300
0000
,
0010
0000
0001
0000
,
0020
0000
0030
0000
,
0100
0000
1000
0000
,
0200
0000
0300
0000
,
2002
0000
0000
0000
,
0000
0000
3003
0000
,
0010
0000
1000
0000
,
0001
0001
0000
0000
,
1000
1000
0000
0010
,
0010
0000
0100
0000
,
0010
0000
0100
0000
,
1000
1000
0000
0100
,
0100
0000
0000
0001
,
0001
0000
0000
0000
,
1000
0000
0001
0000
,
2000
0000
3000
0000
,
0010
0000
0100
0000
,
0020
0000
0030
0000
,
0100
0000
0001
0000
,
0100
0100
0000
0000
,
0010
0010
0000
1000
,
1000
0000
0001
0000
,
1000
0000
0001
0000
,
0010
0010
0000
0100
,
0100
0000
0000
1000
,
1000
0000
0000
0000
,
0001
0000
1000
0000
,
0001
0000
0000
0000
,
0010
0000
0001
0000
,
0010
0000
0000
0000
,
0100
0000
1000
0000
,
0100
0000
0000
0000
,
1000
0000
0001
0000
,
1000
0000
0000
0000
,
0010
0000
0100
0000
,
0001
0001
0000
0000
,
1000
1000
0000
0010
,
0010
0000
1000
0000
,
0001
0000
0100
0000
,
0001
0001
0000
1000
,
1000
0000
0000
0100
,
0100
0000
0000
0000
,
0010
0010
0000
0000
,
0001
0001
0000
0000
,
1000
0000
0100
0000
,
0010
0000
0001
0000
,
1000
1000
0000
0000
,
0001
0001
0000
0000
,
1000
0000
0010
0000
,
0100
0000
0001
0000
,
1000
0000
0001
0000
,
1000
0000
0000
0001
,
0000
0000
1000
1000
,
1000
0000
0000
0010
,
0000
0000
0100
0010
,
0200
0000
0000
0300
;

//--------------- dance-single - ----------------
#NOTES:
     dance-single:
     Shortysnmn2010:
     Medium:
     6:
     0.269799,0.324725,0.078365,0.258604,0,241,231,10,33,0,0,0.269799,0.324725,0.078365,0.258604,0,241,231,10,33,0,0:
0000
0000
0000
0000
,
0000
0000
0000
0000
,
0000
0000
0000
0000
,
0000
0000
0000
0000
,
1001
0000
0000
0000
0000
0010
0000
0020
,
0000
0030
0000
0000
,
0110
0000
0000
0000
0000
1000
0000
2000
,
0000
0000
3000
0000
0001
0010
0100
1000
,
0001
0000
0000
0000
0000
1000
0000
2000
,
0000
3000
0000
0000
,
0110
0000
0000
0000
0000
0100
0000
0200
,
0000
0000
0300
0000
1000
0010
0100
0001
,
1000
0100
0001
0010
,
2002
0000
3003
0000
,
1000
0100
0010
0001
1000
0000
0100
0000
,
0010
0000
0020
0000
0030
0001
0100
0000
,
0010
0000
0020
0000
0030
1000
0100
0000
,
0001
0000
0100
0010
0100
0000
1000
0000
,
0100
1000
0010
0000
0100
0000
1000
0000
,
0100
0000
0200
0000
0001
0000
0301
0010
,
0002
0000
0000
0003
0000
1000
0100
0000
,
0220
0000
0330
0000
,
0010
0000
0001
0000
0100
0010
0000
0020
,
0100
0100
1000
0130
,
0001
0000
1000
0000
0010
0100
0000
0200
,
0010
0010
1000
0310
,
1000
0001
1000
0001
0100
0000
0010
0000
,
1000
0000
0002
0000
0003
1000
0010
0000
,
1000
0000
2000
0000
3000
0100
1000
0000
,
0010
0000
0100
0000
0010
0100
0010
0000
,
0100
0001
0010
0001
0100
0000
0010
0000
,
0100
0000
0200
0000
0010
0000
0310
0001
,
0020
0000
0000
0030
0000
0001
1000
0000
,
0110
0000
0000
0000
,
1000
1000
0000
0000
0001
0001
0000
0000
,
0010
0000
0001
1000
0000
1000
0001
0000
,
0100
0100
0000
0000
0010
0010
0000
0000
,
0100
0001
0010
0001
0000
0001
0010
0000
,
0100
0100
0000
0000
0010
0010
0000
0000
,
0100
0000
1000
0100
0000
0100
1000
0000
,
0010
0010
0000
0000
0100
0100
0000
0000
,
0001
1000
0001
1000
0000
0001
1000
0000
,
0001
0100
0001
0000
0100
0001
0100
0000
,
0010
0000
0020
0000
0030
1000
0001
0000
,
0010
0000
0020
0000
0030
0001
1000
0000
,
0100
0000
1000
0100
1000
0000
0100
0000
,
0010
0001
0100
0000
0010
0000
1000
0001
,
0100
0000
0200
0000
0001
0000
0310
1000
,
0020
0000
0000
0030
0000
0100
1000
0000
,
0002
0000
0003
0000
,
2000
0200
0000
3300
,
0002
0020
0000
0033
,
1000
0000
0001
0000
0100
0010
0000
0100
,
0000
0010
0100
0000
0001
0000
0010
0100
,
2000
0020
0000
3030
,
0002
0200
0000
0303
,
1000
0000
0001
0000
0100
0001
0000
1000
,
0000
0100
0010
0000
0001
0100
0000
0000
,
0001
1000
0100
1000
0001
1000
0100
1000
,
0001
0000
0000
1000
0000
0000
0010
0000
,
0000
0100
0000
0000
0101
0000
1010
0000
,
1001
0000
0000
1000
0000
0000
0100
0000
,
0010
0001
0100
0010
,
2002
0000
0000
3003
;

//--------------- dance-single - ----------------
#NOTES:
     dance-single:
     Shortysnmn2010:
     Hard:
     8:
     0.444441,0.472737,0.242931,0.164566,0.109711,397,366,31,21,0,0,0.444441,0.472737,0.242931,0.164566,0.109711,397,366,31,21,0,0:
0000
0000
0000
0000
,
0000
0000
0000
0000
,
0000
0000
0000
0000
,
0000
0000
0000
0000
,
2100
0000
0000
0000
3001
0000
0010
0001
0010
0000
0100
0000
0000
0000
2200
0000
,
0000
0000
3300
0000
,
2010
0000
0000
0000
3001
0000
0100
0001
0100
0000
0010
0000
0000
0000
2020
0000
,
0000
0000
3030
0000
0001
0010
0100
1000
,
0001
0000
0000
0000
0100
0000
0010
0100
0010
0000
0100
0000
0000
0000
2002
0000
,
0000
0000
3003
0000
,
0102
0000
0000
0000
1003
0000
0100
0010
0100
0000
0001
0000
0000
0000
2200
0000
,
0000
0000
3300
0000
0010
0001
0100
1000
,
0200
0001
0010
1300
,
0010
0000
0000
1000
0000
0000
0001
0000
0000
0100
0000
0000
1001
0000
0000
0000
,
0001
0010
0001
0010
0100
1000
0010
1000
,
0100
0000
1100
0000
0000
0010
0001
0100
,
0010
0000
1010
0000
0000
1000
0001
0100
,
0010
0000
0100
0001
0100
0000
0010
1000
0010
0000
0100
0000
0001
0000
0010
0000
,
0100
1000
0010
1000
0100
0010
0001
1000
,
0001
0000
0110
0000
1000
0000
0010
0100
,
0002
0000
0010
0000
0013
0100
1000
0010
,
1000
0000
0000
0000
0001
0000
0040
0400
0000
0000
0000
0000
0330
0000
0000
0000
,
1000
0000
0000
0000
0001
0000
0100
0001
0100
0000
0010
0000
0000
0000
2020
0000
,
0000
0000
3030
0000
,
1000
0000
0000
0000
0001
0000
0010
0100
1000
0000
0001
0000
0000
0000
0202
0000
,
0000
0000
0303
0000
,
0010
1000
0001
1000
0100
0010
0001
0100
,
0010
0000
0101
0000
0000
0010
1000
0001
,
0010
0000
0110
0000
0000
0010
0001
0100
,
0010
0000
1000
0001
1000
0000
0001
0100
0001
0000
1000
0000
0100
0000
0010
0000
,
0001
0100
1000
0100
0010
0100
0001
0010
,
0100
0000
1100
0000
0010
0000
0010
0001
,
0200
0000
0000
0300
0000
0010
1000
0001
,
0100
0000
0000
0000
0010
0000
4000
0400
0000
0000
0000
0000
3300
0000
0000
0000
,
0010
0000
0010
0000
0001
0000
1000
0100
0010
0000
0010
0000
0001
0000
1000
0000
,
0010
0000
0100
0001
0000
1000
0100
0010
,
0001
0000
0001
0000
1000
0000
0010
0100
0001
0000
0001
0000
0010
0000
0100
0000
,
1000
0000
0010
0100
0010
0000
1000
0000
0000
0000
0001
0000
0010
0000
0100
0000
,
1000
0000
1000
0000
0010
0000
0100
0001
1000
0000
1000
0000
0100
0000
0010
0000
,
0001
0000
1000
0100
0000
1000
0010
0100
,
0001
0000
0001
0000
0010
0000
0100
0010
0001
0000
0001
0000
0100
0000
0010
0000
,
1000
0000
0001
0100
0010
0000
1000
0000
0000
0000
0100
0000
1000
0000
0100
0000
,
0010
0001
0100
0001
0010
0100
1000
0001
,
1000
0100
0010
0001
1000
0001
0100
0010
,
1000
0001
1000
0010
0100
0001
0010
0100
,
1000
0000
0010
0100
0010
0000
0100
0010
0100
0000
0001
0000
0010
0000
0100
0000
,
1000
0001
0100
0001
1000
0010
0001
0010
,
1000
0001
0010
0100
1000
0001
0010
1000
,
0010
0001
1000
0100
0001
1000
0010
0001
,
0100
0000
0000
0000
0010
0000
0400
0004
0000
0000
0000
0000
0303
0000
0000
0000
,
1010
0000
0000
0000
1000
0000
0100
1000
0100
0000
0000
0000
0010
0000
0001
0000
,
0011
0000
0100
0001
0010
0000
0100
1000
,
0010
1000
0001
1000
0100
0010
0000
0110
,
0000
0000
0100
0000
1000
0001
1000
0000
0010
0000
0100
0000
0001
0000
0010
0000
,
0011
0000
0000
0001
1000
0000
0100
1000
0100
0000
0000
0000
0010
0000
0100
0000
,
1100
0000
0010
0100
0001
0010
0001
0100
,
1000
0100
0001
0010
0100
1000
0000
0110
,
0000
0010
1000
0100
0010
0001
0000
0000
,
1000
0100
0010
0001
0100
0001
0010
0100
,
1100
0000
0010
1001
0000
0100
1010
0000
,
0001
0110
0000
1000
0012
0000
0103
0000
,
1010
0000
0100
1001
0000
0010
1100
0000
,
0004
4000
0000
0000
0000
0000
0000
0000
0000
0000
0000
0000
0000
0000
3003
0000
,
0220
0000
0330
0000
;

//--------------- dance-single - ----------------
#NOTES:
     dance-single:
     Shortysnmn2010:
     Challenge:
     10:
     0.640354,0.824302,0.188076,0.211585,0.599492,572,548,24,27,0,0,0.640354,0.824302,0.188076,0.211585,0.599492,572,548,24,27,0,0:
0000
0000
0000
0000
,
0000
0000
0000
0000
,
0000
0000
0000
0000
,
0000
0000
0000
0000
0000
0000
0000
0000
0000
0000
0000
0000
0001
1000
0001
1000
0001
0000
1000
0000
0100
0000
0010
0000
0001
0000
1000
0000
0100
0000
1000
0000
,
0002
0000
0000
0000
0103
0000
0010
1000
0010
0000
0100
0000
0001
0000
0020
0000
,
0000
0000
0000
0000
0000
0000
0130
1000
,
0002
0000
0000
0000
1003
0000
0100
0010
0100
0000
1000
0000
0010
0000
0100
0000
,
0002
0000
0000
0000
0000
0000
0000
0000
0013
0100
0010
0100
1000
0001
0010
0100
,
2000
0000
0000
0000
3010
0000
0100
0001
0100
0000
0010
0000
1000
0000
0200
0000
,
0000
0000
0000
0000
0000
0000
1300
0001
,
0020
0000
0000
0000
0130
0000
1000
0001
1000
0000
0100
0000
0010
0000
0001
0000
,
1000
0000
0000
0001
0100
0000
0001
0000
1000
0100
1000
0100
0010
0001
1000
0100
,
0020
1000
0100
0031
,
1001
0000
0000
0000
0000
0000
1000
0000
0000
0000
0000
0000
0010
0000
0000
0000
0000
0000
0100
0000
0000
0000
0001
0100
0001
0000
0000
0000
1000
0000
0100
0000
,
0010
0000
0001
0000
1000
0001
0100
0000
0110
0000
0001
0000
1000
0000
0010
0000
,
0200
0000
0001
0000
0310
1000
0001
0010
,
0100
0000
0000
0000
1000
0000
0010
0100
0001
0000
1000
0000
0100
0000
0010
0000
,
0001
0000
1000
0100
1000
0000
0001
0010
0001
0000
1000
0010
0100
0000
0001
0100
,
0010
1000
0001
0010
0110
1000
0001
0010
,
0002
0000
0000
0000
0010
0000
0000
0000
2003
0000
0000
0000
3100
0010
0100
0000
,
1000
0000
0010
0000
0100
0000
0001
1000
0100
0000
0010
0000
0010
0000
0001
0000
,
2000
0000
0000
0000
3010
0000
0100
0001
0100
0001
1000
0010
0100
0001
1000
0100
,
0010
0000
0000
0000
0001
0000
1000
0100
0010
0000
0100
0000
0000
0000
2002
0000
,
0000
0003
0000
0000
0010
0000
0000
0000
0100
0000
0000
0000
3001
0000
0010
0000
,
0100
0000
0000
0000
1000
0000
0010
0100
0001
0000
1000
0000
0000
0000
2002
0000
,
0000
3000
0000
0000
0010
0000
0000
0000
0103
0000
0000
0010
0100
0000
0010
1000
,
0001
0000
0010
0000
0100
1000
0001
0000
1010
0000
0100
0000
0001
0000
0010
0000
,
0200
0000
0010
0000
0301
1000
0010
0001
,
1000
0000
0000
0000
0010
0000
0100
0001
0100
0000
0010
0000
1000
0000
0001
0000
,
0010
0000
0100
1000
0001
0000
0010
0001
1000
0000
0010
1000
0001
0000
0100
0001
,
1000
0100
0010
0001
0101
0010
1000
0100
,
0020
0000
0100
0000
0032
0000
0103
0010
,
1000
0000
0000
0000
0001
0000
0010
0100
1000
0000
0010
0000
0100
0000
0010
0000
,
1000
0000
0000
0000
0001
0000
0010
0001
0010
0001
1000
0010
0100
0001
1000
0100
,
0010
0000
0010
0000
0001
0000
1000
0010
0100
0000
0100
0000
0001
1000
0010
0100
,
0001
0000
0000
0000
1010
0000
0101
0000
0000
0000
0110
0000
1000
0001
1000
0001
,
0010
0000
0000
0000
0010
0000
0000
0000
0100
0000
0000
0000
1000
0000
0010
0000
0100
0000
0000
0000
0100
0000
0000
0000
0001
0000
0000
0000
1000
0001
1000
0001
,
1000
0000
0010
0100
0002
0000
0010
0000
1000
0000
0013
0000
0010
0000
0001
0100
,
0010
0000
0010
0000
1000
0000
0001
0010
0100
0000
0100
0000
1000
0001
0010
0001
,
1000
0100
0000
0100
1000
0000
1000
0010
0000
0010
1000
0001
0100
0010
1000
0001
,
0100
0000
0100
0000
0010
0000
0010
0100
0001
0000
0010
0000
0010
0001
1000
0100
,
0010
0000
0000
0000
0100
0000
1000
0000
0001
0000
0000
0000
0010
0000
0000
0000
0004
4000
0000
0000
0000
0000
0000
0000
0000
0000
0000
0000
3003
0000
0000
0000
,
0001
0100
0001
0100
0010
1000
0010
1000
0001
0010
0100
1000
0001
0010
0100
1000
,
0001
0010
0001
0010
0100
1000
0100
1000
0001
0100
0010
1000
0001
0100
0010
1000
,
0100
0010
0100
0010
0001
1000
0001
1000
0010
0100
0001
1000
0100
0010
0001
1000
,
0010
0000
0100
0001
0100
0000
0010
1000
0010
0000
0100
0000
0001
0000
0010
0000
,
0100
1000
0001
0010
0100
1000
0001
0100
0010
1000
0001
0010
0001
1000
0100
1000
,
0001
0100
0001
1000
0010
0100
0001
1000
0001
0010
0100
1000
0001
0100
0010
0100
,
1000
0100
0010
0100
0001
1000
0010
1000
0001
1000
0100
1000
0010
0100
0001
1000
,
0002
0000
0000
0000
0000
0000
0000
0000
0013
0000
0000
0000
0100
0000
1000
0000
0001
0000
0010
0000
0100
1000
0001
0000
0010
0000
0100
0000
1000
0000
0001
0000
,
1000
0000
0000
0000
0001
0000
0100
0010
0200
0000
0000
0000
0300
0000
0100
0000
,
0010
0000
0010
1000
0001
1000
0100
0010
,
0001
0001
1000
0100
0010
0011
0000
1100
,
0000
0000
1001
0000
0010
0100
0010
0000
1001
0000
0100
0000
0010
0000
0100
0000
,
1000
0000
0000
0010
1000
0000
0100
1000
0200
0000
0000
0000
0300
0000
0100
0000
,
1000
0000
0010
1000
0010
0100
0001
0010
,
0200
0000
1000
0000
1000
0000
0320
0000
0001
0000
0200
0000
0000
0330
1001
0000
,
0000
0000
0000
1000
0000
0000
0010
0000
0000
0100
0000
0000
0001
0000
0010
0000
0100
0000
1000
0000
0001
0000
0010
0000
,
0100
1000
0010
0001
1000
0100
0001
0010
,
0110
0001
0001
1100
0010
0010
1001
0100
,
0100
1010
0001
0001
0110
0000
1001
0000
,
0101
0010
1000
0110
0001
1000
0011
0100
,
1000
0000
0001
0000
0010
0000
0100
0000
0010
0000
0001
0000
0100
0000
0010
0000
0001
0000
0010
0100
0001
0000
0010
0000
,
0200
0000
0000
0300
;
