#TITLE:Bad List;
#SUBTITLE:;
#ARTIST:Ayria;
#TITLETRANSLIT:;
#SUBTITLETRANSLIT:;
#ARTISTTRANSLIT:;
#GENRE:;
#CREDIT:;
#MUSIC:Bad List.mp3;
#BANNER:;
#BACKGROUND:;
#CDTITLE:;
#SAMPLESTART:91.575;
#SAMPLELENGTH:15.237;
#SELECTABLE:YES;
#OFFSET:-0.155;
#BPMS:0.000=126.012
,223.500=129.012
,224.000=126.012
;
#STOPS:;
#DISPLAYBPM:126.012;
#BGCHANGES:;
#FGCHANGES:;

//--------------- dance-single - ----------------
#NOTES:
     dance-single:
     Shortysnmn2010:
     Beginner:
     1:
     0.090674,0.128927,0.007934,0.111076,0,80,79,1,14,0,0,0.090674,0.128927,0.007934,0.111076,0,80,79,1,14,0,0:
0000
0000
0000
0000
,
0000
0000
0000
0000
,
0000
0000
0000
0000
,
0000
0000
0000
0000
,
0010
0000
0000
0000
,
0001
0000
0000
0000
,
0100
0000
0000
0000
,
1000
0000
0000
0000
,
0100
0000
0100
0000
,
0001
0000
0000
0000
,
1000
0000
1000
0000
,
0010
0000
0000
0000
,
1000
0000
1000
0000
,
0001
0000
0000
0000
,
0001
0000
0001
0000
,
1000
0000
0000
0000
,
0010
0000
0000
0000
,
0100
0000
0000
0000
,
0001
0000
0010
0000
,
0001
0000
0010
0000
,
0001
0000
0000
0000
,
1000
0000
0000
0000
,
0100
0000
0000
0000
,
0010
0000
0000
0000
,
0100
0000
1000
0000
,
0100
0000
0000
0000
,
0010
0000
0100
0000
,
0010
0000
0000
0000
,
0001
0000
0100
0000
,
0001
0000
0000
0000
,
0010
0000
0100
0000
,
0010
0000
0000
0000
,
0002
0000
0000
0000
,
0100
0000
0003
0000
,
2000
0000
0000
0000
,
0010
0000
3000
0000
,
0002
0000
0000
0000
,
0010
0000
0003
0000
,
2000
0000
0000
0000
,
0100
0000
3000
0000
,
0001
0000
0000
0000
,
0100
0000
0000
0000
,
0010
0000
0000
0000
,
1000
0000
0000
0000
,
0001
0000
0000
0000
,
0010
0000
0000
0000
,
0100
0000
0000
0000
,
1000
0000
0000
0000
,
0001
0000
1000
0000
,
0010
0000
0000
0000
,
1000
0000
0001
0000
,
0100
0000
0000
0000
,
0010
0000
0100
0000
,
0001
0000
0000
0000
,
0010
0000
0100
0000
,
1000
0000
0000
0000
,
0002
0003
0002
0003
,
0000
0000
0010
0000
,
0200
0300
0200
0300
,
0000
0000
1000
0000
,
0020
0030
0020
0030
,
0000
0000
0100
0000
,
0002
0003
0002
0003
,
0000
0000
0010
0000
,
0220
0000
0000
0000
,
0330
0000
0000
0000
;

//--------------- dance-single - ----------------
#NOTES:
     dance-single:
     Shortysnmn2010:
     Easy:
     2:
     0.111076,0.152333,0.031736,0.190416,0,98,94,4,24,0,0,0.111076,0.152333,0.031736,0.190416,0,98,94,4,24,0,0:
0000
0000
0000
0000
,
0000
0000
0000
0000
,
0000
0000
0000
0000
,
0000
0000
0000
0000
,
1000
0000
0100
0000
,
0010
0000
0001
0000
,
1000
0000
0000
0000
,
0001
0000
0000
0000
,
1000
0000
0010
0000
,
0100
0000
0001
0000
,
1000
0000
0000
0000
,
0001
0000
0000
0000
,
0010
0000
0100
0000
,
0010
0000
0100
0000
,
1000
0000
0000
0000
,
0010
0000
0000
0000
,
0100
0000
0001
0000
,
0100
0000
0100
0000
,
0010
0000
0000
0000
,
0100
0000
0000
0000
,
0010
0000
1000
0000
,
1000
0000
0010
0000
,
0100
0000
0000
0000
,
0010
0000
0000
0000
,
2000
3000
0002
0003
,
2000
3000
0200
0300
,
0020
0030
0200
0300
,
0020
0030
0002
0003
,
0200
0300
0002
0003
,
0200
0300
0002
0003
,
0020
0030
2000
3000
,
0002
0003
0200
0300
,
1001
0000
0000
0000
,
0010
0000
0000
0000
,
0110
0000
0000
0000
,
1000
0000
0000
0000
,
1100
0000
0000
0000
,
0010
0000
0000
0000
,
0101
0000
0000
0000
,
0010
0000
0000
0000
,
1000
0000
0100
0000
,
0010
0000
1000
0000
,
0010
0000
0000
0000
,
0001
0000
0000
0000
,
0100
0000
1000
0000
,
0100
0000
0010
0000
,
1000
0000
0000
0000
,
0100
0000
0000
0000
,
1000
0000
0100
0000
,
0010
0000
0000
0000
,
0001
0000
0100
0000
,
0010
0000
0000
0000
,
2000
3000
0002
0003
,
2000
3000
0002
0003
,
2000
3000
2000
3000
,
0002
0003
0002
0003
,
1000
0000
0100
0000
,
0000
0000
0010
0000
,
0010
0000
0001
0000
,
0000
0000
0100
0000
,
0010
0000
0010
0000
,
0000
0000
1000
0000
,
0100
0000
0100
0000
,
0000
0000
1000
0001
,
1000
0000
0000
0000
;

//--------------- dance-single - ----------------
#NOTES:
     dance-single:
     Shortysnmn2010:
     Medium:
     5:
     0.295824,0.35822,0.214218,0.174548,0,261,234,27,22,0,0,0.295824,0.35822,0.214218,0.174548,0,261,234,27,22,0,0:
0000
0000
0000
0000
,
0000
0000
0000
0000
,
0000
0000
0000
0000
,
0000
0000
0000
0000
,
1000
0000
0000
1000
0001
0000
0000
0001
,
1000
0000
0000
1000
0001
0000
0010
0000
,
0100
0000
0000
0100
0010
0000
0000
0010
,
0100
0000
0000
0100
0010
0000
0001
0000
,
0100
0010
0202
0303
,
0010
0000
1000
0000
0100
0010
0100
0000
,
1000
0010
0200
0301
,
2000
0000
3001
0000
0100
0010
0100
0000
,
0000
0001
0000
0001
0020
0000
0030
0000
,
0001
1000
0100
1000
,
0010
0100
0220
0330
,
0001
0010
0002
1003
,
0001
0100
0010
0000
1000
0000
0001
0000
,
1000
0100
0010
0000
0001
0000
1000
0000
,
0001
0010
0100
0000
1000
0000
0001
0000
,
1000
0010
0100
0000
0001
0000
1000
0000
,
0001
1100
1000
0101
,
0001
1010
1000
0011
,
0100
0000
0010
0000
0100
0010
0100
0000
,
0001
0010
0100
1000
,
1001
0000
0000
1000
0001
0000
0000
0000
,
0000
0001
0010
0000
0100
0000
1000
0000
,
1010
0000
0000
0010
0100
0000
0000
0000
,
0000
0001
0100
0000
0010
0000
1000
0000
,
1100
0000
0000
0010
0001
0000
0000
0000
,
0000
0100
0010
0000
1000
0000
0001
0000
,
0011
0000
0000
0001
0100
0000
0000
0000
,
0000
0010
1000
0000
0001
0000
0010
0000
,
0200
0000
0300
1000
,
0220
0000
0330
0001
,
1100
0010
0001
0100
,
1010
0100
0001
0010
,
0220
0000
0330
0001
,
2200
0000
3300
0010
,
1001
0100
0001
0010
,
1001
0010
1000
0100
,
1001
1000
0020
0030
,
0000
1000
0001
0000
0010
0000
0100
0000
,
1000
0001
0100
0000
0002
0000
1003
0000
,
2000
3001
0002
1003
,
0001
0010
0001
0000
0200
0000
0300
0000
,
0010
0000
1000
0000
0100
1000
0000
0100
,
0000
1000
0002
0003
,
0000
0010
0100
0000
0100
0000
0100
0000
,
1000
0100
0010
0000
0001
0000
0001
0000
,
1000
0010
0100
0000
0001
0000
0001
0000
,
1000
0100
1000
0000
0001
0000
0001
0000
,
0100
0010
0100
0000
1001
0000
0000
0000
,
1000
0101
0001
1100
,
1000
0011
0001
1010
,
1000
0100
1000
0000
0001
0010
0001
0000
,
1000
0000
0001
0000
0100
0010
0100
0000
,
0110
0000
0000
0100
0001
0000
0000
0000
,
0000
0100
0010
0000
1000
0000
1000
0000
,
1100
0000
0000
0010
0001
0000
0000
0000
,
0000
1000
0001
0000
0100
0000
0010
0000
,
0101
0000
0000
0010
1000
0000
0000
0000
,
0000
0100
0010
0000
0001
0000
0100
0000
,
1010
0000
0000
1000
0100
0000
0000
0000
,
0000
0010
0001
0000
1000
0000
0001
0000
,
2000
0000
3000
0000
;

//--------------- dance-single - ----------------
#NOTES:
     dance-single:
     Shortysnmn2010:
     Hard:
     7:
     0.398966,0.434981,0.142812,0.269756,0.091241,352,334,18,34,0,0,0.398966,0.434981,0.142812,0.269756,0.091241,352,334,18,34,0,0:
0000
0000
0000
0000
,
0000
0000
0000
0000
,
0000
0000
0000
0000
,
0000
0000
0000
0000
,
1000
0000
0000
0100
0000
0000
1000
0000
0001
0000
0000
0010
0000
0000
0001
0000
,
0100
0000
0000
0100
0000
0000
0001
0000
0100
0000
0000
0010
0000
0000
1000
0000
,
0001
0000
0000
0010
0000
0000
0001
0000
1000
0000
0000
0100
0000
0000
0010
0000
,
0100
0000
0000
1000
0000
0000
0001
0000
0200
0000
0000
0300
1001
0000
0000
0000
,
0010
0000
1000
0000
0100
0000
0010
0000
0002
0000
0000
0100
0000
0000
0100
0000
,
0103
0010
1000
0001
1000
0010
0100
0001
,
0000
1000
0100
1000
0001
0000
1100
0000
,
1000
0000
0101
0000
0001
0010
0100
1000
,
0000
0001
0000
0001
0010
0002
0000
0003
,
1000
0000
0000
0100
0000
0000
0010
0000
0001
0000
0000
1000
0000
0000
0001
0000
,
0100
0000
0000
0010
0000
0000
1000
0000
0010
0000
0000
0100
0000
0000
0001
0000
,
0010
0000
0000
0100
0000
0000
1000
0000
0002
0000
0000
0000
0003
0000
0000
0000
,
1000
0100
0001
0100
0010
0100
1000
0000
,
0001
0100
0010
0100
0002
0000
1000
0000
,
0103
0010
1000
0010
0100
0001
0010
1000
,
0010
0100
1000
0010
0100
0000
0001
0000
,
1100
0000
1001
0000
0010
0002
0100
0003
,
0100
0002
0010
0003
0010
0002
0100
0003
,
0010
2000
0100
3000
0100
2000
0010
3000
,
0010
1000
0100
1000
0010
1000
0100
0010
,
0002
0000
0003
0100
0020
0000
0030
0000
,
0100
0001
1000
0100
0001
0000
0100
1000
,
0020
0000
0030
0100
0002
0000
0003
0000
,
1000
0010
0001
0010
1000
0001
1000
0100
,
0020
0000
0030
0100
2000
0000
3000
0000
,
0001
0010
0001
0010
1000
0010
0001
0100
,
0002
0000
0003
1000
0200
0000
0300
0000
,
0010
0001
1000
0001
0100
0010
0100
0000
,
0001
0002
0003
1000
,
0110
0001
1000
0100
,
0010
1001
1001
0100
,
0010
0101
0010
1100
,
0001
0002
0003
0100
,
1010
0001
0010
0100
,
1000
0110
0110
0001
,
1000
0000
0011
0000
0100
1000
1001
0000
,
1000
0001
0100
0001
2000
0000
3000
0000
,
0010
0100
0001
0000
0010
0001
0100
0000
,
0010
1000
0001
1000
0200
0000
0320
0000
,
0031
1000
0002
0000
1003
0010
1000
0010
,
0000
0000
0100
0000
0010
0000
0100
0000
0001
0000
0000
1000
0000
0000
0100
0000
,
0010
0000
0000
0001
0000
0000
0010
0000
0002
0000
1000
0000
0000
0000
2003
0000
,
0000
0010
0002
3003
,
0110
0000
0000
0000
,
0001
0010
0001
0100
1000
0100
0001
0000
,
1000
0100
0001
0100
1000
0010
1000
0000
,
0010
0100
0010
1000
0001
1000
0010
0100
,
0001
0010
0100
1000
0010
0000
1001
0000
,
0102
0000
1003
0000
0010
2000
0100
3000
,
0100
2000
0010
3000
0010
2000
0100
3000
,
0010
0002
0100
0003
0100
0002
0010
0003
,
0010
0001
0100
0010
1000
0001
1000
0100
,
0010
0000
0000
0001
1000
0000
0000
0001
,
0010
0100
1000
0001
0010
0000
0010
0001
,
0100
0000
0000
0100
0001
0000
0000
1000
,
0100
0010
0001
1000
0001
0100
0010
1000
,
0001
0000
0000
0001
0000
0000
0010
0000
0100
0000
0000
0100
0000
0000
1000
0000
,
0010
0000
0000
1000
0000
0000
0001
0000
0100
0000
0000
0001
0000
0000
1000
0000
,
0010
0000
0000
0010
0000
0000
1000
0000
0001
0000
0000
0001
0000
0000
0010
0000
,
0100
0000
0000
0100
0000
0000
1000
0000
0100
0000
0000
0010
0000
0000
0001
0000
,
2000
0000
3000
0000
;

//--------------- dance-single - ----------------
#NOTES:
     dance-single:
     Shortysnmn2010:
     Challenge:
     10:
     0.612051,0.69353,0.245954,0.230086,0.476039,540,509,31,29,0,0,0.612051,0.69353,0.245954,0.230086,0.476039,540,509,31,29,0,0:
0000
0000
0000
0000
,
0000
0000
0000
0000
,
0000
0000
0000
0000
,
0000
0000
0000
0000
,
1001
0000
0000
0001
0100
0001
1000
0010
1000
0000
0000
0001
0010
0000
0001
0000
,
1000
0000
0000
0100
0010
0000
0001
0000
0010
0000
0100
1000
0100
0000
0010
0000
,
0001
0000
0000
0100
0010
1000
0001
1000
0010
0000
0000
0100
0010
0000
1000
0000
,
0001
0000
0000
0010
0100
0000
0010
0000
0001
0000
1000
0100
1100
0000
0010
0001
,
0100
0000
0000
0010
1000
0001
1000
0100
0010
0000
0000
0001
0010
0000
1000
0000
,
0010
0000
0000
0001
1000
0000
0100
0000
0010
0000
0001
0100
0010
0000
1000
0000
,
0001
0000
0000
0100
1000
0100
0010
1000
0002
0000
0000
0013
0200
0000
1000
0000
,
2300
0000
0000
3010
0200
0000
0001
0000
0301
0000
1000
0010
0100
0000
0001
0000
,
1000
0000
0100
0001
0100
0010
0100
1000
0001
0000
0010
0100
1000
0000
0001
0000
,
1000
0000
0010
0100
0001
0000
1000
0000
0100
0000
0010
0001
0010
0000
0100
0000
,
1000
0000
0001
0100
0010
0100
1000
0100
0010
0000
0000
0100
1000
0000
0100
0000
,
0010
0000
0000
1000
0001
0000
0010
0000
0100
0000
0010
0100
0000
0000
0010
0000
,
0011
1000
0100
0010
0001
1000
0101
0000
,
0110
1000
0001
0010
0100
1000
0110
0000
,
0002
0100
0100
1003
0010
1000
0100
0010
,
0002
0000
0010
0000
0010
0000
1003
0000
0100
0000
0010
0001
0000
0000
0100
0000
,
0010
0000
0101
0000
0010
1000
1001
0000
,
0100
0001
1001
0000
0010
1000
0101
0000
,
0010
1000
0011
0000
0100
1000
0101
0000
,
0010
1000
0100
0010
0011
0110
1100
0010
,
2000
0100
3001
0010
0002
0100
1003
0010
,
1000
0000
0001
0000
0010
0000
0010
0000
0100
0000
1000
0100
0000
0000
0010
0000
,
0002
0010
1003
0100
2000
0010
3001
0100
,
0010
0100
0001
0010
0100
1000
0110
0001
,
2000
0100
3001
0010
0002
0100
1003
0010
,
0100
0001
0010
1000
0001
0100
1000
0001
,
0020
1000
0130
0001
0200
1000
0310
0001
,
0100
0000
0010
0000
1000
0000
0001
0000
0100
0000
0010
0100
0000
0000
0001
0000
,
1000
0100
0000
0010
0100
1000
0100
0000
0000
0000
0000
0001
0010
0000
0001
1000
,
0001
0100
0000
0001
0100
0000
0010
0100
0000
0000
0000
0000
0000
0000
0001
0100
,
0010
1000
0000
1000
0001
1000
0100
0010
0001
1000
0000
1000
0010
0000
0100
0001
,
1000
0010
0000
0100
0010
0000
0001
0010
0001
0010
0100
0010
1000
0000
0001
0010
,
0001
1000
0000
0001
1000
0100
1000
0000
0000
0000
0000
0010
0100
0000
0001
1000
,
0001
0100
0000
0010
0100
0000
0001
1000
0000
0000
0000
0000
0000
0000
1000
0100
,
0010
0001
0000
0001
0100
0001
1000
0100
0010
0001
0000
1000
0001
0000
0010
0100
,
1000
0100
0000
0010
0100
0000
0010
0100
0000
1000
0000
0001
1000
0000
0001
0100
,
0001
0000
0000
1000
0010
0100
0001
0100
0010
0000
0000
1000
0100
0000
1000
0000
,
0001
0000
0000
0010
0001
0000
1000
0000
0100
0000
0010
0100
1000
0000
0010
0000
,
0001
0000
0000
0010
0100
0001
1000
0010
0200
0000
0000
0301
2000
0000
0010
0000
,
3020
0000
0000
0130
0002
0000
0010
0000
0013
0000
0100
1000
0000
0000
0100
0000
,
0010
0000
0000
0001
0010
0001
0010
0001
0010
0000
0000
0100
1000
0000
0100
0000
,
0010
0000
0000
0001
1000
0000
0001
0000
0100
0000
0010
1000
0001
0000
0100
0000
,
0001
0000
0000
1000
0100
0010
0001
0010
0100
0000
0000
1000
0100
0000
1000
0001
,
0200
0000
0300
0000
,
1010
0100
0001
0010
0100
1000
0011
0000
,
1100
0001
0010
0100
1000
0010
0101
0000
,
2000
0010
0010
3001
0100
0010
1000
0001
,
2000
0000
0100
0000
0100
0000
3001
0000
0010
0000
0100
1000
0000
0000
0001
0000
,
0010
0000
1100
0000
0010
0001
0101
0000
,
0010
1000
1100
0000
0100
1000
1010
0000
,
0100
0001
0011
0000
0100
1000
1001
0000
,
0010
0001
1000
0100
0010
0001
0011
0110
,
2100
0000
3000
0100
0002
0000
0003
0100
,
1000
1000
0001
0010
0001
0000
0011
0001
,
2000
0000
3000
0010
0002
0000
0003
0010
,
1000
0001
0001
0100
0010
1000
0200
0010
,
0310
0000
0000
0001
0010
0100
1000
0100
0010
0000
0000
0001
0010
0000
0001
0000
,
0100
0000
0000
0010
1000
0000
0100
0000
0001
0000
0100
2000
0000
0000
0010
0000
,
3001
0000
0000
0100
0010
0001
0010
0100
1000
0000
0000
0001
0100
0000
0010
0000
,
0001
0000
1000
0000
0100
0000
0001
0000
0010
0000
0100
1000
0000
0000
0100
0000
,
2001
0000
0000
0010
0000
0000
0100
0000
0002
0000
0000
0000
3003
0000
0000
0000
;
