#TITLE:Wonderland;
#SUBTITLE:;
#ARTIST:Nightcore;
#TITLETRANSLIT:;
#SUBTITLETRANSLIT:;
#ARTISTTRANSLIT:;
#GENRE:;
#CREDIT:;
#BANNER:;
#BACKGROUND:;
#LYRICSPATH:;
#CDTITLE:;
#MUSIC:Wonderland.mp3;
#OFFSET:-0.249000;
#SAMPLESTART:48.307999;
#SAMPLELENGTH:14.549999;
#SELECTABLE:YES;
#BPMS:0.000000=137.955994
;
#STOPS:
;
#BGCHANGES:;
#KEYSOUNDS:;
#ATTACKS:;

//---------------dance-single - Blank----------------
#NOTES:
     dance-single:
     Shortysnmn2010:
     Beginner:
     1:
     0.081478,0.140459,0.076614,0.136203,0.000000,67.000000,58.000000,9.000000,16.000000,0.000000,0.000000,0.081478,0.140459,0.076614,0.136203,0.000000,67.000000,58.000000,9.000000,16.000000,0.000000,0.000000:
// measure 0
0000
0000
0000
0000
,  // measure 1
0000
0000
0000
0000
,  // measure 2
0000
0000
0000
0000
,  // measure 3
0000
0000
0000
0000
,  // measure 4
1000
0000
0000
0000
,  // measure 5
0100
0000
0000
0000
,  // measure 6
0010
0000
0000
0000
,  // measure 7
0001
0000
0000
0000
,  // measure 8
1000
0000
0000
0000
,  // measure 9
1000
0000
0000
0000
,  // measure 10
0001
0000
0000
0000
,  // measure 11
0001
0000
0000
0000
,  // measure 12
1000
0000
0000
0000
,  // measure 13
0001
0000
0000
0000
,  // measure 14
0001
0000
0000
0000
,  // measure 15
1000
0000
0000
0000
,  // measure 16
0100
0000
0000
0000
,  // measure 17
0010
0000
0000
0000
,  // measure 18
0001
0000
0000
0000
,  // measure 19
1001
0000
0000
0000
,  // measure 20
0220
0000
0000
0000
,  // measure 21
0330
0000
0000
0000
,  // measure 22
2002
0000
0000
0000
,  // measure 23
3003
0000
0000
0000
,  // measure 24
0220
0000
0000
0000
,  // measure 25
0330
0000
0000
0000
,  // measure 26
2002
0000
0000
0000
,  // measure 27
3003
0000
0000
0000
,  // measure 28
1000
0000
0000
0000
,  // measure 29
0100
0000
0000
0000
,  // measure 30
0001
0000
0000
0000
,  // measure 31
0100
0000
0000
0000
,  // measure 32
0010
0000
0000
0000
,  // measure 33
0001
0000
0000
0000
,  // measure 34
1000
0000
1000
0000
,  // measure 35
1000
0000
0000
0000
,  // measure 36
0010
0000
0000
0000
,  // measure 37
0100
0000
0000
0000
,  // measure 38
1000
0000
0000
0000
,  // measure 39
0100
0000
0000
0000
,  // measure 40
0001
0000
0001
0000
,  // measure 41
0001
0000
0000
0000
,  // measure 42
0010
0000
0000
0000
,  // measure 43
0100
0000
0000
0000
,  // measure 44
1000
0000
0000
0000
,  // measure 45
0001
0000
0000
0000
,  // measure 46
0010
0000
0000
0000
,  // measure 47
0001
0000
0000
0000
,  // measure 48
0100
0000
0100
0000
,  // measure 49
0100
0000
0000
0000
,  // measure 50
0010
0000
0000
0000
,  // measure 51
1000
0000
0000
0000
,  // measure 52
2002
0000
0000
0000
,  // measure 53
3003
0000
0000
0000
,  // measure 54
2200
0000
0000
0000
,  // measure 55
3300
0000
0000
0000
,  // measure 56
0022
0000
0000
0000
,  // measure 57
0033
0000
0000
0000
,  // measure 58
0220
0000
0000
0000
,  // measure 59
0330
0000
0000
0000
,  // measure 60
0001
0000
0000
0000
,  // measure 61
0100
0000
0000
0000
,  // measure 62
0010
0000
0000
0000
,  // measure 63
1000
0000
0000
0000
,  // measure 64
0100
0000
0000
0000
,  // measure 65
0010
0000
0000
0000
,  // measure 66
0001
0000
0000
0000
;

//---------------dance-single - Blank----------------
#NOTES:
     dance-single:
     Shortysnmn2010:
     Easy:
     3:
     0.164173,0.224734,0.042563,0.068101,0.000000,135.000000,130.000000,5.000000,8.000000,0.000000,0.000000,0.164173,0.224734,0.042563,0.068101,0.000000,135.000000,130.000000,5.000000,8.000000,0.000000,0.000000:
// measure 0
0000
0000
0000
0000
,  // measure 1
0000
0000
0000
0000
,  // measure 2
0000
0000
0000
0000
,  // measure 3
0000
0000
0000
0000
,  // measure 4
1000
0000
0001
0000
,  // measure 5
0010
0000
0001
0001
,  // measure 6
0001
0000
1000
0000
,  // measure 7
0100
0000
1000
1000
,  // measure 8
1000
0000
0010
0000
,  // measure 9
1000
0000
0001
0001
,  // measure 10
0001
0000
0100
0000
,  // measure 11
0010
0000
0100
0100
,  // measure 12
0100
0000
0001
0000
,  // measure 13
0010
0000
0001
0000
,  // measure 14
1000
0000
0001
0000
,  // measure 15
0100
0000
0010
0000
,  // measure 16
1000
0000
0100
0000
,  // measure 17
0010
0000
0001
0000
,  // measure 18
1000
0001
1000
0000
,  // measure 19
0001
1000
0001
0000
,  // measure 20
0220
0000
0000
0000
,  // measure 21
0000
0000
0330
0000
,  // measure 22
2002
0000
0000
0000
,  // measure 23
0000
0000
3003
0000
,  // measure 24
0022
0000
0000
0000
,  // measure 25
0000
0000
0033
0000
,  // measure 26
2200
0000
0000
0000
,  // measure 27
0000
0000
3300
0000
,  // measure 28
0001
0010
0001
0000
,  // measure 29
0010
0000
0010
0000
,  // measure 30
0001
1000
0001
0000
,  // measure 31
1000
0000
1000
0000
,  // measure 32
0100
1000
0100
0000
,  // measure 33
1000
0000
0001
0000
,  // measure 34
0010
0100
0010
0000
,  // measure 35
0100
1000
0010
0000
,  // measure 36
1000
0000
1000
0000
,  // measure 37
1000
0010
1000
0010
,  // measure 38
1000
0000
0001
0000
,  // measure 39
0001
0000
0010
0000
,  // measure 40
0001
0000
1000
0000
,  // measure 41
0001
0100
0001
0100
,  // measure 42
0001
0000
1000
0000
,  // measure 43
0100
0100
0100
0000
,  // measure 44
1000
0000
0010
0000
,  // measure 45
0100
0000
0001
0010
,  // measure 46
0001
0000
0100
0000
,  // measure 47
0010
0000
1000
0100
,  // measure 48
1000
0000
0001
0000
,  // measure 49
0010
0000
0001
0100
,  // measure 50
0001
0000
1000
0000
,  // measure 51
0010
0010
0010
0000
,  // measure 52
1000
0000
0000
0000
,  // measure 53
0001
0000
0000
0000
,  // measure 54
0010
0000
0000
0000
,  // measure 55
0100
0000
0000
0000
,  // measure 56
1000
0000
0000
0000
,  // measure 57
0010
0000
0000
0000
,  // measure 58
0100
0000
0001
0000
,  // measure 59
0100
0000
0001
0000
,  // measure 60
1000
1000
1000
0000
,  // measure 61
0001
0000
0010
0000
,  // measure 62
0001
0001
0001
0000
,  // measure 63
1000
0000
0100
0000
,  // measure 64
0010
0010
0010
0000
,  // measure 65
0100
0000
1000
0000
,  // measure 66
0110
0000
0000
0000
;

//---------------dance-single - Blank----------------
#NOTES:
     dance-single:
     Shortysnmn2010:
     Hard:
     7:
     0.378206,0.424569,0.246867,0.451171,0.000000,311.000000,282.000000,29.000000,53.000000,30.000000,0.000000,0.378206,0.424569,0.246867,0.451171,0.000000,311.000000,282.000000,29.000000,53.000000,30.000000,0.000000:
// measure 0
0000
0000
0000
0000
,  // measure 1
0000
0000
0000
0000
,  // measure 2
0000
0000
0000
0000
,  // measure 3
0000
0000
0000
0000
,  // measure 4
1000
1100
0001
0101
,  // measure 5
1000
0000
0010
0000
0100
0001
0010
0001
,  // measure 6
0100
0110
0001
1001
,  // measure 7
1000
0000
0100
0000
0010
0001
0100
0010
,  // measure 8
1000
0000
0100
0000
0010
0001
0100
0001
,  // measure 9
0000
0001
1000
0100
0010
0100
1000
0002
,  // measure 10
0000
2003
0000
3100
0010
0000
0011
0000
,  // measure 11
0001
0010
0001
0010
0001
0010
0001
0010
,  // measure 12
0200
0300
2002
3003
,  // measure 13
MMMM
2010
0002
3003
,  // measure 14
0202
0303
2020
3030
,  // measure 15
MMMM
2001
0200
3300
,  // measure 16
0220
0330
0022
0033
,  // measure 17
MMMM
2100
0020
3030
,  // measure 18
2000
0000
0100
0100
,  // measure 19
0001
0001
0001
0000
0010
0000
3010
0000
,  // measure 20
0100
0001
0000
0100
0001
0000
1000
0002
,  // measure 21
0000
0003
0100
0010
0000
0000
0000
0000
,  // measure 22
0100
0001
0000
0010
0100
0000
1000
0002
,  // measure 23
0000
0003
1000
0010
0000
0000
0000
0000
,  // measure 24
1000
0100
0000
0010
0001
0000
1000
0020
,  // measure 25
0000
0030
0100
0002
0000
0003
1000
0200
,  // measure 26
0000
0300
0010
2000
0000
3000
0010
0200
,  // measure 27
0000
0300
1000
0001
0000
1000
0100
1000
,  // measure 28
0001
0000
0010
0000
0001
0100
0010
0100
,  // measure 29
0000
0100
0010
0100
0000
0100
0010
0100
,  // measure 30
0001
0000
0010
0000
0100
1000
0001
1000
,  // measure 31
0000
0001
1000
0001
0000
1000
0001
1000
,  // measure 32
0100
0000
1100
0000
1000
0001
0010
0001
,  // measure 33
0000
0001
0100
0001
0000
0001
1000
0001
,  // measure 34
0010
0100
1000
0000
0010
0100
0001
0000
,  // measure 35
0010
0100
2000
0000
0000
0M0M
3000
0000
,  // measure 36
0100
0000
1001
0000
0010
0001
0100
0000
,  // measure 37
0010
0000
1001
0000
0100
0001
1000
0000
,  // measure 38
0100
0000
0011
0000
0001
0100
0001
0000
,  // measure 39
1000
0000
1010
0000
1000
0100
1000
0000
,  // measure 40
0000
0001
0100
0001
0100
0001
0100
0001
,  // measure 41
0000
1000
0001
1000
0001
1000
0001
1000
,  // measure 42
0000
0002
0010
0000
0013
0000
0012
0000
,  // measure 43
1003
0100
0010
0001
1000
0001
1000
0001
,  // measure 44
0200
0300
2020
3030
,  // measure 45
MMMM
0000
1002
0000
0100
0100
0103
0000
,  // measure 46
0020
0030
2200
3300
,  // measure 47
MMMM
0000
2100
0000
0001
0001
3001
0000
,  // measure 48
0020
0030
2002
3003
,  // measure 49
MMMM
0000
0102
0000
1000
1000
1003
0000
,  // measure 50
0220
0000
0000
0000
,  // measure 51
M00M
0000
M33M
0000
,  // measure 52
1000
0100
0000
1000
0001
0000
0100
0020
,  // measure 53
0000
0030
1000
0100
0000
0000
0000
0000
,  // measure 54
1000
0010
0000
0010
0001
0000
1000
0200
,  // measure 55
0000
0300
0001
0010
0000
0000
0000
0000
,  // measure 56
0001
0010
0000
0010
0100
0000
0100
2000
,  // measure 57
0000
3000
0010
0200
0000
0300
0001
0020
,  // measure 58
0000
0030
0100
2000
0000
3000
0001
0200
,  // measure 59
0000
0300
1000
0200
0000
0310
1000
0001
,  // measure 60
0100
0000
0101
0000
0001
1000
0100
0010
,  // measure 61
0000
0100
0010
0001
0000
0010
0001
1000
,  // measure 62
0010
0000
0101
0000
0010
1000
0001
0100
,  // measure 63
0000
0001
1000
0100
0000
1000
0001
0010
,  // measure 64
0100
0000
1100
0000
1000
0010
0001
0010
,  // measure 65
0000
0100
1000
0100
0000
0001
1000
0100
,  // measure 66
0020
0000
0030
0000
;

//---------------dance-single - ----------------
#NOTES:
     dance-single:
     :
     Medium:
     5:
     0.259028,0.338379,0.119177,0.144715,0.000000,213.000000,199.000000,14.000000,17.000000,18.000000,0.000000,0.259028,0.338379,0.119177,0.144715,0.000000,213.000000,199.000000,14.000000,17.000000,18.000000,0.000000:
// measure 0
0000
0000
0000
0000
,  // measure 1
0000
0000
0000
0000
,  // measure 2
0000
0000
0000
0000
,  // measure 3
0000
0000
0000
0000
,  // measure 4
1000
0000
0100
0000
1000
0100
0010
0000
,  // measure 5
0001
0010
0001
0000
,  // measure 6
0100
0000
0001
0000
0100
0010
1000
0000
,  // measure 7
0010
0100
0001
0000
,  // measure 8
1000
0000
0100
0000
0001
0000
0100
1000
,  // measure 9
0000
1000
0100
0000
0010
0000
0001
0100
,  // measure 10
0000
0001
0000
0100
0001
0000
0100
0000
,  // measure 11
0010
1000
0100
0100
,  // measure 12
2000
3000
0020
0030
,  // measure 13
M00M
0110
1001
0000
,  // measure 14
0002
0003
0200
0300
,  // measure 15
M00M
1010
0101
0000
,  // measure 16
2000
3000
0200
0300
,  // measure 17
00MM
1100
1001
0000
,  // measure 18
2000
0000
0000
0000
0000
0MMM
0000
0000
,  // measure 19
0001
0010
3001
0000
,  // measure 20
1000
0000
0000
0010
0000
0000
0100
0000
,  // measure 21
0000
0001
0000
0000
,  // measure 22
0010
0000
0000
0001
0000
0000
0100
0000
,  // measure 23
0000
1000
0000
0000
,  // measure 24
0100
0000
0000
0001
0000
0000
0010
0000
,  // measure 25
0000
0010
0000
0100
,  // measure 26
0000
0100
0000
1000
,  // measure 27
0000
0000
1000
0000
0000
0001
1000
0001
,  // measure 28
1000
0000
0010
0000
1000
0000
0100
0010
,  // measure 29
0000
0000
0100
1000
0000
0000
0100
0010
,  // measure 30
0100
0000
1000
0000
0010
0000
0100
0001
,  // measure 31
0000
0000
0100
0010
0000
0000
0100
0001
,  // measure 32
0100
0000
0010
0000
1000
0000
0001
0010
,  // measure 33
0000
0000
1000
0010
0000
0000
0001
0010
,  // measure 34
0002
0003
2000
3000
,  // measure 35
0002
0003
0000
0000
,  // measure 36
1000
1100
1000
0001
,  // measure 37
0100
0000
0010
0000
0100
0010
0100
0000
,  // measure 38
0001
0101
0001
1000
,  // measure 39
0100
0000
0010
0000
0100
0010
0100
0000
,  // measure 40
0000
1000
0100
0000
0010
0000
0010
0000
,  // measure 41
0000
0001
0010
0000
0100
0000
0100
0000
,  // measure 42
0000
1000
0010
0000
0100
0000
0100
0000
,  // measure 43
0001
1000
0001
0000
0100
0000
0100
0000
,  // measure 44
0020
0030
2000
3000
,  // measure 45
00MM
1100
0011
0000
,  // measure 46
0002
0003
2000
3000
,  // measure 47
0M0M
0110
1001
0000
,  // measure 48
0200
0300
0020
0030
,  // measure 49
M00M
0101
1010
0000
,  // measure 50
0002
0000
0000
0000
0000
MMM0
0000
0000
,  // measure 51
1000
0100
1003
0000
,  // measure 52
0001
0000
0000
0100
0000
0000
0010
0000
,  // measure 53
0000
0010
0000
0000
,  // measure 54
1000
0000
0000
0100
0000
0000
1000
0000
,  // measure 55
0000
1000
0000
0000
,  // measure 56
0010
0000
0000
0001
0000
0000
0010
0000
,  // measure 57
0000
0010
0000
0100
,  // measure 58
0000
0100
0000
0001
,  // measure 59
0000
0000
0001
0000
0000
1000
0100
1000
,  // measure 60
0100
0000
1000
0000
0010
0000
0100
0001
,  // measure 61
0000
0000
0100
0010
0000
0000
0100
0001
,  // measure 62
0100
0000
0010
0000
1000
0000
0100
0010
,  // measure 63
0000
0000
0100
1000
0000
0000
0100
0010
,  // measure 64
0100
0000
0010
0000
0001
0000
0100
1000
,  // measure 65
0000
0000
0100
0001
0000
0000
0100
1000
,  // measure 66
0100
0001
0100
0000
0000
0000
0000
0000
;

//---------------dance-single - ----------------
#NOTES:
     dance-single:
     :
     Challenge:
     9:
     0.524137,0.509483,0.102152,0.221329,0.025538,431.000000,419.000000,12.000000,26.000000,21.000000,0.000000,0.524137,0.509483,0.102152,0.221329,0.025538,431.000000,419.000000,12.000000,26.000000,21.000000,0.000000:
// measure 0
0000
0000
0000
0000
,  // measure 1
0000
0000
0000
0000
,  // measure 2
0000
0000
0000
0000
,  // measure 3
0000
0000
0000
0000
,  // measure 4
2100
3001
0012
1003
,  // measure 5
0001
0100
0010
0100
0001
0010
0001
0000
,  // measure 6
2010
3001
0102
1003
,  // measure 7
0010
0000
1000
0010
1000
0000
0001
0000
0100
0000
0001
0000
0010
0000
0100
0000
,  // measure 8
1000
0010
0001
0010
0100
0010
0100
0001
,  // measure 9
0000
0001
1000
0100
0010
0100
0001
0100
,  // measure 10
0000
1100
0000
1000
0010
0000
0110
0000
,  // measure 11
0100
0001
0100
0001
0010
0001
1000
0100
,  // measure 12
0020
0001
0030
0001
2000
0001
3001
0100
,  // measure 13
M0MM
0110
0000
0001
1000
0010
1000
0010
,  // measure 14
0200
0010
0300
0001
2000
0100
3100
0010
,  // measure 15
MM0M
0110
0000
1000
0100
0010
0001
0010
,  // measure 16
0002
1000
0003
0010
0200
1000
1300
0001
,  // measure 17
MMM0
0011
0000
0001
0200
0010
0310
1000
,  // measure 18
0000
1100
0000
1000
0100
0000
0010
0000
,  // measure 19
0022
0000
0033
0000
,  // measure 20
0001
0100
0001
0010
0100
1000
0010
1000
,  // measure 21
0100
0010
0100
1000
0002
0100
0103
0000
,  // measure 22
1000
0010
0100
0001
0010
0001
1000
0010
,  // measure 23
0001
0010
1000
0001
0200
0010
0310
0000
,  // measure 24
0001
0100
1000
0100
0010
1000
0001
0010
,  // measure 25
1000
0010
0100
1000
0100
0010
0001
2000
,  // measure 26
0000
3000
0010
0002
0000
0003
1000
0100
,  // measure 27
0001
0010
1000
0010
0001
1000
0001
0100
,  // measure 28
0010
1000
0100
0000
1000
0010
0001
0010
,  // measure 29
0000
0100
1000
0100
0000
0010
1000
0100
,  // measure 30
0010
0001
1000
0000
0100
0001
0100
0010
,  // measure 31
0000
0100
1000
0010
0000
0100
0001
1000
,  // measure 32
0010
0100
0010
0000
1000
0100
0010
0001
,  // measure 33
0000
0100
0010
0001
0000
0010
0100
0001
,  // measure 34
0010
0100
2000
0000
3010
0100
0002
0000
,  // measure 35
0013
0100
2000
0000
0001
0010
3001
0000
,  // measure 36
1000
0100
0010
0001
1000
0010
1000
0001
,  // measure 37
0100
1000
0100
0010
1000
0001
1000
0100
,  // measure 38
0001
0100
0010
0001
0010
0100
1000
0001
,  // measure 39
0100
0000
0010
0100
0001
0000
1000
0000
0100
0000
0010
0000
0001
0000
0000
0000
,  // measure 40
1000
0100
0010
0100
1000
0100
0010
0010
,  // measure 41
0001
1000
0100
0010
0100
1000
0100
0100
,  // measure 42
0010
0001
0100
0010
0100
0100
0010
0010
,  // measure 43
0100
0100
0001
0001
1000
1000
0010
0010
,  // measure 44
0100
0000
0001
0000
1000
0000
0100
0000
1000
0000
0000
0000
0001
0000
0020
MM0M
,  // measure 45
0000
0130
1000
0001
0100
0001
0001
1000
,  // measure 46
0000
0000
0100
0000
0010
0000
0100
0000
0001
0000
0000
0000
0100
0000
2000
0MMM
,  // measure 47
0000
3010
0000
0100
0001
1000
0100
1000
,  // measure 48
0000
0000
0001
0000
0100
0000
1000
0000
0100
0000
0001
0000
0100
0000
0010
MM0M
,  // measure 49
0000
0110
0000
0010
1000
0100
0010
0100
,  // measure 50
0000
1000
0100
0010
0001
1000
0100
0010
,  // measure 51
0200
M0MM
0000
0000
0000
0000
0000
0000
0300
0000
0000
0000
0000
0000
0000
0000
,  // measure 52
1000
0010
1000
0010
0100
0010
0001
0010
,  // measure 53
0001
0010
0100
0001
1000
0000
0000
0000
,  // measure 54
0001
0010
0001
0010
0100
0010
1000
0010
,  // measure 55
1000
0010
0100
1000
0001
0000
0000
0000
,  // measure 56
1000
0100
1000
0001
0010
0100
0010
0100
,  // measure 57
1000
0001
1000
0001
0100
0010
1000
0200
,  // measure 58
0000
0300
0010
0002
0000
0003
1000
0010
,  // measure 59
0001
0010
1000
0100
0001
0100
1000
0000
,  // measure 60
0001
0100
0010
1000
0001
0100
0010
0100
,  // measure 61
1000
0100
0010
0100
0001
0100
0010
0100
,  // measure 62
0001
0010
0100
1000
0010
1000
0001
1000
,  // measure 63
0100
1000
0001
1000
0010
1000
0001
1000
,  // measure 64
0100
0010
0001
0100
0010
1000
0100
1000
,  // measure 65
0010
1000
0100
1000
0001
1000
0100
1000
,  // measure 66
0001
0100
0002
0000
0003
0000
0000
0000
;
