#TITLE:Truth or Dare;
#SUBTITLE:;
#ARTIST:Nightcore;
#TITLETRANSLIT:;
#SUBTITLETRANSLIT:;
#ARTISTTRANSLIT:;
#GENRE:;
#CREDIT:;
#BANNER:;
#BACKGROUND:;
#LYRICSPATH:;
#CDTITLE:;
#MUSIC:Truth or Dare.mp3;
#OFFSET:-0.048000;
#SAMPLESTART:37.188999;
#SAMPLELENGTH:11.885000;
#SELECTABLE:YES;
#BPMS:0.000000=161.548004
;
#STOPS:
;
#BGCHANGES:;
#KEYSOUNDS:;
#ATTACKS:;

//---------------dance-single - Blank----------------
#NOTES:
     dance-single:
     Shortysnmn2010:
     Beginner:
     1:
     0.070729,0.132650,0.046708,0.000000,0.000000,53.000000,48.000000,5.000000,0.000000,0.000000,0.000000,0.070729,0.132650,0.046708,0.000000,0.000000,53.000000,48.000000,5.000000,0.000000,0.000000,0.000000:
// measure 0
0000
0000
0000
0000
,  // measure 1
0000
0000
0000
0000
,  // measure 2
0000
0000
0000
0000
,  // measure 3
0000
0000
0000
0000
,  // measure 4
0000
0000
0000
0000
,  // measure 5
1000
0000
0000
0000
,  // measure 6
0000
0000
0000
0000
,  // measure 7
0001
0000
0000
0000
,  // measure 8
0000
0000
0000
0000
,  // measure 9
0010
0000
0000
0000
,  // measure 10
0000
0000
0000
0000
,  // measure 11
0100
0000
0000
0000
,  // measure 12
0000
0000
0000
0000
,  // measure 13
0010
0000
0000
0000
,  // measure 14
0000
0000
0000
0000
,  // measure 15
0001
0000
0000
0000
,  // measure 16
1000
0000
0000
0000
,  // measure 17
0001
0000
0000
0000
,  // measure 18
0000
0000
0000
0000
,  // measure 19
0100
0000
0000
0000
,  // measure 20
0000
0000
0000
0000
,  // measure 21
0010
0000
0000
0000
,  // measure 22
0000
0000
0000
0000
,  // measure 23
1000
0000
0000
0000
,  // measure 24
0000
0000
0000
0000
,  // measure 25
0001
0000
0000
0000
,  // measure 26
0010
0000
0000
0000
,  // measure 27
0100
0000
0000
0000
,  // measure 28
1000
0000
0000
0000
,  // measure 29
0001
0000
0000
0000
,  // measure 30
0100
0000
0000
0000
,  // measure 31
0010
0000
0000
0000
,  // measure 32
1000
0000
0000
0000
,  // measure 33
0001
0000
0000
0000
,  // measure 34
0000
0000
0000
0000
,  // measure 35
1000
0000
0000
0000
,  // measure 36
0000
0000
0000
0000
,  // measure 37
0100
0000
0000
0000
,  // measure 38
0000
0000
0000
0000
,  // measure 39
0110
0000
0000
0000
,  // measure 40
0000
0000
0000
0000
,  // measure 41
0010
0000
0000
0000
,  // measure 42
0001
0000
0000
0000
,  // measure 43
0010
0000
0000
0000
,  // measure 44
0001
0000
0000
0000
,  // measure 45
1000
0000
0000
0000
,  // measure 46
0100
0000
0000
0000
,  // measure 47
1000
0000
0000
0000
,  // measure 48
0000
0000
0000
0000
,  // measure 49
0010
0000
0000
0000
,  // measure 50
1000
0000
0000
0000
,  // measure 51
0010
0000
0000
0000
,  // measure 52
1000
0000
0000
0000
,  // measure 53
0001
0000
0000
0000
,  // measure 54
0100
0000
0000
0000
,  // measure 55
0001
0000
0000
0000
,  // measure 56
0000
0000
0000
0000
,  // measure 57
1001
0000
0000
0000
,  // measure 58
0000
0000
0000
0000
,  // measure 59
0110
0000
0000
0000
,  // measure 60
0000
0000
0000
0000
,  // measure 61
1001
0000
0000
0000
,  // measure 62
0000
0000
0000
0000
,  // measure 63
0110
0000
0000
0000
,  // measure 64
0000
0000
0000
0000
,  // measure 65
1000
0000
0000
0000
,  // measure 66
0100
0000
0000
0000
,  // measure 67
0010
0000
0000
0000
,  // measure 68
0001
0000
0000
0000
,  // measure 69
1000
0000
0000
0000
,  // measure 70
0010
0000
0000
0000
,  // measure 71
0100
0000
0000
0000
;

//---------------dance-single - Blank----------------
#NOTES:
     dance-single:
     Shortysnmn2010:
     Hard:
     8:
     0.484424,0.565746,0.205513,0.317612,0.000000,363.000000,341.000000,22.000000,34.000000,4.000000,0.000000,0.484424,0.565746,0.205513,0.317612,0.000000,363.000000,341.000000,22.000000,34.000000,4.000000,0.000000:
0000
0000
0000
0000
,
0000
0000
0000
0000
,
0000
0000
0000
0000
,
0000
0000
0000
0000
,
0000
0000
0000
0000
,
1000
0100
0001
0100
,
0010
0100
1000
0001
,
0100
0001
1000
0010
0100
0001
1000
0000
,
0000
0001
0010
0100
1000
0001
1000
0000
,
0001
0000
0101
0000
1000
0010
0100
0000
,
0001
1000
0100
1000
0001
0010
0001
0000
,
1000
0000
1010
0000
0001
0100
0010
0000
,
1000
0100
0010
0100
1000
0001
0010
0000
,
0001
0100
1000
0100
,
0010
0100
0001
0100
,
0010
1000
0001
0100
0010
1000
0001
0000
,
0000
1000
0100
0010
0001
0100
0001
0000
,
2000
0000
3001
0010
0100
0100
1000
0001
,
0200
0000
0310
1000
0001
0001
0010
0100
,
1000
0000
0000
0001
0200
0000
2300
0000
,
3200
0302
1000
0013
,
0002
0000
0103
0010
1000
1000
0100
0010
,
0002
0000
1003
0010
0100
0100
0001
0010
,
0001
0000
0000
1000
0100
0000
0000
0010
,
0001
1000
0010
0001
0020
0100
0230
0010
,
0310
0000
0110
0000
0101
0000
1000
0100
,
0010
0001
0100
0010
0100
0001
0001
0001
,
0000
0000
0011
0000
2100
0000
0010
0010
,
3010
0110
0101
1001
,
0011
0000
1100
0000
1100
0000
0001
0100
,
0010
1000
0001
0010
0100
1000
1000
1000
,
0000
0000
0101
0000
0101
0000
0010
1000
,
0002
0023
2030
3020
,
0032
0000
0000
1003
0100
0000
0010
0000
,
0010
0000
0000
0001
0100
0000
0010
0000
,
0010
0000
1010
0000
0011
0000
0100
0002
,
0010
2003
0100
3002
,
0103
0000
0000
0010
1000
0000
0100
0000
,
1000
0000
0001
0000
0100
0000
0020
0200
,
0000
0000
0000
0000
,
0330
0000
0000
MMMM
,
1000
0000
0100
0000
1000
0100
0010
0000
,
0001
0100
0010
0100
0001
0100
0010
0000
,
1000
0000
0001
0000
0100
0010
0100
0000
,
0001
0010
0100
0010
0001
0010
0100
0000
,
1000
0010
0001
0010
,
1000
0100
0001
0100
,
1000
0100
0100
0010
0010
0001
0001
0000
,
0000
2000
0100
0000
0100
0000
3100
0000
,
1000
0100
0010
0001
0100
0100
0001
0010
,
0100
0000
0000
1000
0100
0100
0010
0001
,
1000
0000
0000
0001
0200
0000
2300
0000
,
3200
0302
1000
0013
,
0110
0000
1100
0000
0001
0100
0010
1000
,
0001
0000
1000
0000
0001
0010
0100
1000
,
0010
0000
0100
0001
0010
0000
0100
1000
,
0010
0100
0010
0100
0001
1000
0001
1000
,
0200
0000
0010
0000
0310
0000
0001
0010
,
0100
1000
0010
1000
0100
0010
0010
0020
,
0000
0000
0001
0000
0031
0000
1000
0100
,
0010
0001
0100
0001
,
0102
0000
1000
0000
0013
0000
0010
0100
,
1000
0010
0100
0001
0010
0001
0001
0002
,
0000
0000
1000
0000
1003
0000
0001
0010
,
1000
0010
0001
0100
,
1000
0000
0000
0100
0002
0000
0010
0000
,
0013
0000
0000
0100
2000
0000
0010
0000
,
3010
0000
0110
0000
0110
0000
0100
0001
,
1000
1000
0001
0001
,
0010
0000
0000
0100
1000
0000
0001
0000
,
0101
0000
0010
0000
1000
0000
0002
0020
,
0000
0033
0000
0000
;

//---------------dance-single - ----------------
#NOTES:
     dance-single:
     :
     Medium:
     6:
     0.374995,0.398649,0.084074,0.112098,0.000000,281.000000,272.000000,9.000000,12.000000,2.000000,0.000000,0.374995,0.398649,0.084074,0.112098,0.000000,281.000000,272.000000,9.000000,12.000000,2.000000,0.000000:
0000
0000
0000
0000
,
0000
0000
0000
0000
,
0000
0000
0000
0000
,
0000
0000
0000
0000
,
0000
0000
0000
0000
,
1000
0001
0100
0001
,
1000
0100
1000
0001
,
0000
0010
0001
0000
0100
0000
0100
0000
,
0000
0010
1000
0000
0100
0000
0100
0000
,
1000
0000
0001
0000
0010
0001
0010
0000
,
0001
0000
1000
0000
0100
1000
0100
0000
,
1000
0000
0001
0000
0100
0010
0100
0000
,
0010
0000
1000
0000
0100
0010
0001
0000
,
1000
0100
0001
0100
,
1000
0010
0001
0010
,
0000
1000
0100
0000
0010
0000
0010
0000
,
0000
0001
0100
0000
0001
0000
1000
0000
,
0100
0000
0000
1000
0100
0000
0010
0000
,
0001
0000
0000
0100
0001
0000
1000
0000
,
0010
0000
0000
1000
0100
0000
0001
0000
,
0100
0010
0001
0001
,
0100
0000
0000
0010
1000
0000
0100
0000
,
1000
0000
0000
0010
0001
0000
0010
0000
,
0100
0000
0000
0010
0100
0000
0000
0100
,
0010
0100
0010
1000
,
1001
1000
0100
0010
,
0001
0000
0100
0002
0000
1000
0000
2003
,
0000
0000
0100
0000
3100
0000
0010
0001
,
0100
0001
0010
0100
,
1100
1000
0001
0100
,
1000
0000
0100
0001
0000
0010
0000
0020
,
0000
0000
0100
0000
0130
0000
1000
0100
,
0010
0001
1000
0100
,
2000
0000
3000
0100
0010
0000
0001
0000
,
0200
0000
0300
0001
1000
0000
0010
0000
,
0100
0000
0101
0000
0011
0000
0100
1000
,
0010
0100
0001
0010
,
0200
0000
0300
1000
0001
0000
0010
0000
,
0001
0000
0100
0000
1000
0000
0200
0002
,
0000
0000
0000
0000
,
0000
0303
0000
1MM1
,
1000
0100
0010
0001
,
0100
0100
0100
0001
,
0010
0100
1000
0001
,
0010
0100
0100
0100
,
1000
0101
1000
0010
,
1000
0011
1000
0100
,
0000
1000
0001
0000
0010
0000
0010
0000
,
0000
0001
1000
0000
0100
0000
0100
0000
,
1000
0000
0000
0001
0010
0000
0001
0010
,
0001
0000
0000
1000
0100
0000
1000
0100
,
1000
0000
0000
0100
0010
0000
0001
0000
,
1000
0010
0100
0001
,
0010
0000
0000
0100
1000
0000
0001
0000
,
0100
0000
0000
0001
1000
0000
0100
0000
,
0010
0000
0000
0010
0100
0000
0000
0100
,
0010
0100
0010
0100
,
1001
0000
0010
0000
0010
0000
0001
0010
,
0001
0000
0100
0001
0000
1000
0000
2000
,
0000
0000
0010
0000
3010
0000
0100
0001
,
1000
0100
0010
0001
,
1001
1000
0010
0001
,
0010
0000
0100
0002
0000
0010
0000
0023
,
0000
0000
0100
0000
0130
0000
0010
0001
,
1000
0100
0001
0100
,
1000
0000
0000
0001
0100
0000
0001
0100
,
0000
0000
0000
0001
1000
0000
0001
1000
,
0000
0000
0100
0000
0100
0000
0010
0001
,
0100
0010
1000
0100
,
0010
0000
0000
0100
1000
0000
0100
1000
,
0000
0000
0001
0000
0010
0000
0001
0200
,
0000
0300
0000
0000
0000
0000
0000
0000
;

//---------------dance-single - ----------------
#NOTES:
     dance-single:
     :
     Easy:
     3:
     0.197506,0.265299,0.037366,0.018683,0.000000,148.000000,144.000000,4.000000,2.000000,2.000000,0.000000,0.197506,0.265299,0.037366,0.018683,0.000000,148.000000,144.000000,4.000000,2.000000,2.000000,0.000000:
// measure 0
0000
0000
0000
0000
,  // measure 1
0000
0000
0000
0000
,  // measure 2
0000
0000
0000
0000
,  // measure 3
0000
0000
0000
0000
,  // measure 4
0000
0000
0000
0000
,  // measure 5
1000
0000
0010
0000
,  // measure 6
0100
0000
0001
0000
,  // measure 7
1000
1000
1000
0000
,  // measure 8
0001
0001
0001
0000
,  // measure 9
1000
0000
0100
0000
,  // measure 10
0010
0000
0001
0000
,  // measure 11
1000
0000
0000
0000
,  // measure 12
1000
0000
0000
0000
,  // measure 13
0001
0000
0010
0000
,  // measure 14
0100
0000
1000
0000
,  // measure 15
0010
0010
0010
0000
,  // measure 16
0100
0100
0100
0000
,  // measure 17
0001
0000
0010
0000
,  // measure 18
0010
0000
0001
0000
,  // measure 19
0001
0000
0100
0100
,  // measure 20
0100
0000
0000
0000
,  // measure 21
0010
0000
1000
0000
,  // measure 22
1000
0000
0100
0000
,  // measure 23
0100
0000
1000
0000
,  // measure 24
0001
1000
0001
1000
,  // measure 25
1001
0000
0000
0000
,  // measure 26
0010
1000
0100
0000
,  // measure 27
0010
0000
0010
0000
,  // measure 28
0001
0010
0001
0000
,  // measure 29
0110
0000
0000
0000
,  // measure 30
0001
0000
0100
0000
,  // measure 31
0010
0000
1000
0000
,  // measure 32
0100
0010
0100
0010
,  // measure 33
0100
0000
1000
0000
,  // measure 34
1000
0000
0001
0000
,  // measure 35
0001
0000
0000
0000
,  // measure 36
1000
0001
1000
0001
,  // measure 37
1000
0000
0010
0000
,  // measure 38
0010
0000
0100
0000
,  // measure 39
0200
0000
0000
0000
,  // measure 40
0000
0000
0300
M00M
,  // measure 41
0010
0000
1000
0000
,  // measure 42
0010
0000
0100
0000
,  // measure 43
0001
0000
1000
0000
,  // measure 44
0001
0000
0000
0000
,  // measure 45
1000
0000
0001
0000
,  // measure 46
0010
0000
0001
0000
,  // measure 47
1000
1000
1000
0000
,  // measure 48
0100
0100
0100
0000
,  // measure 49
0010
0000
0001
0010
,  // measure 50
0001
0000
1000
0100
,  // measure 51
1000
0000
0010
0000
,  // measure 52
1000
0000
0100
0000
,  // measure 53
0010
0000
0100
1000
,  // measure 54
0100
0000
1000
0001
,  // measure 55
1000
0000
0001
0000
,  // measure 56
1000
0001
1000
0001
,  // measure 57
1001
0000
0000
0000
,  // measure 58
0001
0000
0000
0000
,  // measure 59
1000
0000
1000
0000
,  // measure 60
0100
0100
0100
0000
,  // measure 61
0110
0000
0000
0000
,  // measure 62
0001
0000
0000
0000
,  // measure 63
0100
0000
0010
0000
,  // measure 64
1000
0001
1000
0000
,  // measure 65
0010
0000
0100
0000
,  // measure 66
0100
0000
0010
0000
,  // measure 67
0010
0100
0100
0000
,  // measure 68
0010
0000
0100
0000
,  // measure 69
0001
0000
1000
0001
,  // measure 70
1000
0000
0001
2000
,  // measure 71
3000
0000
0000
0000
;
