#TITLE:The Winds of 600 AD;
#SUBTITLE:;
#ARTIST:Daniel Tidwell;
#TITLETRANSLIT:;
#SUBTITLETRANSLIT:;
#ARTISTTRANSLIT:;
#GENRE:;
#CREDIT:;
#MUSIC:Daniel Tidwell - The Winds of 600 AD.mp3;
#BANNER:;
#BACKGROUND:;
#CDTITLE:;
#SAMPLESTART:68.328;
#SAMPLELENGTH:11.567;
#SELECTABLE:YES;
#OFFSET:-1.672;
#BPMS:0.000=90.000
,15.000=91.000
,16.000=90.001
,44.000=87.600
,48.000=170.000
,116.000=85.000
,132.000=170.000
;
#STOPS:;
#BGCHANGES:;
#FGCHANGES:;

//--------------- dance-single - ----------------
#NOTES:
     dance-single:
     :
     Beginner:
     1:
     0.086075,0.11117,0,0.033945,0,71,71,0,4,0,0,0.086075,0.11117,0,0.033945,0,71,71,0,4,0,0:
0000
0000
0000
0000
,
0000
0000
0000
0000
,
1000
0000
0000
0000
,
0001
0000
0000
0000
,
0010
0000
0000
0000
,
0100
0000
0000
0000
,
1000
0000
0000
0000
,
0002
0000
0003
0000
,
0100
0000
0100
0000
,
0010
0000
0000
0000
,
0100
0000
0100
0000
,
0020
0000
0030
0000
,
0000
0000
0000
0000
,
0001
0000
0000
0000
,
0010
0000
0000
0000
,
0001
0000
0000
0000
,
0100
0000
0000
0000
,
0100
0000
0000
0000
,
0010
0000
0000
0000
,
1000
0000
1000
0000
,
1000
0000
0000
0000
,
0001
0000
0000
0000
,
0010
0000
0000
0000
,
0100
0000
0000
0000
,
1000
0000
0000
0000
,
0010
0000
0000
0000
,
0100
0000
0000
0000
,
0001
0000
0001
0000
,
0001
0000
0000
0000
,
1000
0000
0000
0000
,
0100
0000
0000
0000
,
0010
0000
0000
0000
,
0002
0000
0003
0000
,
1000
0000
0000
0000
,
0010
0000
0000
0000
,
0100
0000
0000
0000
,
0001
0000
0001
0000
,
0001
0000
0000
0000
,
1000
0000
0000
0000
,
0100
0000
0000
0000
,
0010
0000
0010
0000
,
0010
0000
0000
0000
,
0001
0000
0000
0000
,
1000
0000
0000
0000
,
0010
0000
0000
0000
,
0100
0000
0000
0000
,
0001
0000
0000
0000
,
1000
0000
1000
0000
,
1000
0000
0000
0000
,
0001
0000
0000
0000
,
0010
0000
0000
0000
,
0010
0000
0000
0000
,
0001
0000
0001
0000
,
0001
0000
0000
0000
,
0100
0000
0000
0000
,
0100
0000
0000
0000
,
0010
0000
0000
0000
,
1000
0000
1000
0000
,
1000
0000
0000
0000
,
0001
0000
0000
0000
,
0010
0000
0000
0000
,
0100
0000
0000
0000
,
0100
0000
0000
0000
,
1000
0000
0000
0000
,
0020
0000
0000
0000
,
0000
0000
0030
0000
;

//--------------- dance-single - ----------------
#NOTES:
     dance-single:
     :
     Easy:
     2:
     0.133355,0.162936,0.008486,0.050917,0,110,109,1,6,0,0,0.133355,0.162936,0.008486,0.050917,0,110,109,1,6,0,0:
0000
0000
0000
0000
,
0000
0000
0000
0000
,
1000
0000
0001
0000
,
0020
0030
0000
0001
,
0001
0000
0001
0000
,
1000
0000
1000
0000
,
0010
0000
0100
0000
,
0020
0030
0000
1000
,
1000
0000
0000
0000
,
0100
0000
0100
0100
,
0100
0000
1000
0000
,
0001
0000
0000
0000
,
0100
0000
0100
0000
,
0010
0000
0010
0010
,
0010
0000
0000
1000
,
1000
0000
0100
0000
,
0100
0000
0000
0000
,
0010
0000
0001
0000
,
0100
0000
0100
0000
,
0001
0001
0000
0000
,
2000
0000
3000
0000
,
0010
0000
1000
0000
,
0100
0000
0000
0010
,
0010
0000
0001
0000
,
0100
0000
0100
0000
,
0001
0000
1000
0000
,
0100
0000
0100
0000
,
1000
0000
0000
0000
,
0000
0000
0000
0000
,
0010
0000
0100
0000
,
0001
0000
0010
0010
,
0010
0000
0100
0000
,
2000
0000
3000
0000
,
0001
0000
0010
0000
,
0100
0000
0000
1000
,
1000
0000
0010
0000
,
1000
0000
1000
0000
,
0001
0000
0100
0000
,
0010
0000
1000
0000
,
0002
0000
0000
0000
,
0003
0000
1000
0000
,
0001
0000
0010
0000
,
0100
0000
1000
0000
,
0100
0000
0000
1000
,
1000
0000
0001
0000
,
0010
0000
0001
0000
,
0100
0000
0010
0000
,
0010
0000
1000
0000
,
1000
0000
0000
0000
,
0100
0000
0010
0000
,
0010
0000
0001
0000
,
0001
0000
1000
0000
,
1000
0000
0100
0000
,
1000
0000
0010
0000
,
0010
0000
0100
0000
,
0002
0000
0000
0000
,
0000
0000
0003
0000
,
1000
0000
0000
0000
,
0001
0000
0000
0000
,
0010
0000
0010
0000
,
0010
0000
0000
0000
,
0100
0000
0000
0000
,
1000
0000
0000
0000
,
0001
0000
0001
0000
,
1001
0000
0000
0000
;

//--------------- dance-single - ----------------
#NOTES:
     dance-single:
     :
     Medium:
     6:
     0.271559,0.330963,0.042431,0.161238,0,224,219,5,19,0,0,0.271559,0.330963,0.042431,0.161238,0,224,219,5,19,0,0:
0000
0000
0000
0000
,
0000
0000
0000
0000
,
1000
0100
0010
0000
0100
0000
1000
0000
,
2002
0000
3003
0000
,
0001
0000
0100
0010
0100
0000
0000
0000
,
0001
0000
1000
0100
0010
0000
0010
0000
,
0001
0100
0010
1000
,
2002
0000
3003
0000
,
0001
0000
0100
0010
0100
0000
0000
0000
,
0010
0000
1000
0001
1000
0000
1000
0000
,
0100
0000
0010
0001
0100
0000
0001
0000
,
1000
0000
0000
0000
,
0000
0000
0000
0000
,
0001
0010
0100
1000
,
0002
0000
0003
1000
,
0001
0100
0010
1000
,
0001
1000
0001
0000
1000
0001
1000
0000
,
0001
0001
0010
0010
,
0100
0000
1000
0000
,
0010
1000
0010
0000
1000
0010
1000
0000
,
0020
0000
0000
0030
,
0100
0001
0010
0001
,
0100
0000
0000
0010
,
0010
1000
0100
0010
,
0001
0010
0001
0000
0010
0001
0010
0000
,
0001
1000
0100
0010
,
0100
1000
0001
0100
,
0002
0000
0000
0000
,
2000
0000
3003
0000
,
1000
0000
0001
0010
0001
0000
0000
0000
,
1000
0000
0001
0100
0010
0000
0010
0000
,
0100
0000
0001
0010
0100
0000
1000
0000
,
0220
0000
0330
1001
,
1000
0000
0100
1000
0000
1000
0100
0000
,
0010
0000
0100
0010
0000
0010
0100
0000
,
0010
0000
0001
0000
0100
0001
0100
0000
,
0002
0003
2000
3000
,
0001
0000
0010
0100
0000
0100
1000
0000
,
0001
0000
0100
0001
0000
0001
1000
0000
,
0020
0000
0000
0000
,
0000
0030
0020
0030
,
0010
1000
1000
0100
,
0100
0010
0010
0001
,
0001
0100
0100
0001
,
0002
0000
1000
1003
,
0001
0010
0001
0001
,
1000
0100
1000
1000
,
0020
0000
0100
0000
,
0130
0000
0000
0000
1000
0001
0010
0000
,
0002
0000
0010
0010
,
0013
0000
0001
1000
,
0200
0000
0010
0010
,
0310
0001
1000
0100
,
1000
0000
0001
0100
,
0001
0000
1000
0000
0010
0100
0001
0000
,
1000
0000
0100
0000
,
1000
0000
1001
0000
,
0100
0000
0000
1000
0100
0000
0000
0100
,
1000
0100
0010
0010
,
0001
0100
0010
1000
,
0001
0000
0000
0000
,
1000
0100
0010
0010
,
0001
0100
0010
0010
,
1000
0010
1000
0000
0001
0000
0100
0000
,
0001
0000
1000
0100
0020
0000
0000
0000
,
0030
0000
0000
0000
;

//--------------- dance-single - ----------------
#NOTES:
     dance-single:
     :
     Hard:
     8:
     0.385517,0.442981,0.093348,0.288532,0,318,307,11,34,18,0,0.385517,0.442981,0.093348,0.288532,0,318,307,11,34,18,0:
0000
0000
0000
0000
,
0000
0000
0000
0000
,
1000
0100
0010
0001
0100
0000
0010
0000
,
1001
0000
0000
0100
,
0001
0010
0001
0010
0002
0000
0003
1000
,
0100
0010
0100
0010
0100
0000
1000
0000
,
0001
0100
0010
1000
0010
0100
0001
0010
,
0001
0000
0000
0100
,
0010
1000
0100
0010
0100
0000
0000
1000
,
0001
0100
0010
1000
0001
0000
0011
0000
,
0001
0100
1000
0001
1000
0000
0200
0000
,
0002
0000
0303
M0M0
,
0002
0000
0003
0MM0
2000
0000
3000
0000
,
0001
0010
0100
0010
0001
0000
0200
0000
,
0020
0030
0310
1000
,
0001
0010
0100
0000
1000
0100
0010
0000
,
0001
1000
0001
1000
0010
1000
0100
0000
,
1000
0001
1000
0000
0001
1000
0001
0000
,
0110
0000
1001
0000
,
0001
0010
0002
0000
1003
0100
2000
0100
,
0200
3000
0020
0330
,
0001
0010
0001
0010
0001
1000
0200
0000
,
2000
3000
1300
0001
,
0010
0100
1000
0000
0010
0100
0001
0000
,
1000
0100
1000
0100
0001
0100
1000
0000
,
0001
0010
0001
0000
0100
0000
0100
0000
,
0010
1000
0010
0000
0100
0000
0100
0000
,
0001
0010
0200
0000
13M0
0001
0200
0000
,
0301
0010
0200
0000
13M0
0001
0200
0000
,
0310
1000
0001
0100
0001
0000
0000
1000
,
0100
0001
1000
0001
0100
0000
1000
0000
,
0010
0001
0010
0100
1000
0000
0200
0000
,
0002
0303
0000
1001
,
1100
0000
1000
0010
0000
1000
0001
0000
,
0101
0000
0001
1000
0000
0001
0010
0000
,
0110
0000
0100
0000
1000
0001
0100
0000
,
0010
0100
0010
0000
0100
0010
0100
0000
,
0001
0001
0010
0100
,
1000
1000
0010
0100
,
0002
0000
0100
0000
1000
1000
1003
0000
,
0002
1003
2000
3001
,
1000
0100
0010
1000
0010
0000
0100
0000
,
1000
0010
0100
1000
0100
0000
0010
0000
,
0100
0001
0010
0100
0010
0000
0100
0000
,
0001
0100
0010
0001
0100
0000
0010
0000
,
0100
0001
1000
0100
1000
0000
0001
0000
,
1000
0010
0001
0010
1000
0000
0001
0000
,
2000
3200
0320
0032
,
0100
0000
0100
0000
1003
0100
0010
0001
,
2000
3MMM
1000
0001
,
0200
M3MM
0100
0001
,
0020
MM3M
0100
0100
,
1000
0001
0100
0100
,
0020
MM3M
0010
1000
,
0100
0100
0010
0001
,
2000
0000
0000
0000
,
0001
0010
0002
3003
,
1001
0000
0000
1000
0100
0000
0000
1000
,
0010
0100
0001
0001
,
1000
0100
1000
0100
0010
0000
0001
0000
,
0100
0001
1001
1001
,
1000
0100
0010
0100
1000
0000
0001
0100
,
1000
0100
0010
0100
0001
0000
1000
0000
,
0001
0010
0001
0010
0100
1000
0001
1000
,
0100
0010
0001
2000
0002
0000
0000
0000
,
0000
3003
0000
0000
;

//--------------- dance-single - ----------------
#NOTES:
     dance-single:
     :
     Challenge:
     11:
     0.68011,0.805979,0.44977,0.44977,0.339449,561,508,53,53,0,0,0.68011,0.805979,0.44977,0.44977,0.339449,561,508,53,53,0,0:
0000
0000
0000
0000
,
0000
0000
0000
0000
,
0001
0010
0100
1000
0001
0001
1000
1000
,
0001
0100
0010
1000
0002
0000
2003
0000
,
3001
0100
0001
0100
0002
0010
0013
0100
,
1000
0010
0100
0010
2000
0001
3002
1000
,
1003
0100
0010
0001
0100
0001
0010
1000
,
0020
1000
1000
0100
0032
0000
2003
0000
,
3010
0001
1000
0100
0002
0000
0003
1000
,
0100
0010
0100
1000
1010
0000
1010
0000
,
0001
0100
1000
0100
0010
0000
0101
0000
,
2002
0000
3003
0000
,
1000
0100
1000
0100
1000
0000
0000
0000
0001
0100
0001
0100
0001
0000
0000
0000
,
1000
0000
0100
0000
1000
0100
1000
0000
0001
0000
0010
0000
0100
0010
0100
0000
,
1000
0000
0001
0000
0100
0001
0100
0000
0001
0000
0010
0000
0100
0010
0100
0000
,
1000
0000
0100
0000
0010
0001
1000
0000
0001
0000
0100
0000
0010
1000
0001
0000
,
1000
0100
1000
0100
1000
0000
0001
0010
0001
0010
0100
1000
0001
1000
0001
1000
,
0100
0000
0010
0000
0001
1000
0100
0000
0010
0000
0100
0000
1000
0001
0100
0000
,
0010
0000
0100
0000
0001
1000
0010
0000
1000
0000
0001
0000
0100
0010
1000
0000
,
0100
0010
2001
0000
3100
0010
0012
1000
,
1003
0010
0100
0010
1000
0001
0100
0001
1000
0010
0100
0010
1000
0001
1000
0001
,
0010
0000
0100
0000
0010
0100
0010
0000
0100
0000
1000
0000
0010
0100
0010
0000
,
0100
0000
0001
0000
1000
0001
1000
0000
0001
0000
0010
0000
1000
0010
1000
0000
,
0010
0000
0001
0000
1000
0100
0010
0000
0001
0000
0010
0000
0100
1000
0001
0000
,
1000
0100
0010
0001
0000
1000
0100
0010
0001
1000
0010
1000
0001
0000
1001
0000
,
1000
0000
0001
0000
0010
0100
1000
0000
0001
0000
1000
0000
0010
0100
0001
0000
,
1000
0000
0001
0000
0100
0010
1000
0000
0001
0000
1000
0000
0100
0010
0001
0000
,
1000
0200
1000
0300
0010
0002
1000
0003
,
0010
1000
0001
0100
0010
1000
0001
0010
0100
1000
0001
0100
0010
1000
0001
0010
,
0001
0110
0110
1001
0220
0000
0330
1001
,
1100
0000
0000
0000
0011
0000
0000
0000
0101
0000
0000
0000
1010
0000
0000
0000
1001
0000
0000
0000
1000
0000
0010
0100
0001
0000
0010
0000
0000
0000
0000
0000
,
0012
1000
0203
1000
0320
0001
2030
0100
,
0002
0000
3003
0110
,
1001
0000
0001
0100
0000
1000
0100
0000
,
1001
0000
1000
0010
0000
0001
0010
0000
,
1001
0000
1100
0000
0010
0001
0100
0000
,
0001
0100
0010
1000
0001
0000
0000
0000
1000
0100
0010
0001
1000
0000
0000
0000
,
0011
0000
0100
1000
0000
1000
0100
0000
,
1010
0000
0100
0001
0000
0001
0100
0000
,
0010
0000
1001
0000
0100
0100
1001
0000
,
0010
0100
1000
0001
0010
0000
0000
0000
0100
1000
0001
0010
0100
0000
1001
0000
,
2000
0010
3020
0001
0032
1000
2003
0100
,
3200
0010
0320
1000
2030
0001
3002
0010
,
0023
1000
2030
0001
3002
0100
0203
1000
,
2300
0010
3010
0100
0110
0010
0101
1000
,
0002
0010
0023
1000
2030
0001
3002
0100
,
0203
0010
0320
1000
2030
0010
3020
0001
,
0032
0100
0203
1000
2300
0100
3200
0001
,
0302
1000
1000
0000
0010
0010
1003
0100
,
1100
0000
1100
0000
0000
0000
0001
0010
0001
0000
0000
0000
0001
0000
1000
0100
,
1000
0000
0101
0000
0000
0000
0010
0100
0001
0000
0000
0000
1100
0000
0010
0001
,
0100
0000
0110
0000
0000
0000
0001
1000
0100
0000
0000
0000
0110
0000
0100
1000
,
0010
0000
0100
0000
0001
0000
1000
0010
1000
0000
0100
0000
0010
0000
0100
1000
,
0010
0000
0110
0000
0000
0000
0001
1000
0100
0000
0000
0000
1001
0000
1000
0001
,
0010
0000
0110
0000
0000
0000
1000
0010
0100
0000
0000
0000
0110
0000
1000
0001
,
1000
1001
0100
0010
1001
1001
0010
0100
,
2000
0000
0000
0000
3002
0000
0000
0000
0103
0010
1000
0010
0100
0001
0010
0100
,
1000
0100
0010
0001
1000
0000
1100
1000
,
0001
0010
1000
0010
0011
0001
0011
0000
,
0001
0100
1000
0100
0001
0000
1001
0000
,
1000
0010
0001
1000
0200
0000
0001
0000
,
0310
1000
0100
0010
0011
0000
1001
1000
,
0010
0100
0001
1000
1100
0100
1100
1000
,
0010
0100
0010
0100
0001
0010
0100
1000
,
1001
0010
0100
0010
2002
0000
0000
0000
,
0000
0000
3003
0000
;
