#TITLE:Take a Hint;
#SUBTITLE:;
#ARTIST:Nightcore;
#TITLETRANSLIT:;
#SUBTITLETRANSLIT:;
#ARTISTTRANSLIT:;
#GENRE:;
#CREDIT:;
#BANNER:;
#BACKGROUND:;
#LYRICSPATH:;
#CDTITLE:;
#MUSIC:Take A Hint.mp3;
#OFFSET:-0.262000;
#SAMPLESTART:35.366001;
#SAMPLELENGTH:11.640999;
#SELECTABLE:YES;
#BPMS:0.000000=164.082993
;
#STOPS:158.000000=0.366000
;
#BGCHANGES:;
#KEYSOUNDS:;
#ATTACKS:;

//---------------dance-single - ----------------
#NOTES:
     dance-single:
     :
     Beginner:
     1:
     0.101654,0.135120,0.055967,0.023986,0.000000,89.000000,82.000000,7.000000,3.000000,0.000000,0.000000,0.101654,0.135120,0.055967,0.023986,0.000000,89.000000,82.000000,7.000000,3.000000,0.000000,0.000000:
0000
0000
0000
0000
,
0000
0000
0000
0000
,
0000
0000
0000
0000
,
0000
0000
0000
0000
,
1000
0000
0000
0000
,
0001
0000
0000
0000
,
1000
0000
0000
0000
,
0001
0000
0000
0000
,
1001
0000
0000
0000
,
0000
0000
0000
0000
,
0010
0000
0000
0000
,
0100
0000
0000
0000
,
0010
0000
0000
0000
,
0010
0000
0000
0000
,
0100
0000
0000
0000
,
0010
0000
0000
0000
,
0110
0000
0000
0000
,
0000
0000
0000
0000
,
1000
0000
0000
0000
,
0001
0000
0000
0000
,
0010
0000
0000
0000
,
0100
0000
0000
0000
,
1000
0000
0000
0000
,
0001
0000
0000
0000
,
1001
0000
0000
0000
,
0000
0000
0000
0000
,
0010
0000
0000
0000
,
1000
0000
0000
0000
,
0001
0000
0000
0000
,
0100
0000
0000
0000
,
0010
0000
0000
0000
,
1000
0000
0000
0000
,
0002
0000
0003
0000
,
1000
0000
0000
0000
,
2000
0000
3000
0000
,
0001
0000
0000
0000
,
0010
0000
0000
0000
,
0100
0000
0000
0000
,
1000
0000
0000
0000
,
0001
0000
0000
1000
,
0000
0000
0000
0010
,
0000
0000
0000
0100
,
0000
0000
0000
0100
,
0000
0000
0000
0110
,
0000
0000
0000
0000
,
0000
0000
0000
0001
,
0000
0000
0000
0010
,
0000
0000
0000
0001
,
0000
0000
0000
1000
,
0000
0000
0000
0100
,
0000
0000
0000
0010
,
0000
0010
0000
0010
,
0000
0000
0000
0001
,
0000
0001
0000
0001
,
0000
0000
0000
1000
,
0000
1000
0000
1000
,
0000
0000
0000
0010
,
0000
0000
0000
0100
,
0000
0000
0000
0001
,
0000
0000
0000
1001
,
0000
0000
0000
0000
,
0000
0000
0000
0110
,
0000
0000
0000
1000
,
0000
0000
0000
0002
,
0000
0003
0000
1000
,
0000
0000
0000
1000
,
0000
0000
0000
1000
,
0000
0000
0000
0001
,
0000
0000
0000
0001
,
0000
0000
0000
0001
,
0000
0000
0000
0010
,
0000
0000
0000
0100
,
0000
0100
0000
0100
,
0000
0000
0000
1000
,
0000
0000
0000
0010
,
0000
0000
0000
0110
,
0000
0000
0000
0001
,
0000
0000
0000
0010
,
0000
0000
0000
0100
,
0000
0000
0000
1000
,
0000
0000
0000
0010
,
0000
0000
0000
0100
,
0000
0100
0000
0100
,
0000
0000
0000
0001
,
0000
0000
1000
0000
;

//---------------dance-single - Blank----------------
#NOTES:
     dance-single:
     Shortysnmn2010:
     Easy:
     4:
     0.263844,0.337800,0.071957,0.087948,0.000000,231.000000,222.000000,9.000000,11.000000,0.000000,0.000000,0.263844,0.337800,0.071957,0.087948,0.000000,231.000000,222.000000,9.000000,11.000000,0.000000,0.000000:
// measure 0
0000
0000
0000
0000
,  // measure 1
0000
0000
0000
0000
,  // measure 2
0000
0000
0000
0000
,  // measure 3
0000
0000
0000
0000
,  // measure 4
1000
0000
0001
0001
,  // measure 5
0001
0000
0010
0000
,  // measure 6
0001
0000
0100
0100
,  // measure 7
0100
0000
0010
0000
,  // measure 8
1000
0000
0100
0000
,  // measure 9
0010
0001
0100
0001
,  // measure 10
0010
0000
0100
0000
,  // measure 11
1000
0001
0100
0001
,  // measure 12
1000
0000
0010
0000
,  // measure 13
0100
0000
0001
0000
,  // measure 14
1000
1000
1000
1000
,  // measure 15
0001
0001
0001
0001
,  // measure 16
0010
0000
0100
0000
,  // measure 17
1000
0100
1000
0000
,  // measure 18
0010
0000
0100
0000
,  // measure 19
0001
0100
0001
0000
,  // measure 20
1000
0000
1000
0000
,  // measure 21
0010
1000
0100
0000
,  // measure 22
0020
0030
0200
0300
,  // measure 23
0010
0001
0100
0110
,  // measure 24
1001
0000
1000
0000
,  // measure 25
0001
0000
0010
0001
,  // measure 26
0100
0000
0010
1000
,  // measure 27
0001
0001
1000
1000
,  // measure 28
0001
0000
0010
0100
,  // measure 29
1000
0000
0010
0100
,  // measure 30
0001
0000
1000
0100
,  // measure 31
1000
0000
1000
0000
,  // measure 32
0001
0000
0010
0010
,  // measure 33
0001
0000
0100
0010
,  // measure 34
0100
0000
0001
0001
,  // measure 35
0001
0000
0010
0100
,  // measure 36
1000
0000
0010
0000
,  // measure 37
1000
0100
0001
0100
,  // measure 38
1000
0000
0001
0000
,  // measure 39
0100
0010
0100
0010
,  // measure 40
1000
0100
0000
0010
,  // measure 41
0000
0010
0000
0002
,  // measure 42
0003
2000
3000
0001
,  // measure 43
0100
0001
1001
0110
,  // measure 44
0000
0010
1000
0100
,  // measure 45
0000
0010
0001
0100
,  // measure 46
0000
0001
1000
0001
,  // measure 47
0010
0001
0000
0001
,  // measure 48
1000
0100
1000
0010
,  // measure 49
0000
1000
0100
0010
,  // measure 50
0000
0001
1000
0001
,  // measure 51
0000
0010
0000
0001
,  // measure 52
0000
0100
0010
1000
,  // measure 53
0000
0001
0010
0001
,  // measure 54
0000
1000
0100
1000
,  // measure 55
0000
0010
0100
0001
,  // measure 56
0000
0010
0000
0001
,  // measure 57
0000
1000
0000
0100
,  // measure 58
0000
0010
0001
0100
,  // measure 59
0100
0200
0300
0000
,  // measure 60
0001
0010
0001
0000
,  // measure 61
1000
0100
1000
0000
,  // measure 62
0010
0100
0010
1000
,  // measure 63
0000
0001
0000
0020
,  // measure 64
0000
0030
0000
0001
,  // measure 65
0000
0000
0000
0110
,  // measure 66
0000
0000
0000
1000
,  // measure 67
0000
0000
0000
1001
,  // measure 68
0010
0010
1001
1001
,  // measure 69
0000
1000
0000
0100
,  // measure 70
0000
0010
0001
0100
,  // measure 71
0000
0001
0000
0010
,  // measure 72
0000
0010
0000
0002
,  // measure 73
0100
0100
0000
1000
,  // measure 74
1000
1000
0000
0013
,  // measure 75
0100
1000
0000
2020
,  // measure 76
0000
3030
0000
0001
,  // measure 77
0100
0100
0001
1000
,  // measure 78
0100
0100
0100
0100
,  // measure 79
1000
0001
0010
0010
,  // measure 80
0000
0001
0000
2000
,  // measure 81
0000
0010
0010
3010
,  // measure 82
0000
1000
0100
2000
,  // measure 83
0000
0001
0001
3001
,  // measure 84
0000
0010
0001
0000
;

//---------------dance-single - Blank----------------
#NOTES:
     dance-single:
     Shortysnmn2010:
     Challenge:
     9:
     0.617920,0.643719,0.311815,0.375778,0.039976,541.000000,502.000000,39.000000,47.000000,0.000000,0.000000,0.617920,0.643719,0.311815,0.375778,0.039976,541.000000,502.000000,39.000000,47.000000,0.000000,0.000000:
0000
0000
0000
0000
,
0000
0000
0000
0000
,
0000
0000
0000
0000
,
0000
0000
0000
0000
,
2002
0000
0000
3003
0000
0000
0010
0000
0001
0000
1000
0000
0100
0000
0010
0000
,
0100
0000
1000
0010
0100
0001
1000
0000
,
2200
0000
0000
3300
0000
0000
0010
0000
0001
0000
0100
0000
0001
0000
0100
0000
,
0010
0000
1000
0001
0100
0001
0010
0000
,
0001
0100
1000
0100
0010
1000
0100
0010
,
0100
0000
0001
0000
0100
0000
1000
0000
0010
0000
0100
0010
0100
0000
0001
0000
,
0010
0100
0001
0100
1000
0010
0100
0010
,
0001
0010
1000
0001
0020
0000
0030
0000
,
0100
1000
0010
0100
0002
0000
1003
0100
,
0010
1000
0010
0001
2000
0000
0010
3010
,
0110
0101
1001
1100
,
0011
0110
1001
0110
,
1000
0100
0010
0001
1000
0001
0100
0010
,
1000
0000
0001
0000
0100
0000
1000
0000
0100
0000
0001
1000
0001
0000
0010
0000
,
0100
1000
0010
1000
0100
0010
0001
0100
,
0001
0010
0100
2000
0010
0000
3000
0010
,
0100
0100
0001
0010
0012
0000
1003
0100
,
0100
0010
0001
1000
1001
0000
0000
0010
,
2000
0000
0000
0001
3002
0000
0000
0010
,
0013
0100
1000
0010
0100
0000
1001
0000
,
2001
0000
3001
0010
0002
0000
1003
0010
,
2010
0000
3001
0100
0010
0100
0001
0010
,
0100
0000
1000
0001
0010
0001
1000
0010
,
1010
0000
1000
0100
1100
0000
0001
0100
,
0101
0000
0010
1000
0100
0010
0001
1000
,
0001
0000
0100
0001
1000
0001
1000
0001
,
0010
0000
0100
1000
0010
1000
0010
1000
,
0001
0000
0001
0100
0010
0000
0010
1000
,
0002
0000
0000
0003
0000
0000
1000
0000
0100
0000
0010
0000
0001
0000
1000
0000
,
0010
0100
0001
0010
0011
0000
0001
0010
,
0022
0000
0000
0033
0000
0000
1000
0000
0001
0000
0100
0000
0001
0000
1000
0000
,
0010
0000
0000
1000
0100
0010
0001
0000
,
1000
0100
1000
0001
1000
0010
0100
0001
,
1000
0000
0001
0000
0010
0000
0100
0000
0010
0000
0001
1000
0001
0000
0100
0000
,
0010
1000
0001
1000
0100
0010
1000
0010
,
0001
0100
0010
1000
0001
0000
1000
0100
,
1000
0001
2000
0000
3010
0100
0001
0010
,
0001
1000
0002
0000
0003
0000
2200
0000
,
3300
0000
0022
0000
0033
0000
1000
0001
,
1000
0001
1000
0000
0110
0000
1002
0000
,
0103
0001
0021
0000
0130
1000
1020
0000
,
0130
0001
1000
0100
1000
0001
0100
0000
,
0010
1000
0001
0010
1000
0010
0011
0000
,
0001
0100
0101
0000
0001
0100
0101
0000
,
0010
1000
0100
1000
0010
1000
0100
0000
,
0010
0100
1000
0010
0100
1000
0100
0000
,
0001
0010
0100
0001
0100
0010
0001
0000
,
1000
0100
0010
0000
0001
0100
0020
0000
,
0030
1000
0001
0010
0100
1000
0020
0000
,
0030
0100
0001
0010
0011
0000
1100
0000
,
0000
0010
0001
0100
0001
0100
0010
0000
,
0000
0000
0100
0000
0001
0000
1000
0000
0100
0010
0100
0010
0100
0000
0010
0001
,
0010
0000
0001
0000
1000
0000
0000
1000
0000
0000
1010
0000
0000
0000
0100
0000
,
0001
0000
1000
0000
0100
0000
0000
0010
0000
0000
0011
0000
0000
0000
0000
0000
,
0001
0100
0020
0000
2030
0000
0001
0000
,
3200
0000
0000
0000
0020
0000
0000
0000
0330
0000
0000
0000
0011
0000
1000
0100
,
1000
0001
0100
0001
0001
0010
0000
0100
,
1000
0010
0001
0010
1000
0100
0000
0010
,
0001
1000
0002
0000
0100
0000
2003
0000
,
0100
3002
0100
2000
,
0000
3003
0000
1001
,
0010
0000
1000
0000
0100
0000
0000
0000
0020
0000
0002
0000
0000
0033
0000
0000
,
1000
0000
0010
0000
0100
0000
1000
0000
0200
0000
0002
0000
0000
0303
0000
0000
,
1000
0100
0010
0100
1000
0001
0011
0000
,
0001
1000
0001
0000
1000
0001
1000
0100
,
0001
0100
0010
0001
1000
0001
0100
0010
,
0001
0010
0100
0001
1000
0100
0010
0001
,
1000
0000
0010
0000
1000
0000
0100
0000
0010
0000
0001
0000
0100
0000
0040
4000
,
0000
0000
3030
2001
,
3100
0010
0001
0100
0010
1000
0001
0000
,
0010
0100
0010
0000
0100
0010
0100
1000
,
0001
1000
0100
0010
0001
0010
0200
0000
,
0000
0000
0300
0110
,
0010
0001
1000
0000
0001
0100
0010
0000
,
1000
0010
0100
1000
0100
0001
1000
0000
,
0001
0010
0001
1000
0100
0010
0200
0000
,
1000
1000
0001
0301
,
0100
1000
0010
0100
0001
1000
0002
0000
,
0003
0010
0100
2000
0010
0000
3010
0000
,
0000
0100
0001
1000
0001
0010
0100
0000
,
0000
1000
0001
0010
2002
0000
3003
0000
;

//---------------dance-single - ----------------
#NOTES:
     dance-single:
     :
     Hard:
     7:
     0.499133,0.540480,0.183891,0.143915,0.000000,437.000000,414.000000,23.000000,18.000000,0.000000,0.000000,0.499133,0.540480,0.183891,0.143915,0.000000,437.000000,414.000000,23.000000,18.000000,0.000000,0.000000:
// measure 0
0000
0000
0000
0000
,  // measure 1
0000
0000
0000
0000
,  // measure 2
0000
0000
0000
0000
,  // measure 3
0000
0000
0000
0000
,  // measure 4
1100
0000
0000
0010
0001
0000
0100
0000
,  // measure 5
0100
0000
0000
0001
0010
0001
0010
0000
,  // measure 6
0110
0000
0000
0100
1000
0000
0010
0000
,  // measure 7
0010
0000
0000
0100
0001
1000
0001
0000
,  // measure 8
1000
0100
1000
0001
1000
0100
1000
0001
,  // measure 9
0010
0100
1000
0001
1000
0000
0000
0000
,  // measure 10
0001
0100
0001
1000
0010
0100
0001
1000
,  // measure 11
0001
0100
0010
1000
0001
0000
0000
0000
,  // measure 12
0010
0100
0010
0001
1000
0000
0010
0000
,  // measure 13
0100
0001
0100
0010
1000
0000
0000
0000
,  // measure 14
2100
3001
0102
1003
,  // measure 15
2010
3001
0012
1003
,  // measure 16
0001
0100
0010
1000
0001
0010
1000
0010
,  // measure 17
0001
1000
0100
0010
0001
0000
0000
0000
,  // measure 18
1000
0100
1000
0001
0100
1000
0100
0010
,  // measure 19
1000
0001
0100
0010
1000
0000
0000
0000
,  // measure 20
0001
0010
0001
0010
0002
0000
1000
0000
,  // measure 21
0103
0010
0100
0010
0100
0000
0000
0000
,  // measure 22
0110
0000
1001
0000
,  // measure 23
1000
0100
0001
0110
,  // measure 24
1001
0000
0100
0001
0010
0000
0100
1000
,  // measure 25
0010
0000
1000
0001
0100
0001
0010
0001
,  // measure 26
1000
0000
0001
1000
0100
1000
0010
0100
,  // measure 27
0001
0000
0001
0010
0001
0000
0001
0010
,  // measure 28
0001
0000
1000
0100
0010
1000
0010
0100
,  // measure 29
1000
0000
0001
0100
0010
0001
0010
0100
,  // measure 30
0001
0000
1000
0001
1000
0001
0010
1000
,  // measure 31
0010
0000
0010
0001
0010
0000
0010
1000
,  // measure 32
0010
0000
0000
0010
0001
0000
0100
0000
,  // measure 33
0100
0000
0000
0001
0010
0100
1000
0000
,  // measure 34
1001
0000
0000
0001
0100
0000
1000
0000
,  // measure 35
1000
0000
0000
0100
0010
0100
0010
0000
,  // measure 36
1000
0100
1000
0000
0001
0010
0001
0000
,  // measure 37
0100
0010
0100
0010
0100
0000
0001
0000
,  // measure 38
1000
0100
0010
0000
0001
0010
0100
0000
,  // measure 39
1000
0010
0100
0001
1000
0000
0001
0000
,  // measure 40
0010
0011
0001
1000
,  // measure 41
0100
1100
0000
2000
,  // measure 42
3000
0100
0002
0000
0003
0100
0010
0001
,  // measure 43
0010
0100
1000
0000
1001
0000
0001
0000
,  // measure 44
1000
0100
1000
0000
0001
0100
0001
0000
,  // measure 45
1000
0010
0001
0010
1000
0001
1000
0000
,  // measure 46
0001
0100
0001
1000
0100
0001
0100
0000
,  // measure 47
0100
1000
0100
0000
0100
0001
0100
0000
,  // measure 48
1000
0100
0010
0001
1000
0010
1000
0000
,  // measure 49
0001
0100
1000
0100
0001
0100
0010
0000
,  // measure 50
0100
0010
0100
0001
0010
0100
0010
0000
,  // measure 51
0100
0010
0100
0000
0010
0100
0010
0000
,  // measure 52
0000
0001
0010
0000
0001
0000
0100
0000
,  // measure 53
0000
0001
1000
0001
0010
0000
0100
0000
,  // measure 54
0000
1000
0100
0000
0010
0000
0001
0000
,  // measure 55
0000
1000
0010
0100
0001
0000
2000
0000
,  // measure 56
0100
0100
3002
0100
,  // measure 57
0100
2003
0010
3100
,  // measure 58
1001
0010
0100
1100
,  // measure 59
1001
0101
0000
0010
,  // measure 60
1000
0100
0100
0010
,  // measure 61
0001
0100
0100
0010
,  // measure 62
1000
0001
0010
0200
,  // measure 63
0300
2002
3003
0220
,  // measure 64
0000
0330
0000
1001
,  // measure 65
1000
0001
1000
0000
0001
0100
0000
0000
,  // measure 66
0001
0000
1000
0001
1000
0100
0000
0000
,  // measure 67
1000
0000
0010
1000
0010
1000
0010
0000
,  // measure 68
0100
0001
0100
0000
0100
0001
0100
0000
,  // measure 69
0001
1000
0001
0000
0010
0000
0100
0000
,  // measure 70
1000
0001
1000
0000
0010
0000
0100
0000
,  // measure 71
0001
0010
0001
0000
0100
0001
0100
0000
,  // measure 72
0010
1000
0010
0000
1000
0100
2000
0000
,  // measure 73
0000
0100
0100
3001
,  // measure 74
1000
0001
0010
0000
0001
1000
0020
0000
,  // measure 75
0000
0100
0100
2000
,  // measure 76
0000
0030
0000
0000
3001
0000
0100
0000
,  // measure 77
0010
1000
0010
0000
0100
0000
0001
0000
,  // measure 78
1000
0100
0010
0000
0001
0000
1000
0000
,  // measure 79
0001
0100
0010
0000
1000
0000
0001
0000
,  // measure 80
1000
0100
0001
0000
0001
0100
1000
0000
,  // measure 81
0000
0001
0010
0000
0100
0000
1000
0000
,  // measure 82
0000
0001
0100
0000
0101
0000
1001
0000
,  // measure 83
0000
1000
0010
0000
0100
0000
0001
0000
,  // measure 84
0000
1000
0100
0010
0001
0000
0000
0000
;

//---------------dance-single - ----------------
#NOTES:
     dance-single:
     :
     Medium:
     6:
     0.371209,0.574260,0.311815,0.135920,0.000000,325.000000,286.000000,39.000000,17.000000,0.000000,0.000000,0.371209,0.574260,0.311815,0.135920,0.000000,325.000000,286.000000,39.000000,17.000000,0.000000,0.000000:
// measure 0
0000
0000
0000
0000
,  // measure 1
0000
0000
0000
0000
,  // measure 2
0000
0000
0000
0000
,  // measure 3
0000
0000
0000
0000
,  // measure 4
2000
3000
0001
1000
,  // measure 5
0002
0003
1000
0100
,  // measure 6
1100
0000
0001
0100
,  // measure 7
0002
0003
1000
0010
,  // measure 8
1000
1000
0100
0100
,  // measure 9
0010
0100
0010
0000
0001
0000
0000
0000
,  // measure 10
1000
0001
1000
0001
,  // measure 11
0100
0001
0010
0000
0100
0000
0000
0000
,  // measure 12
0001
0001
0100
0100
,  // measure 13
0010
0010
1000
0000
,  // measure 14
0011
0011
1100
1100
,  // measure 15
1001
1001
0110
0110
,  // measure 16
0001
1000
0001
0100
,  // measure 17
0010
0000
1000
0100
0010
0000
0000
0000
,  // measure 18
1000
0100
1000
0100
,  // measure 19
0001
0000
0100
0010
1000
0000
0000
0000
,  // measure 20
0001
0100
0101
0000
,  // measure 21
0001
0000
1000
0000
,  // measure 22
0200
0300
0002
0003
,  // measure 23
1000
0001
1000
0110
,  // measure 24
0001
1000
1000
0001
,  // measure 25
0001
0010
0010
0001
,  // measure 26
0100
0010
1000
1000
,  // measure 27
1100
1000
0001
0100
,  // measure 28
0101
0001
0001
0010
,  // measure 29
0100
1000
1000
0010
,  // measure 30
1000
0100
0100
0010
,  // measure 31
0011
0001
0100
0001
,  // measure 32
1001
0000
0000
0001
1000
0000
1000
0000
,  // measure 33
1000
0000
0000
1000
0010
0000
0100
0000
,  // measure 34
0110
0000
0000
0100
0001
0000
0001
0000
,  // measure 35
0001
0000
0000
0001
1000
0000
0100
0000
,  // measure 36
1000
0010
0001
0010
,  // measure 37
1000
0000
0100
1000
0001
0000
0000
0000
,  // measure 38
0100
0001
0010
0100
,  // measure 39
1000
0000
0100
0010
0001
0000
1000
0000
,  // measure 40
0010
1000
0000
0001
,  // measure 41
0010
0001
0000
2000
,  // measure 42
3000
0002
0003
2000
,  // measure 43
3000
0010
1001
1000
,  // measure 44
0100
0100
0010
0010
,  // measure 45
0001
0000
0100
0001
0100
0000
0001
0000
,  // measure 46
0010
0100
0100
1100
,  // measure 47
1000
0010
1000
0100
,  // measure 48
0100
0010
0010
0001
,  // measure 49
0100
0001
0100
0000
0001
0000
0010
0000
,  // measure 50
0100
1000
0001
1001
,  // measure 51
1000
1001
0001
1001
,  // measure 52
0000
1000
0100
0000
0010
0000
0100
0000
,  // measure 53
0000
1000
0001
0000
0100
0000
0001
0000
,  // measure 54
0000
0010
0001
0000
0100
0000
0010
0000
,  // measure 55
0000
0100
0010
0000
0100
0000
0001
0000
,  // measure 56
0000
1000
0000
0110
,  // measure 57
0000
0001
0000
1000
,  // measure 58
0000
0002
0100
2003
,  // measure 59
0100
0020
3030
1010
,  // measure 60
0001
0001
0001
1100
,  // measure 61
0010
0010
0010
0001
,  // measure 62
0100
1000
0100
0001
,  // measure 63
0000
1000
0000
2002
,  // measure 64
0000
0000
3003
0110
,  // measure 65
0000
0000
0000
1001
,  // measure 66
0000
0000
0000
0110
,  // measure 67
0000
0000
0000
1001
,  // measure 68
1000
0100
1000
1001
,  // measure 69
0001
0010
0001
1001
,  // measure 70
1000
0100
0010
0110
,  // measure 71
0100
1000
0010
0110
,  // measure 72
0100
0110
0010
0220
,  // measure 73
0000
0330
0000
1000
,  // measure 74
0001
0001
0010
0010
,  // measure 75
0000
0000
0000
2002
,  // measure 76
0000
3003
0000
1000
,  // measure 77
0100
1000
0100
0000
0010
0000
0010
0000
,  // measure 78
0001
0100
0001
0000
0010
0000
0010
0000
,  // measure 79
0100
0010
0100
0000
1000
0000
1001
0000
,  // measure 80
0001
1100
1000
0101
,  // measure 81
0000
0001
0010
0000
0001
0000
0100
0000
,  // measure 82
0000
0010
1000
0000
0100
0000
1000
0000
,  // measure 83
0000
0100
1000
0000
0100
0000
0010
0000
,  // measure 84
0000
0001
0010
0001
0010
0000
0000
0000
;
