#TITLE:Stupid Boy;
#SUBTITLE:;
#ARTIST:T Mills;
#TITLETRANSLIT:;
#SUBTITLETRANSLIT:;
#ARTISTTRANSLIT:;
#GENRE:;
#CREDIT:;
#BANNER:;
#BACKGROUND:;
#LYRICSPATH:;
#CDTITLE:;
#MUSIC:Stupid Boy.mp3;
#OFFSET:-0.058000;
#SAMPLESTART:44.366001;
#SAMPLELENGTH:14.769000;
#SELECTABLE:YES;
#BPMS:0.000000=130.000000
;
#STOPS:
;
#BGCHANGES:;
#KEYSOUNDS:;
#ATTACKS:;

//---------------dance-single - Blank----------------
#NOTES:
     dance-single:
     Shortysnmn2010:
     Hard:
     7:
     0.439565,0.431153,0.237419,0.208929,0.018994,324.000000,299.000000,25.000000,22.000000,0.000000,0.000000,0.439565,0.431153,0.237419,0.208929,0.018994,324.000000,299.000000,25.000000,22.000000,0.000000,0.000000:
// measure 0
0000
0000
0000
0000
,  // measure 1
0000
0000
0000
0000
,  // measure 2
0000
0000
0000
0000
,  // measure 3
0000
0000
0000
0000
,  // measure 4
1000
2100
3001
0102
,  // measure 5
1003
0000
0110
0000
0100
0001
0010
1000
,  // measure 6
0020
0001
0032
1000
1003
0000
0000
0001
,  // measure 7
0010
0000
0100
0010
0100
0000
1100
0000
,  // measure 8
2001
0010
0002
3003
,  // measure 9
1000
0001
0100
0010
1000
0001
0100
0001
,  // measure 10
1000
2010
0001
3100
,  // measure 11
1200
0000
0310
0001
1000
0001
0000
0100
,  // measure 12
0010
0000
2000
0000
0001
3000
2000
0000
0100
3000
2000
0000
0001
3000
0100
0000
,  // measure 13
0010
0000
0100
0001
0010
1000
0000
0010
,  // measure 14
0002
0100
0203
0010
0310
0000
0000
0110
,  // measure 15
0000
0000
0001
1000
0100
0000
0110
0000
,  // measure 16
0011
0000
0001
1000
0001
0000
0001
0010
,  // measure 17
0001
0100
1000
0100
0001
0000
0101
0000
,  // measure 18
1000
0100
1000
0010
1000
0000
1001
0000
,  // measure 19
1000
0100
0010
0001
0100
0000
0110
0000
,  // measure 20
0010
1000
0010
0001
0010
0100
0010
1000
,  // measure 21
0100
0001
0100
1000
0100
0010
0000
0000
,  // measure 22
0001
0100
0010
1000
0001
0010
1000
0010
,  // measure 23
0100
0000
1000
0000
0010
0000
0100
0000
0001
0000
0000
0001
0000
0000
0000
0000
,  // measure 24
1000
0000
0100
0000
0100
0000
1000
0010
,  // measure 25
1000
0000
0010
0000
0100
0001
1000
0010
,  // measure 26
0100
0000
0001
0000
0001
0000
1000
0100
,  // measure 27
1000
0000
0010
0000
0100
0001
0010
0001
,  // measure 28
0100
0000
0010
0000
0010
0000
1000
0001
,  // measure 29
1000
0000
0100
0000
0010
1000
0010
0001
,  // measure 30
2000
0000
3010
0100
0001
0000
0000
1000
,  // measure 31
0100
0000
0010
0001
0100
0000
0001
0000
,  // measure 32
1001
1000
0100
0010
0001
1000
0010
0100
,  // measure 33
0001
1000
0100
0010
0100
0000
1000
0000
,  // measure 34
0010
0100
0001
1000
0010
1000
0001
0010
,  // measure 35
0100
0001
0100
1000
0001
0100
0001
0000
,  // measure 36
0100
0010
1000
0001
0100
1000
0100
0000
,  // measure 37
0100
0000
0001
0000
0010
0000
0100
0000
1000
0000
0000
1000
0000
0000
0010
0000
,  // measure 38
1000
0000
0100
0000
0010
0000
0001
0000
0100
0000
0001
0000
1000
0000
0000
0100
,  // measure 39
1000
0000
0100
0000
0010
0000
0001
0000
1000
0000
0000
0001
0000
0000
0000
0000
,  // measure 40
1000
1000
0010
0010
,  // measure 41
0001
0001
0010
0010
,  // measure 42
1000
0000
1000
0000
0100
0001
0100
0000
,  // measure 43
0001
0000
0001
0000
0100
1000
0000
1000
,  // measure 44
0100
0000
0020
0000
0001
0030
0020
0000
0100
0030
0020
0000
0001
0030
1000
0000
,  // measure 45
0100
0000
1100
0000
1000
0001
0000
0100
,  // measure 46
0002
1000
2003
0010
3010
0000
0000
1001
,  // measure 47
0000
0000
1000
0010
0100
0000
0001
0000
,  // measure 48
1000
1100
1100
0001
,  // measure 49
0100
0000
0100
0000
0010
1000
0100
0020
,  // measure 50
0000
0030
0001
0000
0101
0000
0101
0000
,  // measure 51
0010
0000
1000
0000
0001
0100
1000
0100
,  // measure 52
0000
1001
1001
0010
,  // measure 53
1001
0000
0100
0000
0010
1000
0100
0010
,  // measure 54
0100
0000
1000
0100
0010
0000
0001
0100
,  // measure 55
0001
0000
1000
0010
1000
0000
0101
0000
,  // measure 56
2002
0000
0000
3003
;

//---------------dance-single - ----------------
#NOTES:
     dance-single:
     :
     Beginner:
     1:
     0.089541,0.132955,0.000000,0.000000,0.000000,66.000000,66.000000,0.000000,0.000000,0.000000,0.000000,0.089541,0.132955,0.000000,0.000000,0.000000,66.000000,66.000000,0.000000,0.000000,0.000000,0.000000:
0000
0000
0000
0000
,
0000
0000
0000
0000
,
0000
0000
0000
0000
,
0000
0000
0000
0000
,
1000
0000
0000
0000
,
0100
0000
0000
0000
,
0010
0010
0010
0000
,
0001
0000
0000
0000
,
1000
0000
0000
0000
,
0010
0000
0000
0000
,
0100
0000
0000
0000
,
0001
0001
0001
0000
,
1000
0000
0000
0000
,
0100
0000
0000
0000
,
0100
0000
0000
0000
,
1000
0000
0000
0000
,
0010
0000
0000
0000
,
0100
0000
0000
0000
,
0001
0000
0000
0000
,
1000
0000
0001
0000
,
1000
0000
0000
0000
,
0100
0000
0000
0000
,
0010
0000
0000
0000
,
0001
0000
0000
0000
,
1000
0000
0000
0000
,
0010
0000
0000
0000
,
0100
0000
0000
0000
,
0001
0000
0000
0000
,
0010
0000
0000
0000
,
0001
0000
0000
0000
,
0100
0100
0100
0000
,
0010
0000
0000
0000
,
1000
0000
0000
0000
,
0100
0000
0000
0000
,
0010
0000
0000
0000
,
0001
0000
1000
0000
,
0001
0000
0000
0000
,
0100
0000
0000
0000
,
0010
0000
0000
0000
,
1000
0000
1000
0000
,
1000
0000
0000
0000
,
0001
0000
0000
0000
,
1000
0000
0000
0000
,
0010
0000
0000
0000
,
1000
1000
1000
0000
,
0001
0000
0000
0000
,
0100
0000
0000
0000
,
0010
0000
0000
0000
,
1000
0000
0000
0000
,
0100
0000
0000
0000
,
0010
0000
0000
0000
,
0001
0000
0001
0000
,
0001
0000
0000
0000
,
0100
0000
0000
0000
,
0010
0000
0000
0000
,
1000
0000
0001
0000
,
1000
0000
0000
0000
;

//---------------dance-single - ----------------
#NOTES:
     dance-single:
     :
     Medium:
     5:
     0.287616,0.345682,0.094968,0.104464,0.000000,212.000000,202.000000,10.000000,11.000000,0.000000,0.000000,0.287616,0.345682,0.094968,0.104464,0.000000,212.000000,202.000000,10.000000,11.000000,0.000000,0.000000:
0000
0000
0000
0000
,
0000
0000
0000
0000
,
0000
0000
0000
0000
,
0000
0000
0000
0000
,
1000
0100
0100
1000
,
0001
0000
0010
0000
0001
0000
0100
0002
,
0000
0000
1000
0000
1003
0000
0000
1000
,
0001
0010
0100
0100
,
1000
0010
0010
0000
,
0100
0001
0100
0000
0001
0000
0010
0000
,
0100
1000
1000
0001
,
0100
0000
1000
0000
0100
0001
0000
0100
,
0001
0010
0010
0001
,
1000
0000
0100
0000
0010
0001
0000
0001
,
1000
0000
0100
0000
0100
0000
0000
2000
,
0000
0010
3001
0101
,
1001
0000
1000
0001
1000
0000
0001
0000
,
0010
0100
0100
1000
,
0010
0100
0010
0000
0100
0000
0001
0000
,
0010
0000
0100
0010
0100
0000
1000
0000
,
0001
0001
0100
0100
,
1000
0000
0100
0000
0001
0100
0000
0000
,
0010
1000
0100
0010
,
0001
1000
1100
0000
,
0000
1000
0000
0001
,
0000
0010
0000
0100
,
1000
0000
0010
0000
0000
0000
0100
0001
,
0001
0010
0000
0100
,
1000
0000
0100
0000
0000
0000
1000
0001
,
0001
1000
0000
0001
,
0010
0000
0010
0000
1100
0000
0000
1000
,
0001
0000
0100
0100
,
0001
0000
0100
0001
0100
0000
0001
0000
,
0100
0100
0001
0101
,
0100
0000
0001
0100
0001
0000
0100
0000
,
0001
0100
0101
0101
,
1000
0000
0010
1000
0010
0000
1000
0000
,
1000
0000
0010
1000
0010
0000
1000
0000
,
0010
0000
1000
0010
1000
0000
0010
0000
,
1000
0010
1010
1010
,
2000
3000
0200
0300
,
0002
0003
0020
0030
,
2000
3000
0020
0030
,
0002
0003
0200
0300
,
1000
1000
0010
0100
,
0001
0000
0001
0000
1000
0100
0000
0100
,
0000
0000
1000
0000
1000
0000
0000
0001
,
0000
0001
0010
0000
0001
0000
0100
0000
,
0001
1000
1000
0010
,
0010
0000
0100
0000
0001
0000
0010
0002
,
0000
0100
0100
1000
,
0100
0100
0100
0003
,
1000
0100
0010
0001
,
0100
0000
0010
0000
0100
0000
0001
1000
,
0001
0000
1000
0000
0100
0000
0000
1000
,
0100
0010
0001
0100
,
1001
0000
0000
0000
;

//---------------dance-single - ----------------
#NOTES:
     dance-single:
     :
     Easy:
     3:
     0.143808,0.212728,0.028490,0.009497,0.000000,106.000000,103.000000,3.000000,1.000000,0.000000,0.000000,0.143808,0.212728,0.028490,0.009497,0.000000,106.000000,103.000000,3.000000,1.000000,0.000000,0.000000:
0000
0000
0000
0000
,
0000
0000
0000
0000
,
0000
0000
0000
0000
,
0000
0000
0000
0000
,
1000
0000
0001
0000
,
0010
0000
0001
0000
,
1000
0000
0000
0000
,
0001
0000
0000
0000
,
0100
0100
0100
0000
,
0001
0000
1000
0000
,
0001
0000
0010
0000
,
1000
0000
0000
0000
,
0010
1000
1000
0010
,
0010
0000
1000
0000
,
0001
0000
0001
0000
,
1000
0000
0000
0000
,
0100
0000
0010
0000
,
0100
1000
0100
0000
,
1000
0000
0100
0000
,
0100
0000
0000
0000
,
0010
0000
0001
0000
,
0001
0100
1000
0000
,
0001
0000
0010
0000
,
0010
0000
0000
0000
,
0001
0000
0000
1000
,
1000
0000
0010
0000
,
1000
0000
0000
0001
,
0001
0000
0010
0000
,
0001
0000
0000
0100
,
0100
0000
0010
0000
,
0100
0000
0000
0000
,
0010
0000
0000
0000
,
1000
1000
1000
0000
,
0001
0000
0010
0000
,
0001
0001
0001
0000
,
1000
0000
0100
0000
,
1000
0000
0001
0000
,
0100
0000
0000
0000
,
0010
0000
0000
0000
,
0100
0000
1001
0000
,
1001
0000
0000
0000
,
1000
0000
0000
0000
,
0100
0000
0010
0000
,
0001
0100
0001
0000
,
1000
1000
1000
0000
,
0010
0000
0100
0000
,
0010
0000
0000
0000
,
1000
0000
0000
0000
,
0001
0000
0001
0000
,
0010
0000
0020
0000
,
0030
0000
0100
0000
,
1000
0100
1000
0000
,
0001
0000
0010
0000
,
0001
1000
0001
0000
,
1000
0100
1000
0000
,
0001
0000
0100
0100
,
0110
0000
0000
0000
;

//---------------dance-single - ----------------
#NOTES:
     dance-single:
     :
     Challenge:
     8:
     0.465342,0.452046,0.151948,0.218426,0.018994,343.000000,327.000000,16.000000,23.000000,0.000000,0.000000,0.465342,0.452046,0.151948,0.218426,0.018994,343.000000,327.000000,16.000000,23.000000,0.000000,0.000000:
// measure 0
0000
0000
0000
0000
,  // measure 1
0000
0000
0000
0000
,  // measure 2
0000
0000
0000
0000
,  // measure 3
0000
0000
0000
0000
,  // measure 4
0001
0000
1000
0000
0000
0000
0001
0010
,  // measure 5
0010
0000
0100
0000
0000
0000
1000
0100
,  // measure 6
0100
0000
0010
0001
0100
0000
0000
1000
,  // measure 7
0100
0000
0001
0100
0001
0000
1001
0000
,  // measure 8
1000
0100
0010
0001
0010
0100
1000
0010
,  // measure 9
1000
0100
0010
0100
0000
1100
0000
1000
,  // measure 10
0001
0100
0001
1000
0010
0100
0010
1000
,  // measure 11
0100
0000
0010
0001
0100
0001
0000
1000
,  // measure 12
0100
0000
0020
0000
0001
0030
0020
0000
0100
0030
0020
0000
0001
0030
1000
0000
,  // measure 13
0100
0000
1000
0010
0100
0001
0000
2000
,  // measure 14
0100
3000
0100
0010
0100
0000
0010
0002
,  // measure 15
0000
0003
0100
0010
1000
0000
0101
0000
,  // measure 16
1000
0010
0100
0001
0100
1000
0100
0010
,  // measure 17
1000
0001
0010
0100
1000
0000
1100
0000
,  // measure 18
1000
0010
0100
0001
0010
0001
1000
0100
,  // measure 19
0010
0001
0010
1000
0010
0000
0110
0000
,  // measure 20
1000
0100
0001
0100
0010
0100
1000
0010
,  // measure 21
0001
1000
0100
0010
1000
0001
0000
0000
,  // measure 22
0001
1000
0100
0010
0001
1000
0001
0100
,  // measure 23
0010
0000
1000
0000
0010
0000
0100
0000
0001
0000
0000
1001
0000
0000
0000
0000
,  // measure 24
2100
0001
0001
3020
,  // measure 25
0001
0000
0100
0000
0130
0001
1000
0100
,  // measure 26
0020
0001
0100
2030
,  // measure 27
0001
0000
0010
0000
3010
0001
1000
0100
,  // measure 28
0020
1000
0100
0032
,  // measure 29
0100
0000
1000
0000
0103
0010
1000
0010
,  // measure 30
0100
0000
0010
0100
0010
0000
0000
0100
,  // measure 31
0001
0000
0010
0001
0100
0000
1001
0000
,  // measure 32
0001
0100
0001
0100
0001
0010
0100
1000
,  // measure 33
0010
1000
0010
2000
0100
0000
3001
0010
,  // measure 34
0100
1000
0100
1000
0010
0100
0001
0010
,  // measure 35
0001
0100
0001
0100
0010
2000
0001
0000
,  // measure 36
3100
0010
0100
0010
0001
0200
0010
0000
,  // measure 37
0301
0000
1000
0000
0001
0000
0100
0000
0010
0000
0000
1000
0000
0000
0001
0000
,  // measure 38
0010
0000
0100
0000
1000
0000
0100
0000
0010
0000
0001
0000
1000
0000
0000
0100
,  // measure 39
1000
0000
0100
0000
0010
0000
0001
0000
1000
0000
0000
1100
0000
0000
0000
0000
,  // measure 40
1000
0200
1000
0300
0001
0200
0001
0300
,  // measure 41
0010
0001
1000
0010
0100
0001
1000
0100
,  // measure 42
0010
0000
0012
0000
0100
0103
0010
1000
,  // measure 43
0001
0000
0011
0000
0001
0100
0000
0001
,  // measure 44
1000
0000
0200
0000
0010
0300
0200
0000
1000
0300
0200
0000
0010
0300
0001
0000
,  // measure 45
1000
0000
0010
0100
0001
1000
0000
0100
,  // measure 46
2000
0000
0010
0010
3010
0100
0001
1000
,  // measure 47
0000
0000
0001
0010
0001
0000
1100
0000
,  // measure 48
0010
0001
0010
0001
0100
0010
0100
0010
,  // measure 49
1000
0100
1000
0100
0010
0001
0100
0020
,  // measure 50
0000
1000
0001
0130
,  // measure 51
0110
0000
1001
0000
0010
0001
1000
0100
,  // measure 52
1000
0010
1000
0010
0100
0001
0100
0001
,  // measure 53
0010
0100
0010
0100
1000
0010
0100
0002
,  // measure 54
1000
0000
0010
0010
0013
0000
0100
1000
,  // measure 55
0001
0000
0010
0100
1000
0000
1001
0000
,  // measure 56
0101
0000
0000
0000
;
