#TITLE:Self Destruct;
#SUBTITLE:;
#ARTIST:Pegboard Nerds;
#TITLETRANSLIT:;
#SUBTITLETRANSLIT:;
#ARTISTTRANSLIT:;
#GENRE:;
#CREDIT:;
#MUSIC:Self Destruct.mp3;
#BANNER:;
#BACKGROUND:;
#CDTITLE:;
#SAMPLESTART:82.362;
#SAMPLELENGTH:13.674;
#SELECTABLE:YES;
#OFFSET:-0.080;
#BPMS:0.000=140.000
,126.000=141.000
,127.000=140.001
;
#STOPS:;
#DISPLAYBPM:140.000;
#BGCHANGES:;
#FGCHANGES:;

//--------------- dance-single - Blank ----------------
#NOTES:
     dance-single:
     Shortysnmn2010:
     Beginner:
     1:
     0.097112,0.143268,0.047427,0.079045,0,86,80,6,10,8,0,0.097112,0.143268,0.047427,0.079045,0,86,80,6,10,8,0:
0000
0000
0000
0000
,
0000
0000
0000
0000
,
0000
0000
0000
0000
,
0000
0000
0000
0000
,
0001
0001
0000
0000
,
0000
0000
0000
0000
,
1000
1000
0000
0000
,
0000
0000
0000
0000
,
0010
0010
0000
0000
,
0000
0000
0000
0000
,
0100
0100
0000
0000
,
0000
0000
0000
0000
,
0001
0000
0000
0000
,
1000
0000
0000
0000
,
0001
0000
0000
0000
,
1000
0000
0000
0000
,
0100
0100
0000
0000
,
1000
0000
0000
0000
,
0010
0010
0000
0000
,
0100
0000
0000
0000
,
0001
0001
0000
0000
,
1000
0000
0000
0000
,
0100
0000
0000
0000
,
0010
0010
0000
0000
,
0001
0000
0000
0000
,
1000
0000
0000
0000
,
0010
0000
0000
0000
,
0100
0000
0000
0000
,
0001
0000
0000
0000
,
0010
0000
0000
0000
,
0100
0000
0000
0000
,
0110
0000
0000
0000
,
1000
0000
0000
0000
,
0001
0000
0000
0000
,
1000
0000
0000
0000
,
0010
0000
0000
0000
,
0100
0000
0000
0000
,
0001
0000
0000
0000
,
1000
0000
0000
0000
,
0100
0000
0000
0000
,
0010
0000
0000
0000
,
0100
0000
0000
0000
,
1000
0000
0000
0000
,
0001
0000
0001
0000
,
0001
0000
0000
0000
,
0100
0000
0000
0000
,
0010
0000
0000
0000
,
1000
0000
0000
0000
,
1000
1000
0000
0000
,
0001
0001
0000
0000
,
1000
1000
0000
0000
,
0001
0001
0000
0000
,
0010
0010
0000
0000
,
0100
0100
0000
0000
,
0010
0010
0000
0000
,
0100
0100
0000
0000
,
1000
0000
0000
0000
,
0001
0000
0001
0000
,
0001
0000
0000
0000
,
1000
0000
1000
0000
,
1000
0000
0000
0000
,
0010
0000
0000
0000
,
0100
0000
0000
0000
,
0010
0000
0000
0000
,
0220
0000
0330
0000
,
0000
0MM0
0000
0000
,
2002
0000
3003
0000
,
0000
M00M
0000
0000
,
0220
0000
0330
0000
,
0000
0MM0
0000
0000
,
2002
0000
3003
0000
,
0000
M00M
0000
0000
,
0220
0000
0330
0000
;

//--------------- dance-single - ----------------
#NOTES:
     dance-single:
     :
     Easy:
     3:
     0.189707,0.256104,0.023713,0.086949,0,168,165,3,11,4,0,0.189707,0.256104,0.023713,0.086949,0,168,165,3,11,4,0:
0000
0000
0000
0000
,
0000
0000
0000
0000
,
0000
0000
0000
0000
,
0000
0000
0000
0000
,
1000
0001
0100
0000
,
0000
0010
0000
0000
,
1000
0001
0100
0000
,
0000
0010
0000
0000
,
1000
0100
0010
0000
,
0000
0001
0000
0000
,
0100
0010
1000
0000
,
0000
0010
0000
0000
,
0100
0001
0100
0000
,
0000
0001
0000
0000
,
0010
0001
0100
0000
,
0000
0010
0000
0000
,
1000
0000
0100
0000
0010
0000
0000
0010
,
0000
0001
0000
0000
,
0001
0000
0100
0000
0010
0000
0000
0010
,
0000
1000
0000
0000
,
0100
0000
0001
0000
1000
0000
0000
0100
,
0000
1000
0000
0000
,
0001
0000
0010
0000
1000
0000
0000
0020
,
0000
0030
0000
0000
1001
0000
0000
0000
,
1000
0000
0010
0000
1000
0000
0000
1000
,
0000
0001
0000
0000
,
0010
0000
0001
0000
0010
0000
0000
0001
,
0000
0200
0000
0300
,
0010
0000
1000
0000
0100
0000
0000
1000
,
0000
0100
0000
0000
,
1000
0001
1000
0001
,
1000
0000
0MM0
0MM0
,
0001
0000
0020
0030
,
0001
0000
2000
3000
,
0100
0000
2000
3000
,
0010
0100
0010
0000
,
0100
0000
0002
0003
,
0100
0000
0020
0030
,
0100
0000
0002
0003
,
1000
0100
0010
0001
,
1000
0000
0001
1000
,
0001
0000
1000
0000
,
0010
0000
0100
0010
,
0100
0000
0010
0000
,
1000
0001
1000
1000
,
0001
1000
0001
0001
,
1000
0000
0001
0000
,
2002
0000
3003
0000
,
1000
0000
0100
0000
0010
0000
0000
0010
,
0000
0001
0001
0000
,
1000
0000
0010
0000
0100
0000
0000
0001
,
0000
0100
0100
0000
,
0010
0000
1000
0000
0010
0000
0000
1000
,
0000
0100
0100
0000
,
0010
0000
0001
0000
0010
0000
0000
0002
,
0000
0003
0000
0000
1100
0000
0000
0000
,
0010
0000
0001
0000
0100
0000
0000
0100
,
0000
0001
0001
0000
,
0010
0000
0100
0000
1000
0000
0000
1000
,
0000
0010
0010
0000
,
1000
0000
0100
0000
0010
0000
0000
0100
,
0000
1000
1000
0000
,
0001
0010
0001
0010
,
0001
0000
0000
0000
,
1000
0000
0001
0000
,
1000
0000
0000
0000
,
0100
0000
0010
0000
,
0100
0000
0000
0000
,
1000
0000
0100
0000
,
1000
0000
0000
0000
,
0001
0000
0010
0000
,
0001
0000
1000
0001
,
1000
0000
0000
0000
;

//--------------- dance-single - ----------------
#NOTES:
     dance-single:
     :
     Medium:
     6:
     0.337633,0.42684,0.268751,0.150185,0.051379,299,265,34,19,6,0,0.337633,0.42684,0.268751,0.150185,0.051379,299,265,34,19,6,0:
0000
0000
0000
0000
,
0000
0000
0000
0000
,
0000
0000
0000
0000
,
0000
0000
0000
0000
,
1000
0000
0100
0000
1000
0000
0000
0100
,
0000
0010
0010
0000
,
0001
0000
0100
0000
0001
0000
0000
0100
,
0000
0010
0010
0000
,
1000
0000
0001
0100
0001
0000
0000
0100
,
0000
0000
0010
0100
0010
0000
0000
0000
,
1000
0000
0001
0010
0001
0000
0000
1000
,
0000
0000
0001
0100
0001
0000
0000
0000
,
1000
0000
0000
0000
0100
0000
0000
0000
0010
0000
0000
0010
0000
0000
0020
0000
,
0000
0000
0000
0000
0030
0000
0000
0000
0001
0000
0000
0001
0000
0000
0001
0000
,
1000
0000
0000
0000
0100
0000
0000
0000
0010
0000
0000
0001
0000
0000
0010
0000
,
0000
0000
1001
0000
,
1000
0000
0000
0000
0001
0000
0000
0000
0100
0000
0000
1000
0000
0000
0200
0000
,
0000
0000
0000
0000
0301
0000
0000
0001
0000
0000
0000
0000
1000
0000
0001
0000
,
1000
0000
0000
0000
0100
0000
0000
0000
0001
0000
0000
0100
0000
0000
2000
0000
,
0000
0000
0000
0000
3010
0000
0000
0010
0000
0000
0000
0000
0000
0000
0000
0000
,
0100
0000
0000
0000
0001
0000
0000
0000
0010
0000
0000
0010
0000
0000
0200
0000
,
0000
0000
0000
0000
1300
0000
0000
1000
0000
0000
0000
0000
0001
0000
0010
0000
,
0001
0000
0000
0000
1000
0000
0000
0000
0100
0000
0000
0001
0000
0000
0200
0000
,
0000
0300
2002
3003
,
0010
0000
0000
0000
0001
0000
0000
0000
1000
0000
0000
0100
0000
0000
2000
0000
,
0000
0000
0000
0000
3001
0000
0000
0010
0000
0000
0000
0000
0001
0000
0100
0000
,
0010
0000
0000
0000
0100
0000
0000
0000
0001
0000
0000
0010
0000
0000
0001
0000
,
0000
0000
2000
0200
0000
0000
3300
0000
,
0010
0001
0100
1000
,
0100
0001
0010
1000
,
0010
0001
0100
0010
,
1001
0000
0000
0000
MM00
0MM0
00MM
0000
,
1000
0000
0100
0000
1000
0001
1000
0000
,
0001
0000
0100
0000
0001
1000
0001
0000
,
1000
0000
0010
0000
1000
0001
1000
0000
,
0001
0000
0010
0000
0001
1000
0001
0000
,
1000
0000
0100
0000
0010
0100
0010
0000
,
0001
0000
0100
0000
0010
0100
0010
0000
,
1000
0000
0100
0000
1000
0100
1000
0000
,
0002
2000
0000
3003
,
0001
0000
0100
0000
0001
0010
0001
0000
,
0100
0000
0010
0000
0100
0001
0100
0000
,
0010
0000
1000
0000
0100
1000
0010
0000
,
1000
0000
0001
0000
0010
0001
0100
0000
,
0001
1100
1100
0010
,
0001
0110
0110
1000
,
0001
1100
0101
0010
,
2002
0000
3003
0000
,
1000
1100
1000
1100
,
0010
0000
0001
0100
0001
0000
0010
0000
,
0100
0110
0100
0110
,
0010
0000
0001
0100
0010
0000
1000
0000
,
0001
0101
0001
0101
,
0010
0000
1000
0000
0100
0010
0001
0000
,
1000
1010
1000
1010
,
0200
0300
2002
3003
,
0010
0001
0100
0010
,
1000
0101
1100
0101
,
0010
1000
0100
0010
,
0001
0101
0011
0101
,
0010
1000
0100
0010
,
0100
1100
1010
1100
,
0010
0001
0100
0000
0010
1000
0100
0000
,
0220
0000
0330
0000
,
0001
0000
0010
0001
0100
0000
0000
1001
,
0000
0000
0010
0000
,
1000
0000
0100
0010
0001
0000
0000
1100
,
0000
0000
0000
0010
0001
0000
0100
0000
,
0010
0000
0100
0001
0010
0000
0000
0011
,
0000
0000
0001
0000
,
0100
0000
0010
1000
0100
0000
0000
1100
,
0000
0000
0000
0010
0001
0000
0100
0000
,
0101
0000
0000
0000
;

//--------------- dance-single - Blank ----------------
#NOTES:
     dance-single:
     Shortysnmn2010:
     Hard:
     8:
     0.433616,0.487112,0.229229,0.173898,0.276656,384,355,29,22,24,0,0.433616,0.487112,0.229229,0.173898,0.276656,384,355,29,22,24,0:
0000
0000
0000
0000
,
0000
0000
0000
0000
,
0000
0000
0000
0000
,
0000
0000
0000
0000
,
1100
0000
0000
0000
1001
0000
0000
0000
0010
0000
0000
0010
0000
0000
0100
0000
,
0000
0000
0000
0000
1000
0000
0010
0000
0100
0000
0000
0001
0000
0000
1000
0000
,
0001
0000
0000
0000
0011
0000
0000
0000
0100
0000
0000
0100
0000
0000
1000
0000
,
0000
0000
0000
0000
0010
0000
0100
0000
0001
0000
0000
0010
0000
0000
0001
0000
,
0100
0000
0000
0000
0010
0000
1000
0000
0001
0000
0000
0010
0000
0000
0001
0000
,
0000
0000
0000
0000
1000
0000
0100
0000
0010
0000
0000
0010
0000
0000
0001
0000
,
0100
0000
0000
0000
0001
0000
1000
0000
0100
0000
0000
0010
0000
0000
0100
0000
,
0000
0000
0000
0000
1000
0000
0010
0000
1000
0000
0000
0001
0000
0000
0100
0000
,
0001
0000
0000
0000
1000
0000
0100
0000
0010
0000
0000
0001
0000
0000
0002
0000
,
0000
0000
0003
0000
1000
0000
0010
0000
1000
0000
0000
0100
0000
0000
0010
0000
,
0001
0000
0000
0000
1001
0000
0000
0000
1000
0000
0000
0010
0000
0000
0200
0000
,
0000
0300
0002
2000
0000
0000
3003
0000
,
1000
0000
0000
0000
1100
0000
0000
0000
1000
0001
0000
0100
0000
0000
0002
0000
,
0000
0000
0003
0000
1000
0000
0100
1000
0000
0000
0000
0000
0010
0000
0100
0000
,
0001
0000
0000
0000
1001
0000
0000
0000
1000
0100
0000
1000
0000
0000
0020
0000
,
0000
0000
0030
0000
0100
0000
0020
2000
0000
0000
0000
0000
3030
0000
0000
0000
,
0001
0000
0000
0000
0011
0000
0000
0000
0100
1000
0000
0100
0000
0000
0020
0000
,
0000
0000
0030
0000
0001
0000
0100
0001
0000
0000
0000
0000
1000
0000
0100
0000
,
0010
0000
0000
0000
0110
0000
0000
0000
0001
0010
0000
0001
0000
0000
0200
0000
,
0000
0000
0010
0300
,
0001
0000
0000
0000
1010
0000
0000
0000
1000
0100
0000
0010
0000
0000
0002
0000
,
0000
0000
0003
0000
1000
0000
0010
0100
0000
0000
0000
0000
0001
0000
0010
0000
,
0001
0000
0000
0000
1100
0000
0000
0000
1000
0010
0000
0001
0000
0000
0020
0000
,
0000
0000
0030
0000
0100
0000
0004
0400
0000
0000
0000
0000
0000
0000
0303
0000
,
0101
0000
0000
0000
0010
0000
0000
0000
1000
0001
0000
0100
0000
0000
0010
0000
,
0100
0001
0100
0001
0010
0100
0010
0100
,
1000
0000
0001
0000
1000
0000
0001
0000
0400
0040
0000
0000
0000
0000
0000
0000
,
0330
0000
MMMM
MMMM
,
2000
0000
0100
0000
3100
0000
0000
0000
1000
0000
0004
0400
0000
0000
0303
0000
,
0010
0000
1000
0000
0100
0000
0000
0000
0010
0000
0400
4000
0000
0000
3300
0000
,
0001
0100
0001
0000
0020
0000
0130
0000
,
1000
0001
1000
0000
0010
0000
0110
0000
,
0100
0000
0001
0000
1000
0000
0000
0000
0001
0000
0040
0400
0000
0000
0330
0000
,
1000
0000
0001
0000
1000
0000
0000
0000
0001
0000
0400
0004
0000
0000
0303
0000
,
1000
0010
0100
0000
0002
0000
0013
0000
,
0001
0000
4000
0400
0000
0000
0000
0000
0000
0000
0000
0000
3300
0000
0000
0000
,
2000
0000
0010
0000
3010
0000
0000
0000
0100
0000
0004
4000
0000
0000
3003
0000
,
0010
0000
1000
0000
0001
0000
0000
0000
0010
0000
0400
4000
0000
0000
3300
0000
,
0010
0001
0100
0000
0001
0000
1010
0000
,
0100
0001
0010
0000
0100
0000
1001
0000
,
0001
0000
0100
0000
0001
0000
0000
0000
1000
0000
0100
1000
0000
1000
0100
0000
,
0010
0000
0000
0000
0001
0000
0000
0000
0100
0000
0010
1000
0000
1000
0001
0000
,
1000
0100
0010
0100
1000
0001
0100
0010
,
0400
0040
0000
0000
0000
0000
0000
0000
0000
0000
0330
0000
0000
0000
0000
0000
,
0101
0000
0000
0000
0110
0000
0000
0000
1010
0000
0000
1000
0100
0000
1000
0000
,
0100
0000
0000
0000
0010
0000
0001
0010
0001
0000
0000
0000
1000
0000
0100
0000
,
0010
0000
0000
0000
0011
0000
0000
0000
1100
0000
0000
0100
0010
0000
0100
0000
,
1000
0000
0000
0000
0001
0000
0100
0001
0100
0000
0000
0000
0001
0000
0010
0000
,
0001
0000
0000
0000
0101
0000
0000
0000
1010
0000
0000
1000
0001
0000
0100
0000
,
0001
0000
0000
0000
0010
0000
0100
0010
0100
0000
0000
0000
1000
0000
0100
0000
,
0010
0000
0000
0000
0011
0000
0000
0000
0101
0000
0000
0010
1000
0000
0010
0000
,
0200
0000
0010
0300
,
0001
0000
0000
0000
1000
0000
0000
0000
0100
0010
0000
0001
0000
0000
0200
0000
,
0000
0000
0300
0000
0010
0000
0100
0010
0100
0000
0000
0000
0001
0000
0010
0000
,
0001
0000
0000
0000
1000
0000
0000
0000
0001
0100
0000
0010
0000
0000
2000
0000
,
0000
0000
3000
0000
0001
0000
0010
0100
2000
0000
0000
0000
3000
0000
0000
0000
,
0001
0000
0000
0000
0101
0000
0000
0000
0001
0010
0000
0001
0000
0000
0200
0000
,
0000
0000
0300
0000
0010
0000
1000
0010
1000
0000
0000
0000
0100
0000
0010
0000
,
0100
1000
0100
1000
0001
0100
0001
0100
,
0040
0400
0000
0000
0000
0000
0000
0000
0330
0000
0000
0000
0000
0000
0000
0000
,
0101
0000
0000
0000
0010
0000
1000
0000
0100
0000
0000
0100
0000
0000
0100
0000
,
0000
0000
0000
MMMM
0000
0000
0000
0000
1001
0000
0000
0000
0000
0000
0000
0000
,
1010
0000
0000
0000
0100
0000
0001
0000
0010
0000
0000
0010
0000
0000
0010
0000
,
0000
0000
0000
MMMM
0000
0000
0100
0000
1000
0000
0001
0100
0000
0000
0001
0000
,
0100
0000
0000
0000
0001
0000
0010
0000
0100
0000
0000
1000
0000
0000
1000
0000
,
0000
0000
0000
MMMM
0000
0000
0000
0000
0110
0000
0000
0000
0000
0000
0000
0000
,
0101
0000
0000
0000
1000
0000
0100
0000
0010
0000
0000
0001
0000
0000
0001
0000
,
0000
0000
0000
MMMM
0000
0000
1000
0000
0100
0000
1000
0010
0000
0000
0100
0000
,
0002
0000
0003
0000
;
