#TITLE:New Game;
#SUBTITLE:;
#ARTIST:Nitro Fun;
#TITLETRANSLIT:;
#SUBTITLETRANSLIT:;
#ARTISTTRANSLIT:;
#GENRE:;
#CREDIT:;
#BANNER:;
#BACKGROUND:;
#LYRICSPATH:;
#CDTITLE:;
#MUSIC:New Game.mp3;
#OFFSET:-0.123000;
#SAMPLESTART:83.092003;
#SAMPLELENGTH:15.000000;
#SELECTABLE:YES;
#BPMS:0.000000=128.000000
;
#STOPS:
;
#BGCHANGES:;
#KEYSOUNDS:;
#ATTACKS:;

//---------------dance-single - Blank----------------
#NOTES:
     dance-single:
     Shortysnmn2010:
     Beginner:
     1:
     0.095771,0.155352,0.025784,0.042974,0.000000,78.000000,75.000000,3.000000,5.000000,0.000000,0.000000,0.095771,0.155352,0.025784,0.042974,0.000000,78.000000,75.000000,3.000000,5.000000,0.000000,0.000000:
// measure 0
0000
0000
0000
0000
,  // measure 1
0000
0000
0000
0000
,  // measure 2
0000
0000
0000
0000
,  // measure 3
0000
0000
0000
0000
,  // measure 4
0000
0001
0000
0000
,  // measure 5
0000
0100
0000
0000
,  // measure 6
0000
0001
0000
0000
,  // measure 7
0000
1000
0000
0000
,  // measure 8
0000
0100
0000
0100
,  // measure 9
0000
0100
0000
0000
,  // measure 10
0000
1000
0000
0000
,  // measure 11
0000
0001
0000
0000
,  // measure 12
0000
0010
0000
0010
,  // measure 13
0000
0010
0000
0000
,  // measure 14
0000
0100
0000
0000
,  // measure 15
0000
1000
0000
0000
,  // measure 16
0000
0020
0030
0000
,  // measure 17
0000
0200
0300
0000
,  // measure 18
0000
0020
0030
0000
,  // measure 19
0000
0200
0300
0000
,  // measure 20
0000
0001
0000
0001
,  // measure 21
0000
1000
0000
1000
,  // measure 22
0000
0001
0000
0001
,  // measure 23
0000
1000
0000
1000
,  // measure 24
0000
0001
0000
0001
,  // measure 25
0000
1000
0000
1000
,  // measure 26
0000
0001
0000
0001
,  // measure 27
0000
1001
0000
0000
,  // measure 28
0000
0000
0110
0000
,  // measure 29
0000
0000
1000
0000
,  // measure 30
0000
0100
0000
0000
,  // measure 31
0000
0010
0000
0000
,  // measure 32
0000
0001
0000
0000
,  // measure 33
0000
1000
0000
0000
,  // measure 34
0000
0001
0000
0000
,  // measure 35
0000
0100
0000
0000
,  // measure 36
0000
0010
0000
0000
,  // measure 37
0000
1000
0000
0000
,  // measure 38
0000
0100
0000
0000
,  // measure 39
0000
0001
0000
0001
,  // measure 40
0000
0001
0000
0000
,  // measure 41
0000
0100
0000
0000
,  // measure 42
0000
1000
0000
0000
,  // measure 43
0000
0020
0000
0000
,  // measure 44
0030
0100
0000
0100
,  // measure 45
0000
0100
0000
0100
,  // measure 46
0000
0001
0000
0000
,  // measure 47
0000
1000
0000
0000
,  // measure 48
0000
0010
0000
0010
,  // measure 49
0000
0010
0000
1000
,  // measure 50
0000
0010
0000
0000
,  // measure 51
0000
0100
0000
0000
,  // measure 52
0000
0001
0000
0001
,  // measure 53
0000
0100
0000
0001
,  // measure 54
0000
0001
0000
0000
,  // measure 55
0000
1000
0000
0000
,  // measure 56
0000
0100
0000
0010
,  // measure 57
0000
0100
0000
0010
,  // measure 58
0000
0100
0000
0000
,  // measure 59
0000
1000
0000
0000
,  // measure 60
0000
1001
0000
0000
;

//---------------dance-single - Blank----------------
#NOTES:
     dance-single:
     Shortysnmn2010:
     Easy:
     4:
     0.251706,0.258919,0.128922,0.077353,0.000000,205.000000,190.000000,15.000000,9.000000,0.000000,0.000000,0.251706,0.258919,0.128922,0.077353,0.000000,205.000000,190.000000,15.000000,9.000000,0.000000,0.000000:
// measure 0
0000
0000
0000
0000
,  // measure 1
0000
0000
0000
0000
,  // measure 2
0000
0000
0000
0000
,  // measure 3
0000
0000
0000
0000
,  // measure 4
0000
1000
0100
1000
,  // measure 5
0100
0010
0100
0010
,  // measure 6
0100
0010
0001
0010
,  // measure 7
0001
1000
0000
0001
,  // measure 8
0000
0100
0001
0100
,  // measure 9
0001
1000
0001
1000
,  // measure 10
0001
0010
0001
1000
,  // measure 11
0001
0010
0000
0100
,  // measure 12
0000
1000
0100
1000
,  // measure 13
0100
1000
0001
1000
,  // measure 14
0010
0100
0001
0100
,  // measure 15
0001
1000
0000
0001
,  // measure 16
0000
0010
0000
0010
,  // measure 17
0010
0010
0000
0001
,  // measure 18
0001
0001
0000
1000
,  // measure 19
1000
1000
0000
0010
,  // measure 20
0010
0100
0001
0100
,  // measure 21
0001
0100
0001
1000
,  // measure 22
0001
1000
0001
0010
,  // measure 23
0001
0010
0001
1000
,  // measure 24
0001
0100
0010
0100
,  // measure 25
0010
1000
0010
1000
,  // measure 26
0010
1000
0100
0010
,  // measure 27
0001
1001
0000
0010
,  // measure 28
0000
0100
0000
1100
,  // measure 29
0000
0011
0000
1001
,  // measure 30
0000
0101
0000
0110
,  // measure 31
0000
1010
1000
0100
,  // measure 32
0010
0001
0000
1001
,  // measure 33
0000
1010
0000
0101
,  // measure 34
0000
1001
0000
1000
,  // measure 35
0100
2000
0000
0000
,  // measure 36
0010
3002
0003
1000
,  // measure 37
0100
0010
0001
0101
,  // measure 38
0000
0020
0030
1000
,  // measure 39
0100
0001
0100
1000
,  // measure 40
1010
0101
0000
0001
,  // measure 41
0010
0001
1000
0100
,  // measure 42
0100
1000
0000
0010
,  // measure 43
0100
0020
0030
1000
,  // measure 44
0001
0000
2000
0000
3000
0000
0001
0010
,  // measure 45
0000
0001
0000
0001
0000
0010
0000
0001
,  // measure 46
1000
0000
0002
0000
0003
0000
0100
0010
,  // measure 47
0000
1000
0000
1000
0100
0000
0000
0000
,  // measure 48
0010
0000
0100
0000
0000
0000
0100
1000
,  // measure 49
0000
0001
0000
0001
0000
0010
0000
0001
,  // measure 50
0100
0020
0030
1000
,  // measure 51
0001
1000
0100
0010
,  // measure 52
0001
0000
0001
0000
0000
0000
1000
0100
,  // measure 53
0000
0010
0000
0010
0000
0001
0000
0100
,  // measure 54
0010
0000
2000
0000
3000
0000
0001
0010
,  // measure 55
0000
0001
0000
0010
0100
0000
1000
0000
,  // measure 56
0001
0000
0001
0000
0000
0000
0100
0010
,  // measure 57
0000
1000
0000
0001
0000
0100
0000
0010
,  // measure 58
1000
0001
0010
0001
,  // measure 59
1000
0200
0000
0010
,  // measure 60
0300
1001
0000
0000
;

//---------------dance-single - Blank----------------
#NOTES:
     dance-single:
     Shortysnmn2010:
     Challenge:
     12:
     0.771079,0.783204,0.378173,0.283629,1.134518,628.000000,584.000000,44.000000,33.000000,0.000000,0.000000,0.771079,0.783204,0.378173,0.283629,1.134518,628.000000,584.000000,44.000000,33.000000,0.000000,0.000000:
// measure 0
0000
0000
0000
0000
,  // measure 1
0000
0000
0000
0000
,  // measure 2
0000
0000
0000
0000
,  // measure 3
0000
0000
0000
0000
,  // measure 4
0000
0000
0000
0000
0000
0100
0010
0001
0000
1000
0010
0100
0000
0001
0100
0001
,  // measure 5
0000
1000
0100
0010
0000
0001
1000
0001
0000
0100
0010
1000
0000
0001
0010
0100
,  // measure 6
0000
0001
0100
1000
0000
0001
0010
0100
0000
1000
0010
0001
0000
0010
0100
0001
,  // measure 7
0000
0000
1000
0000
0010
0000
0001
0000
0000
0000
0010
0000
1000
0000
0001
0000
0000
0000
0010
0000
1000
0000
0010
0000
0000
0000
0001
0000
0100
0000
1000
0100
,  // measure 8
1000
0100
0001
0000
0100
0010
0000
1010
0000
0000
0100
0010
0000
0001
0000
0100
,  // measure 9
0000
0000
0001
0100
0000
0001
0000
0010
0000
0000
0100
1000
0000
0010
0000
0100
,  // measure 10
0000
0000
0001
0100
0000
0010
0000
1000
0000
0000
0100
0010
0000
0001
0000
0001
,  // measure 11
0000
0000
1000
0100
0000
1000
0000
1000
0000
0000
0010
0100
0000
0001
0000
0100
,  // measure 12
0000
0000
0010
0100
0000
0001
0000
0011
0000
0000
1000
0100
0000
0010
0000
0110
,  // measure 13
0000
0000
0100
1000
0000
0001
0000
0101
0000
0000
0010
1000
0000
0001
0000
1001
,  // measure 14
0000
0000
1000
0010
0000
0100
0000
0110
0000
0000
0001
1000
0000
0100
0000
1100
,  // measure 15
0000
0000
0000
0000
0010
0000
0001
0000
0000
0000
0010
0000
0000
0000
0011
0000
0000
0000
0000
0000
1000
0000
0100
0000
0000
0000
1000
0000
0000
0000
0001
0010
,  // measure 16
0001
0000
1000
0100
1000
0000
0001
0000
0100
0020
0000
0000
1000
0000
0000
0130
,  // measure 17
0000
0000
0001
0100
0001
0000
0001
0000
1000
0100
0000
1000
0010
0100
0001
1000
,  // measure 18
0000
0001
0100
0001
0100
0000
0010
0000
1000
0001
0000
0010
0100
0000
1000
0100
,  // measure 19
0000
0010
0100
1000
0001
0000
0100
0000
0001
1000
0000
1000
0001
0000
0001
0010
,  // measure 20
0000
0010
0001
1000
0100
0000
1000
0010
0000
1000
0100
0010
0001
0000
1000
0010
,  // measure 21
0000
1000
0001
0100
0001
0000
0010
0001
0000
1000
0010
0001
0010
0000
0100
0010
,  // measure 22
0000
0100
1000
0100
0001
0000
1000
0001
0000
0010
0001
1000
0100
0000
0001
0100
,  // measure 23
0000
0010
0100
1000
0100
0000
0010
0001
0000
0010
0100
0010
0100
0000
1000
0100
,  // measure 24
0000
1000
0010
1000
0010
0000
0100
0001
0000
0010
0100
0010
0100
0000
1000
0001
,  // measure 25
0000
0100
0010
1000
0001
0000
0010
0001
0000
1000
0100
0010
0001
0000
0100
0010
,  // measure 26
0000
1000
0100
0010
0004
4000
0000
0000
0000
0000
0000
0000
0000
0000
0000
0000
,  // measure 27
0000
0000
0000
0000
0000
0000
0000
3003
,  // measure 28
0110
0000
0000
0000
0000
0000
0000
0000
0110
0000
0000
0000
0000
0000
0000
0000
2002
0000
0000
0000
3003
0000
0000
0000
1000
0000
0100
0010
0100
0000
1000
0000
,  // measure 29
0100
0000
0010
0000
0100
0000
0000
0000
1000
0000
0001
0010
0001
0000
1000
0000
0010
0000
0100
0000
0001
0000
0000
0000
1000
0000
0100
0000
1000
0000
0000
0000
,  // measure 30
1002
0000
0000
0000
0023
0000
0000
0000
0100
0000
0000
0000
0230
0000
0000
0000
1000
0000
0000
0000
0310
0000
0000
0000
0001
0000
1000
0100
0010
0000
0001
0000
,  // measure 31
0100
0010
0100
0000
0001
0100
0001
0100
0010
1000
0010
1000
0001
0010
0001
0010
,  // measure 32
0100
0000
1000
0000
0100
0000
1000
0000
0001
0000
0000
0000
0010
0000
0000
0000
0001
0000
0000
0000
1000
0000
0000
0000
0100
0000
1000
0100
1000
0000
0100
0000
,  // measure 33
0010
0000
0001
0000
1000
0000
0000
0000
0001
0000
0100
0001
0100
0000
0001
0000
0010
0000
0100
0000
1000
0000
0000
0000
0001
0000
0100
0000
0010
0000
0000
0000
,  // measure 34
0110
0000
0000
0000
1001
0000
0000
0000
0220
0000
0000
0000
0000
0000
0330
0000
1010
0000
0000
0000
0100
0000
0000
0000
0001
0000
1000
0100
0010
0000
0000
0000
,  // measure 35
0002
0000
1000
0003
1000
0100
0010
0001
0100
0000
0010
1000
0000
0011
0000
1001
,  // measure 36
1000
0000
0010
0000
0100
0000
0001
0000
2000
0000
0000
0000
0100
0000
0000
0000
3100
0000
0000
0000
0002
0000
0000
0000
1003
0000
0010
0100
0001
0000
1000
0000
,  // measure 37
0100
0010
0001
0000
1000
0100
0010
0100
1000
0100
0010
0001
0010
0000
0011
0000
,  // measure 38
1001
0000
0000
0000
1010
0000
0000
0000
0102
0000
0000
0000
1000
0000
0000
0000
0103
0000
0000
0000
0010
0000
0000
0000
1000
0000
0001
0100
0001
0000
1000
0000
,  // measure 39
0100
0010
0100
0000
0010
0001
0010
0001
1000
0100
1000
0100
0001
1000
0001
1000
,  // measure 40
0010
0000
0001
0000
0010
0000
0001
0000
2000
0000
0000
0000
0010
0000
0000
0000
0010
0000
0000
0000
3001
0000
0000
0000
0100
0000
0010
1000
0001
0000
0100
0000
,  // measure 41
0010
0100
0001
0000
1000
0100
0010
0100
1000
0001
0100
0010
0100
0010
1000
0000
,  // measure 42
1001
0110
0021
0100
0031
1002
0100
0013
,  // measure 43
0210
2000
0000
3300
,  // measure 44
1000
0100
0010
0001
0012
0000
0000
0000
0103
0000
0010
0000
1010
0000
1001
0000
,  // measure 45
0000
0000
0110
0000
0010
0001
1000
0100
0010
1000
0010
0100
1000
0001
0100
0010
,  // measure 46
1000
0100
0010
0001
2000
0000
0000
0000
3010
0000
0100
0000
0101
0000
1001
0000
,  // measure 47
0000
0000
0101
0000
0010
1000
0001
1000
0100
0010
0001
1000
0001
0100
0010
1000
,  // measure 48
0001
0010
0100
1000
0002
0000
0000
0000
0103
0000
0010
0000
1010
0000
1100
0000
,  // measure 49
0000
0000
0011
0000
0001
1000
0010
0001
0010
0100
0001
0100
0010
0001
0010
0100
,  // measure 50
0001
1000
0100
0010
0200
0000
0000
0000
1300
0000
0002
0000
0010
0003
0200
0000
,  // measure 51
1000
0300
0001
0000
1000
0010
0100
0001
1000
0001
0100
0010
0000
0110
0000
0010
,  // measure 52
1000
0100
0010
0001
2001
0000
0000
0000
0100
0000
3100
0000
0010
0000
0001
0000
,  // measure 53
0000
0000
1001
0000
1000
0100
0010
0001
0100
1000
0100
0010
1000
0001
0010
0100
,  // measure 54
1000
0001
1000
0100
0020
0000
0000
0000
0001
0000
0031
0000
1000
0000
0010
0000
,  // measure 55
0000
0000
0110
0000
1000
0001
1000
0001
0010
0001
0100
0010
0100
0001
0010
0001
,  // measure 56
1000
0010
1000
0001
0200
0000
0000
0000
0010
0000
0310
0000
1000
0000
0001
0000
,  // measure 57
0000
0000
1001
0000
1000
0010
1000
0001
0100
0001
1000
0010
0001
0010
1000
0001
,  // measure 58
0100
1000
0100
0001
1000
0000
0000
0000
0200
0000
0010
0300
0002
0000
1000
0003
,  // measure 59
0020
0000
0100
0030
2002
0000
0000
0000
3003
0000
0000
0000
0040
0400
0000
0000
,  // measure 60
0000
0330
2002
0000
0000
0000
3003
0000
;

//---------------dance-single - Blank----------------
#NOTES:
     dance-single:
     Shortysnmn2010:
     Hard:
     9:
     0.541474,0.647298,0.266440,0.266440,0.657505,441.000000,410.000000,31.000000,31.000000,2.000000,0.000000,0.541474,0.647298,0.266440,0.266440,0.657505,441.000000,410.000000,31.000000,31.000000,2.000000,0.000000:
// measure 0
0000
0000
0000
0000
,  // measure 1
0000
0000
0000
0000
,  // measure 2
0000
0000
0000
0000
,  // measure 3
0000
0000
0000
0000
,  // measure 4
0000
0000
0000
0000
0000
1000
0000
0001
0000
1000
0100
1000
0000
0001
0000
1000
,  // measure 5
0000
0001
0100
0001
0000
0010
0000
0100
0000
1000
0100
1000
0000
0010
0000
0100
,  // measure 6
0000
0001
0100
0001
0000
0010
0000
0100
0000
1000
0100
0010
0000
0001
0000
0100
,  // measure 7
0000
0010
0100
0001
0000
1000
0000
0100
0000
0010
0001
1000
0000
0010
0000
0100
,  // measure 8
0000
0001
1000
0010
1000
0001
0000
1000
0000
0000
0001
0100
0000
0001
0000
0100
,  // measure 9
0000
0000
0010
0100
0000
0001
0000
0100
0000
0000
0001
0010
0000
0100
0000
0010
,  // measure 10
0000
0000
0100
1000
0000
0010
0000
1000
0000
0000
0100
0010
0000
0001
0000
0001
,  // measure 11
0000
0000
1000
0010
0000
1000
0000
1000
0000
0000
0001
0100
0000
0010
0000
0100
,  // measure 12
0000
0000
0001
0010
0000
0001
0000
0001
0000
0000
1000
0010
0000
0100
0000
0100
,  // measure 13
0000
0000
0010
0100
0000
0010
0000
0010
0000
0000
0100
0001
0000
1000
0000
0010
,  // measure 14
0000
0000
1000
0100
0000
1000
0000
0001
0000
0000
0010
0100
0000
0010
0000
0100
,  // measure 15
0000
0000
1000
0100
0000
0001
0000
0100
0000
0000
0010
0001
0000
0010
0000
1000
,  // measure 16
0000
0000
0010
0100
0010
0000
0001
0000
0010
0002
0000
0000
0100
0000
0000
0103
,  // measure 17
0000
0000
0001
0100
0010
0000
1000
0000
0001
1000
0000
0001
1000
0000
0001
1000
,  // measure 18
0000
0001
0010
0001
0010
0000
0100
0000
0010
0200
0000
0000
1000
0000
0000
1300
,  // measure 19
0000
0000
0001
0010
0001
0000
1000
0000
0010
0100
0000
0001
0100
0000
0010
0100
,  // measure 20
0000
0000
0001
0100
0010
0000
0010
0100
0000
0010
1000
0010
1000
0000
0001
1000
,  // measure 21
0000
0001
0010
0001
0010
0000
0100
0010
0000
0100
1000
0100
1000
0000
0001
0100
,  // measure 22
0000
0010
1000
0010
1000
0000
0001
0010
0000
0100
1000
0100
1000
0000
0001
0100
,  // measure 23
0000
0010
0100
0010
0100
0000
0001
0010
0000
0100
0010
0100
0010
0000
0100
1000
,  // measure 24
0000
0001
0100
0001
0100
0000
0010
0000
1000
0000
0100
0000
0010
0000
1000
0000
,  // measure 25
0010
0001
0100
0010
0001
0010
0100
0001
,  // measure 26
1000
0000
0100
0000
0040
0400
0000
0000
0000
0000
0000
0000
0000
0000
0000
0000
,  // measure 27
0330
0000
0000
0000
4000
0004
0000
0000
0000
0000
0000
0000
0000
0000
0000
0000
,  // measure 28
3003
0000
0000
0000
M00M
0000
0000
0000
1002
0000
0000
0000
0013
0000
0100
1000
,  // measure 29
0000
1000
0100
0000
0010
0000
0001
0010
0000
0010
0001
0000
0010
0100
0010
0000
,  // measure 30
0100
0000
1000
0000
0002
0000
0000
0000
0013
0000
0000
0000
0001
0000
0100
0010
,  // measure 31
0000
0100
0010
0000
1000
0000
0100
0000
0010
0000
0001
0000
1000
0000
0100
0000
,  // measure 32
0010
0000
0001
0000
2000
0000
0000
0000
3010
0000
0000
0000
0100
0000
0001
1000
,  // measure 33
0000
0001
1000
0000
0100
0000
1000
0001
0000
1000
0001
0000
0100
0010
0200
0000
,  // measure 34
0001
0301
2001
0000
3100
0000
0012
0000
,  // measure 35
1003
0000
0010
0000
0100
0001
0000
0100
0010
0000
0100
0001
0000
0100
0000
0010
,  // measure 36
0000
0000
0000
0000
2010
0000
0000
0000
0001
0000
0000
0000
3100
0000
0010
0100
,  // measure 37
0000
0010
0100
0000
4000
0400
0000
0000
0000
0000
3300
0000
0000
0000
1100
0000
,  // measure 38
1001
0000
0101
0000
0210
0000
0000
0000
0001
0000
0000
0000
0310
0000
1000
0001
,  // measure 39
0000
1000
0001
0000
1000
0000
0010
0000
0100
0000
0001
0000
1000
0000
0010
0000
,  // measure 40
0100
0000
0001
0000
2000
0000
0000
0000
0100
0000
0000
0000
3100
0000
0010
0001
,  // measure 41
0000
0001
0010
0000
0100
0000
1000
0000
0010
0000
0100
0000
0001
0000
2000
0000
,  // measure 42
0100
3100
0011
0000
0102
0000
2003
0000
,  // measure 43
3020
0001
0100
2000
,  // measure 44
3030
0000
0110
0000
0100
0001
1000
0001
,  // measure 45
0000
1100
0000
0011
0000
0110
0000
1001
,  // measure 46
0110
0000
1010
0000
1000
0100
0010
0001
,  // measure 47
0000
0101
0000
0010
2000
0000
3002
0000
,  // measure 48
2003
0000
3001
0000
0010
0001
0100
0010
,  // measure 49
0000
0110
0000
1010
0000
1100
0000
0011
,  // measure 50
1100
0000
0110
0000
0100
2000
0001
3002
,  // measure 51
0010
0000
0013
0000
0100
1000
0000
0001
0100
0000
0010
1000
0000
0001
0000
0010
,  // measure 52
0100
0010
0100
1000
0100
0000
0000
0000
0010
0000
0001
0000
0100
0000
0010
0000
,  // measure 53
0000
2010
0000
3002
0000
0203
0000
1000
,  // measure 54
1300
0000
0110
0000
1000
0001
0010
1000
,  // measure 55
0000
0110
0000
0001
0200
0000
0010
0000
,  // measure 56
0301
0000
1001
0000
1000
0100
0010
0001
,  // measure 57
0000
0201
0000
0320
0000
2030
0000
0100
,  // measure 58
3001
0000
0101
0000
0010
2000
0100
3200
,  // measure 59
0010
0000
0310
0000
0002
0000
0000
0000
0003
0000
0000
0000
0400
0040
0000
0000
,  // measure 60
0000
0330
1001
0000
0000
0000
0000
0000
;

//---------------dance-single - ----------------
#NOTES:
     dance-single:
     :
     Medium:
     5:
     0.290996,0.362487,0.266440,0.171897,0.008595,237.000000,206.000000,31.000000,20.000000,0.000000,0.000000,0.290996,0.362487,0.266440,0.171897,0.008595,237.000000,206.000000,31.000000,20.000000,0.000000,0.000000:
// measure 0
0000
0000
0000
0000
,  // measure 1
0000
0000
0000
0000
,  // measure 2
0000
0000
0000
0000
,  // measure 3
0000
0000
0000
0000
,  // measure 4
0000
1000
0100
0001
,  // measure 5
0100
1000
0100
0001
,  // measure 6
0100
1000
0001
1000
,  // measure 7
0010
0001
0010
1000
,  // measure 8
0001
1000
0000
1001
,  // measure 9
0000
0001
0010
0100
,  // measure 10
1000
0010
0000
0110
,  // measure 11
0000
0100
1000
0100
,  // measure 12
0001
1000
0000
0011
,  // measure 13
0000
1000
0100
0001
,  // measure 14
0100
1000
0000
1010
,  // measure 15
0000
1000
0001
0100
,  // measure 16
0010
0200
0000
0300
,  // measure 17
0000
0002
0003
2000
,  // measure 18
3000
0100
0100
0010
,  // measure 19
0000
0001
0000
1000
,  // measure 20
0000
1100
0001
0110
,  // measure 21
0001
0110
1000
0101
,  // measure 22
0010
1001
0100
0011
,  // measure 23
1000
0110
1000
0101
,  // measure 24
0010
1100
1000
1010
,  // measure 25
0001
0101
0001
0011
,  // measure 26
0100
0000
0000
0000
4000
0400
0000
0000
0000
0000
0000
0000
0000
0000
0000
0000
,  // measure 27
0000
0000
3300
0000
,  // measure 28
1001
0100
2001
3100
,  // measure 29
1002
0013
0100
1000
,  // measure 30
0010
0100
0001
0000
0012
0000
1003
0000
,  // measure 31
2100
0000
3001
0010
0001
0000
1000
0100
,  // measure 32
1000
0010
0210
0301
,  // measure 33
0210
1300
0100
0001
,  // measure 34
1000
0100
0010
0000
0001
0000
0100
0000
,  // measure 35
0010
0220
0000
0330
,  // measure 36
0000
1000
2100
3010
,  // measure 37
0102
0000
0013
0000
0100
0000
1000
0001
,  // measure 38
1000
0010
2010
3001
,  // measure 39
0102
0000
1003
0100
1000
0000
0010
0100
,  // measure 40
0010
1000
1200
0310
,  // measure 41
0021
0130
1000
0010
,  // measure 42
0100
0100
0001
0000
1000
0000
0100
0000
,  // measure 43
1000
2002
0000
3003
,  // measure 44
0000
0000
0010
0000
1000
0000
0100
1000
,  // measure 45
0000
0100
0000
0100
0000
0010
0000
0010
,  // measure 46
0001
0000
0100
0000
0001
0000
0100
0001
,  // measure 47
0000
0100
0000
0100
0010
0000
0000
0000
,  // measure 48
1000
0000
0001
0000
0010
0000
0001
0010
,  // measure 49
0000
0100
0000
0100
0000
0010
0000
0001
,  // measure 50
0010
0001
0100
1000
,  // measure 51
0100
0020
0000
0030
,  // measure 52
1000
0000
0001
0000
1000
0000
0100
1000
,  // measure 53
0000
0010
0000
0010
0000
1000
0000
1000
,  // measure 54
0100
0000
0010
0000
0001
0000
0010
1000
,  // measure 55
0000
0010
0000
0001
1000
0000
0000
0000
,  // measure 56
0001
0000
0100
0000
0010
0000
0001
0010
,  // measure 57
0000
0100
0000
0010
0000
0100
0000
1000
,  // measure 58
0100
0001
0010
0100
,  // measure 59
1000
0000
0000
0000
0001
0000
0000
0000
0000
0000
0000
0000
0004
4000
0000
0000
,  // measure 60
0000
3003
0000
0000
;
