#TITLE:Melody Circus;
#SUBTITLE:;
#ARTIST:Savant;
#TITLETRANSLIT:;
#SUBTITLETRANSLIT:;
#ARTISTTRANSLIT:;
#GENRE:;
#CREDIT:;
#BANNER:;
#BACKGROUND:;
#LYRICSPATH:;
#CDTITLE:;
#MUSIC:Melody Circus.mp3;
#OFFSET:-0.023000;
#SAMPLESTART:63.089001;
#SAMPLELENGTH:14.015000;
#SELECTABLE:YES;
#BPMS:0.000000=137.000000
;
#STOPS:
;
#BGCHANGES:;
#KEYSOUNDS:;
#ATTACKS:;

//---------------dance-single - Blank----------------
#NOTES:
     dance-single:
     Shortysnmn2010:
     Hard:
     7:
     0.434508,0.481841,0.179835,0.406584,0.414402,389.000000,366.000000,23.000000,52.000000,0.000000,0.000000,0.434508,0.481841,0.179835,0.406584,0.414402,389.000000,366.000000,23.000000,52.000000,0.000000,0.000000:
0000
0000
0000
0000
,
0000
0000
0000
0000
,
0000
0000
0000
0000
,
0000
0000
0000
0000
,
1000
0000
0001
0100
0000
0000
0001
0000
1000
0010
0000
0000
,
1000
0000
0100
0010
0000
0000
0001
0000
0100
0010
0000
0000
,
1000
0000
1000
0100
0000
0000
1000
0000
1000
0010
0000
0000
,
0100
0000
0001
0010
0000
0000
0100
0000
0100
1000
0000
0000
,
0001
0000
0000
0001
0000
0000
0001
0000
0000
0100
0010
0100
,
0010
0000
0000
0010
0000
0000
0010
0000
0000
1000
0100
1000
,
0100
0000
0000
0010
0001
0010
0001
0000
0000
1000
0010
1000
,
0010
0000
0000
0100
0001
0100
0001
0000
0000
1000
0000
0000
,
1002
0000
0000
0103
0000
0000
0010
0000
1000
0000
0001
0000
,
0200
0302
2003
3200
,
0310
0000
0001
0000
1000
0000
0001
0000
0010
0001
0000
0100
,
0002
0000
0000
0003
0000
0000
1001
0000
0100
1000
0000
0001
,
2000
0000
0000
3010
0000
0100
0002
0000
0000
1003
0000
0000
,
0001
0100
0001
0100
0000
0000
0001
0000
0100
0001
0000
0100
,
0010
0000
1000
0000
0100
0000
0110
0000
0000
0001
0000
0000
,
2002
0000
0000
3003
0000
0000
1000
0010
0100
0001
0000
0000
,
1000
0000
0100
0000
0010
0000
0001
0000
0100
0000
0000
0001
,
0100
0000
0001
0000
0000
1000
0010
0000
1000
0000
0000
0010
,
0100
0000
0000
0001
0100
0010
1000
0000
0000
0001
0010
0002
,
0000
0000
0100
0103
,
0001
0000
0000
1000
0010
1000
0010
0000
0000
0100
0001
0100
,
0001
0000
0000
1000
0000
0100
1000
0000
0000
0001
0010
0100
,
2000
3020
0032
2003
,
3200
0302
2000
3003
,
0001
0000
0000
0100
0010
0100
0010
0000
0000
1000
0001
1000
,
0001
0000
0000
1000
0000
0100
1000
0000
0000
0100
1000
0100
,
2000
3020
0032
0023
,
0230
0302
0020
0033
,
0001
1100
0010
0001
,
0100
1001
0010
1000
,
0001
1010
0100
0001
,
0010
1100
0010
0001
,
1000
0000
0100
0010
0000
0100
0010
0000
0000
0001
0010
0001
,
0010
0000
0000
0100
1000
0100
1000
0000
0000
0010
0000
0000
,
0110
0000
0100
0001
0000
0100
0010
0000
0100
0002
0000
0000
,
2003
3002
0010
0013
,
0001
0000
1000
0010
0000
0100
0001
0000
1000
0100
0000
0000
,
0110
0000
0000
0100
0000
0000
1000
0100
0010
0002
0000
0000
,
1000
0000
0000
0203
0000
0000
0010
0000
0000
0301
0000
1000
,
0001
0000
0000
1000
0010
0100
0001
0000
0000
0000
1000
0100
,
1000
0100
1000
0100
0000
0000
0010
0000
0000
0001
0000
0100
,
0010
0000
0000
0100
0000
0001
0010
0000
0000
0100
1000
0100
,
0010
0000
0001
0000
0000
1000
0100
0000
1000
0000
0000
0010
,
0100
0001
0100
1001
,
0001
0100
0001
0100
0010
1000
0100
1000
,
0010
0100
0010
0100
0001
1000
0100
1000
,
0001
0010
0100
1000
,
0001
0100
0010
1000
,
0100
0010
0100
0010
0001
0100
0001
0100
,
0010
1000
0010
1000
0001
0010
0100
1000
,
0001
0100
1000
0100
,
0001
0010
1000
0010
,
0100
0000
1000
0100
0000
0010
0100
0000
0000
1000
0100
0010
,
0001
0000
0100
0001
0000
1000
0100
0000
0000
0010
0001
0010
,
0002
0100
0100
2003
,
3020
0001
0001
0130
,
0110
0000
0000
1002
0000
0000
0013
0000
0000
0100
1000
0001
,
2000
3000
0001
0100
,
0010
0000
1000
0001
0000
1000
0200
0000
0000
0300
0000
0000
,
0020
0030
0001
1000
,
0010
0100
0002
0003
,
1000
0100
1000
0100
1000
0100
2000
0000
0000
0001
0000
0000
,
0002
0000
3003
0110
,
2002
3003
0220
0330
,
0202
0303
1010
1100
,
0022
0000
0033
1100
,
2002
0000
3000
0100
,
0013
0100
1000
0010
,
0220
0000
0330
0000
;

//---------------dance-single - Blank----------------
#NOTES:
     dance-single:
     Shortysnmn2010:
     Challenge:
     9:
     0.561845,0.711033,0.179835,0.297119,0.813167,503.000000,480.000000,23.000000,38.000000,0.000000,0.000000,0.561845,0.711033,0.179835,0.297119,0.813167,503.000000,480.000000,23.000000,38.000000,0.000000,0.000000:
0000
0000
0000
0000
,
0000
0000
0000
0000
,
0000
0000
0000
0000
,
0000
0000
0000
0000
,
1000
0000
0010
0100
0000
0000
0001
0000
1000
0100
0000
0000
,
1000
0000
0001
0010
0000
0000
0001
0000
0100
0001
0000
0000
,
1000
0000
0100
0010
0001
0010
0100
0000
1000
0001
0100
0001
,
1000
0000
1000
0001
0000
0001
1000
0000
0000
1001
0000
0000
,
1000
0000
0001
0010
0000
0100
1000
0000
0000
0001
0100
0010
,
1000
0000
0100
0010
0000
0100
1000
0000
0000
0001
0100
0010
,
1000
0000
0000
0001
0100
0001
0100
0000
0000
0010
0100
0010
,
0100
0000
0000
0001
0010
0100
1000
0000
0000
1001
0000
0000
,
0102
0000
0000
1003
0100
0000
0010
0000
0100
0000
1000
0000
,
0001
0100
0001
1000
0100
1000
0001
0010
0001
1000
0010
1000
,
0001
0000
0010
0000
0100
0000
1000
0001
1000
0100
0010
0001
,
1000
0000
0000
0000
0001
0010
0001
0000
1000
0100
0000
1000
,
0010
0000
0010
0100
0000
0100
0002
0000
0000
0003
0000
0000
,
1000
0100
1000
0001
0100
0010
1000
0000
0001
0100
0000
0010
,
2000
0000
0100
0000
3100
0000
1001
0000
0000
0001
0010
0001
,
0020
0000
0000
0030
0000
0000
0100
1000
0001
0100
0000
0000
,
0010
0000
1010
0000
0101
0000
0002
0000
0013
0000
0000
0100
,
1000
0000
1100
0000
0000
0001
0100
0000
0110
0000
0000
0100
,
0001
0000
0000
1000
0010
0001
0010
0000
0000
0100
0001
0100
,
0000
0000
0010
0000
1000
0000
0010
0000
0100
0000
0001
0000
1000
0000
0100
0010
0100
1000
0001
0000
0010
0000
0001
0000
,
2000
0000
0000
3010
0100
0001
2000
0000
0000
3100
0001
0100
,
2000
0000
0000
3010
0000
0100
0001
0000
0000
1000
0100
0010
,
0002
0203
2300
3002
,
0023
2030
0200
3300
,
0010
0000
0000
0001
1000
0100
0010
0000
0000
0100
1000
0001
,
0010
0000
0000
1000
0000
0010
0100
0000
0000
1000
0100
0010
,
0002
0023
2030
3200
,
0302
0203
2000
3300
,
0001
0010
0001
0010
0001
0010
0001
0010
0001
1000
0010
0100
,
0001
1000
0001
1000
0001
1000
0001
1000
0001
0010
0100
1000
,
0010
0100
0010
0100
0010
0100
0010
0100
0010
1000
0100
0010
,
0002
0100
1003
1001
,
1000
0000
0001
0010
0000
0001
1000
0000
0000
0010
0100
0001
,
1000
0000
0000
0100
0010
0001
1000
0000
0000
0001
0100
0010
,
1000
0000
0001
0100
0000
1000
0100
0000
0001
0010
0100
0010
,
0002
0000
0000
1003
0010
1000
0002
0000
0000
2003
0000
0000
,
3001
0000
0100
0001
0000
0100
0001
0000
0000
1000
0100
0010
,
0001
0100
0100
0001
1000
0010
1000
0001
0001
1000
0000
0000
,
0001
0000
0000
0000
0001
0000
4000
0400
0000
0000
0000
0000
0000
0000
0000
0000
0000
0000
3300
0000
0000
0000
0010
0000
,
0001
0000
0000
1000
0010
0100
0010
0000
0000
0000
0100
0001
,
1000
0100
0010
0001
0000
0000
0100
0000
0000
1000
0000
1000
,
0100
0000
0000
0001
0000
0001
0100
0000
0000
0010
1000
0001
,
0010
0000
0100
0000
0000
1000
0100
0000
0010
0000
0000
0000
,
0001
1000
0001
0110
,
0001
1000
0100
0001
0100
0010
0001
1000
,
0010
0100
1000
0100
0010
1000
0001
0010
,
0100
0000
1100
0000
1000
0100
0010
0001
,
0010
0000
0110
0000
0100
1000
0010
0100
,
0001
0010
0001
0010
0100
1000
0010
0100
,
0001
1000
0001
1000
0100
0010
0001
1000
,
0010
1010
0101
1001
,
1001
0000
0110
0000
,
0001
0000
0001
0010
0000
0010
0001
0000
0001
1000
0100
0010
,
0100
0000
0100
1000
0000
1000
0100
0000
0100
0010
0001
1000
,
0010
0100
0001
0100
0010
1000
0010
0100
,
0001
0010
0100
1000
0001
0010
0100
1000
0001
0100
0000
0000
,
0001
0100
0010
2000
0000
0000
0100
0000
0000
3001
0010
0100
,
2000
0001
3010
0110
,
0101
0000
0001
1000
0000
1000
0100
0000
0000
0010
0000
0000
,
0002
0000
0000
0103
0000
0000
0001
0010
0100
0010
0001
1000
,
0100
0010
0100
1000
0001
0100
0020
0000
0000
0030
0000
0000
,
0100
0000
0001
0000
0010
0000
0100
0000
1000
0000
0001
0000
4000
0004
0000
0000
0000
0000
0000
0000
0000
3003
0000
0000
,
1001
0000
0000
0000
0000
0000
0110
0000
0000
1000
0100
1000
,
0002
0003
0020
0030
,
2002
0000
0000
3003
0000
0000
0110
0000
0000
0001
0100
0001
,
0200
0010
0310
1000
,
0002
1000
2003
0001
,
3001
0010
0100
1000
0010
0100
0001
0100
0010
1000
0010
0100
,
0002
0000
0000
0003
;

//---------------dance-single - ----------------
#NOTES:
     dance-single:
     :
     Beginner:
     1:
     0.100529,0.140740,0.007819,0.000000,0.000000,90.000000,89.000000,1.000000,0.000000,0.000000,0.000000,0.100529,0.140740,0.007819,0.000000,0.000000,90.000000,89.000000,1.000000,0.000000,0.000000,0.000000:
// measure 0
0000
0000
0000
0000
,  // measure 1
0000
0000
0000
0000
,  // measure 2
0000
0000
0000
0000
,  // measure 3
0000
0000
0000
0000
,  // measure 4
0010
0000
0001
0000
,  // measure 5
0010
0000
0000
0000
,  // measure 6
0100
0000
0000
0000
,  // measure 7
1000
0000
0000
0000
,  // measure 8
0010
0000
1000
0000
,  // measure 9
0010
0000
0000
0000
,  // measure 10
0100
0000
0000
0000
,  // measure 11
0001
0000
0000
0000
,  // measure 12
1000
0000
0000
0000
,  // measure 13
0100
0000
0000
0000
,  // measure 14
0100
0000
0000
0000
,  // measure 15
0010
0000
0000
0000
,  // measure 16
0001
0000
1000
0000
,  // measure 17
0001
0000
0000
0000
,  // measure 18
0100
0000
0000
0000
,  // measure 19
0010
0000
0000
0000
,  // measure 20
1000
0000
0001
0000
,  // measure 21
1000
0000
0001
0000
,  // measure 22
1000
0000
0001
0000
,  // measure 23
1000
0000
0000
0000
,  // measure 24
0100
0000
0010
0000
,  // measure 25
0100
0000
0010
0000
,  // measure 26
0100
0000
0010
0000
,  // measure 27
0100
0000
0010
0000
,  // measure 28
0100
0000
0000
0000
,  // measure 29
1000
0000
0000
0000
,  // measure 30
0001
0000
0000
0000
,  // measure 31
0100
0000
0100
0000
,  // measure 32
0100
0000
0000
0000
,  // measure 33
0000
0000
0000
0000
,  // measure 34
0010
0000
0000
0000
,  // measure 35
0000
0000
0000
0000
,  // measure 36
1000
0000
0001
0000
,  // measure 37
1000
0000
0000
0000
,  // measure 38
0001
0000
1000
0000
,  // measure 39
0001
0000
0000
0000
,  // measure 40
0010
0000
0000
0000
,  // measure 41
0100
0000
0000
0000
,  // measure 42
0010
0000
0100
0000
,  // measure 43
0010
0000
0000
0000
,  // measure 44
0100
0000
0000
0000
,  // measure 45
1000
0000
0000
0000
,  // measure 46
0001
0000
0000
0000
,  // measure 47
0100
0000
0000
0000
,  // measure 48
0010
0000
0010
0000
,  // measure 49
0010
0000
0000
0000
,  // measure 50
0100
0000
0000
0000
,  // measure 51
0001
0000
0000
0000
,  // measure 52
1000
0000
1000
0000
,  // measure 53
1000
0000
0000
0000
,  // measure 54
0001
0000
0000
0000
,  // measure 55
0010
0000
0000
0000
,  // measure 56
0100
0000
0100
0000
,  // measure 57
0100
0000
0100
0000
,  // measure 58
0100
0000
1000
0000
,  // measure 59
0100
0000
0000
0000
,  // measure 60
0010
0000
0000
0000
,  // measure 61
0001
0000
0000
0000
,  // measure 62
0100
0000
0001
0000
,  // measure 63
0100
0000
0000
0000
,  // measure 64
0010
0000
0100
0000
,  // measure 65
0010
0000
0000
0000
,  // measure 66
1000
0000
0000
0000
,  // measure 67
0001
0000
0000
0000
,  // measure 68
0010
0000
0000
0000
,  // measure 69
0100
0000
0000
0000
,  // measure 70
1000
0000
0000
0000
,  // measure 71
0001
0000
1000
0000
,  // measure 72
1001
0000
0000
0000
;

//---------------dance-single - ----------------
#NOTES:
     dance-single:
     :
     Medium:
     5:
     0.282598,0.368466,0.062551,0.148559,0.105555,253.000000,245.000000,8.000000,19.000000,0.000000,0.000000,0.282598,0.368466,0.062551,0.148559,0.105555,253.000000,245.000000,8.000000,19.000000,0.000000,0.000000:
0000
0000
0000
0000
,
0000
0000
0000
0000
,
0000
0000
0000
0000
,
0000
0000
0000
0000
,
1000
0000
0001
0000
,
0010
0000
0100
0000
,
1000
0010
0100
0100
,
0001
0010
0001
0000
,
1000
0000
0100
1000
0000
0000
0100
0000
0000
0010
0000
0000
,
0001
0000
0100
0001
0000
0000
0100
0000
0000
0010
0000
0000
,
1000
0100
0010
0001
,
0100
0100
0100
0000
,
0001
1000
0100
0010
,
0001
0100
0100
0001
,
1000
0000
0100
0000
1000
0000
0100
0000
0000
0010
0000
0000
,
0001
0000
0000
0000
0000
0000
1000
0000
1000
0001
0000
0001
,
1000
0100
0010
0000
,
0001
0100
0010
1000
,
0001
0000
0100
0000
0001
0000
0100
0000
0000
0010
0000
0000
,
2000
3000
0001
1000
,
0010
0000
0100
0000
0010
0000
0100
0000
0000
0000
0000
0100
,
0001
0000
0000
0000
0000
1000
0001
0000
0000
0000
0000
0001
,
1000
0010
0010
1000
,
1001
0000
0000
0000
,
0001
0100
2000
3000
,
0200
0300
0002
0003
,
1000
0010
0001
1000
,
0100
0001
2002
3003
,
0001
0010
0010
0100
,
0100
0000
0000
0001
0000
0100
0001
0000
0000
0100
0000
0000
,
1000
0001
0010
1000
,
0010
0001
1000
0000
,
0002
0000
0010
0003
,
2000
0000
0100
3000
,
0020
0000
0100
0030
,
0200
0000
0000
0300
,
0001
0000
1000
0001
0000
1000
0001
0000
0000
1000
0000
0000
,
0100
1000
0001
0010
,
0100
0000
0010
0100
0000
0010
0100
0000
0000
1000
0000
0000
,
0002
0000
1000
1003
,
0001
0100
1000
0100
,
0001
0010
1000
0010
,
0001
1000
0100
0100
,
1001
0000
1000
0000
,
0010
0000
0000
0200
0000
0000
0001
0000
0000
0310
0000
0100
,
0010
1000
0001
1000
,
0100
0000
1000
0000
0000
0000
0001
0000
0010
0000
0000
0000
,
0001
0100
0100
1001
,
0010
1000
0100
0100
,
0010
0001
0010
0000
0100
0000
0100
0000
,
1000
0001
0100
0010
,
0010
1000
0001
0000
,
1000
0100
1000
0000
0001
0000
0001
0000
,
0010
1000
0010
0001
,
0100
0101
0001
1001
,
1000
0000
0001
0000
,
1000
0000
0001
1000
0000
0001
1000
0000
0000
0001
0000
0000
,
0100
0000
0001
0100
0000
0001
0100
0000
0000
0010
0000
0000
,
0100
1000
0100
0001
,
0010
0000
0000
0000
,
0100
1000
1010
1000
,
0200
0300
0010
0001
,
0100
0000
0100
0001
0000
0001
0200
0000
0000
0300
0000
0000
,
0002
0003
1000
0010
,
0001
0010
2000
3000
,
0001
0010
1000
0010
,
0002
0003
0000
1000
,
0100
0000
1000
0000
,
0010
0000
0000
0100
,
0001
0000
0000
1000
,
0010
0000
0000
1000
,
0010
0001
0100
1000
,
2002
0000
3003
0000
;

//---------------dance-single - ----------------
#NOTES:
     dance-single:
     :
     Easy:
     4:
     0.232333,0.309629,0.101646,0.164197,0.000000,208.000000,195.000000,13.000000,21.000000,0.000000,0.000000,0.232333,0.309629,0.101646,0.164197,0.000000,208.000000,195.000000,13.000000,21.000000,0.000000,0.000000:
// measure 0
0000
0000
0000
0000
,  // measure 1
0000
0000
0000
0000
,  // measure 2
0000
0000
0000
0000
,  // measure 3
0000
0000
0000
0000
,  // measure 4
1000
0000
0001
0000
,  // measure 5
0010
0000
0001
0000
,  // measure 6
1000
0000
0100
0000
,  // measure 7
0001
0000
0100
0000
,  // measure 8
1000
1000
2000
3000
,  // measure 9
0001
0001
0002
0003
,  // measure 10
1000
0100
1000
0100
,  // measure 11
0010
0100
0010
0001
,  // measure 12
0200
0300
0001
0010
,  // measure 13
0100
1000
1000
0001
,  // measure 14
0100
0000
0010
0100
,  // measure 15
0001
0000
1000
0100
,  // measure 16
1000
0010
0100
0000
,  // measure 17
0001
0010
0001
1000
,  // measure 18
0100
0000
0010
0000
,  // measure 19
0001
0000
1000
0000
,  // measure 20
0010
0000
1000
0000
,  // measure 21
0001
0000
0001
0000
,  // measure 22
1000
0100
1000
0002
,  // measure 23
0000
0000
0003
0000
,  // measure 24
1100
1000
0010
0100
,  // measure 25
0101
0001
0010
0100
,  // measure 26
2000
3200
0302
0203
,  // measure 27
2300
3002
2000
3003
,  // measure 28
0001
0010
0010
0001
,  // measure 29
1000
0100
0100
1000
,  // measure 30
0002
0203
2300
3200
,  // measure 31
0302
2003
0002
3003
,  // measure 32
0010
0000
0000
0000
,  // measure 33
1100
0000
0000
0000
,  // measure 34
0101
0000
0000
0000
,  // measure 35
0110
0000
0000
0000
,  // measure 36
1000
1000
1000
0001
,  // measure 37
1000
0100
2000
3000
,  // measure 38
0010
0010
0100
0001
,  // measure 39
0002
0000
1000
1003
,  // measure 40
0001
0010
0010
0001
,  // measure 41
0100
0100
0010
1000
,  // measure 42
0200
0000
0300
0000
,  // measure 43
1001
0000
0000
0000
,  // measure 44
1000
0010
0100
0000
,  // measure 45
0001
0010
0100
0000
,  // measure 46
1000
0000
0001
0000
,  // measure 47
0110
0000
0000
0000
,  // measure 48
1000
0100
0010
0001
,  // measure 49
1000
0100
1100
0000
,  // measure 50
1000
0001
1000
0000
,  // measure 51
0001
0100
0001
0000
,  // measure 52
0010
0001
0100
0010
,  // measure 53
1000
0001
0101
0000
,  // measure 54
0010
1000
0100
0000
,  // measure 55
0010
0001
0100
0000
,  // measure 56
0010
0010
0010
0000
,  // measure 57
1000
1000
1000
0000
,  // measure 58
0001
1000
0001
1000
,  // measure 59
0010
0100
0010
0000
,  // measure 60
0100
0001
1000
0010
,  // measure 61
0010
0000
0100
0100
,  // measure 62
0001
0010
0011
0000
,  // measure 63
0001
0000
1000
0100
,  // measure 64
0001
0100
1000
0000
,  // measure 65
0010
0010
1000
1100
,  // measure 66
1001
0000
0000
0010
,  // measure 67
0001
0000
0100
0000
,  // measure 68
0100
0000
0000
0010
,  // measure 69
0010
0000
0000
1000
,  // measure 70
0001
0000
0000
1000
,  // measure 71
0100
0001
0010
1000
,  // measure 72
1001
0000
0000
0000
;
