#TITLE:Mausoleum Mash;
#SUBTITLE:;
#ARTIST:Danny Baranowsky;
#TITLETRANSLIT:;
#SUBTITLETRANSLIT:;
#ARTISTTRANSLIT:;
#GENRE:;
#CREDIT:;
#BANNER:;
#BACKGROUND:;
#LYRICSPATH:;
#CDTITLE:;
#MUSIC:Mausoleum Mash.mp3;
#OFFSET:-0.083000;
#SAMPLESTART:80.646004;
#SAMPLELENGTH:13.713000;
#SELECTABLE:YES;
#BPMS:0.000000=140.014999
;
#STOPS:
;
#BGCHANGES:;
#KEYSOUNDS:;
#ATTACKS:;

//---------------dance-single - Blank----------------
#NOTES:
     dance-single:
     Shortysnmn2010:
     Easy:
     3:
     0.183374,0.200947,0.008732,0.174642,0.000000,147.000000,146.000000,1.000000,20.000000,0.000000,0.000000,0.183374,0.200947,0.008732,0.174642,0.000000,147.000000,146.000000,1.000000,20.000000,0.000000,0.000000:
// measure 0
0000
0000
0000
0000
,  // measure 1
0000
0000
0000
0000
,  // measure 2
0000
0000
0000
0000
,  // measure 3
0000
0000
0000
0000
,  // measure 4
1000
0000
0100
0000
,  // measure 5
0010
0000
0001
0000
,  // measure 6
1000
0000
0010
0000
,  // measure 7
0100
0000
0001
0000
,  // measure 8
1000
1000
1000
0000
,  // measure 9
0001
0001
0000
0001
,  // measure 10
0000
0010
0010
0000
,  // measure 11
0100
1000
0000
0100
,  // measure 12
1000
0010
0000
0100
,  // measure 13
0001
0100
0000
0001
,  // measure 14
2000
0000
0000
3000
,  // measure 15
0200
0000
0000
0300
,  // measure 16
0110
0000
0010
0000
,  // measure 17
0001
1000
0001
0000
,  // measure 18
1000
0000
0100
0000
,  // measure 19
0010
0001
0010
0000
,  // measure 20
0001
0000
0100
0100
,  // measure 21
0100
0000
0010
0000
,  // measure 22
1000
0000
0100
0010
,  // measure 23
0200
0300
2000
3000
,  // measure 24
0001
0001
0001
0010
,  // measure 25
0001
0000
0001
0000
,  // measure 26
1000
1000
1000
0100
,  // measure 27
1000
0000
1000
0000
,  // measure 28
2000
0000
0001
0000
,  // measure 29
3002
0000
1000
0000
,  // measure 30
2003
0000
0100
0000
,  // measure 31
3200
0000
1000
0000
,  // measure 32
1300
1000
1000
0000
,  // measure 33
0001
0001
0001
0000
,  // measure 34
0010
0010
0010
0000
,  // measure 35
0100
0100
0100
0000
,  // measure 36
2000
0000
0010
0000
,  // measure 37
0001
0000
0100
0000
,  // measure 38
0001
0000
0100
0000
,  // measure 39
3001
0000
0000
0000
,  // measure 40
0002
0000
0010
0000
,  // measure 41
1000
0000
0100
0000
,  // measure 42
1000
0000
0100
0000
,  // measure 43
1003
0000
0000
0000
,  // measure 44
1000
0000
0001
0000
,  // measure 45
0010
0100
0010
0100
,  // measure 46
0010
0000
0000
0000
,  // measure 47
1000
0000
0010
0000
,  // measure 48
1000
0100
1000
0100
,  // measure 49
1000
0000
0001
0000
,  // measure 50
0010
0000
0001
0000
,  // measure 51
0100
0010
0100
0010
,  // measure 52
0100
0000
0001
0000
,  // measure 53
1000
0000
0100
0000
,  // measure 54
0020
0030
0002
0003
,  // measure 55
2000
3000
0200
0300
,  // measure 56
0020
0030
0002
0003
,  // measure 57
0200
0300
0010
1000
,  // measure 58
0020
0000
0030
1000
,  // measure 59
0200
0000
0300
0010
,  // measure 60
0002
0000
0003
0100
,  // measure 61
0010
0000
1000
0000
,  // measure 62
0100
0000
0010
0000
,  // measure 63
0001
0001
1000
0001
,  // measure 64
0010
0000
0100
0000
,  // measure 65
1000
0000
0010
1000
;

//---------------dance-single - Blank----------------
#NOTES:
     dance-single:
     Shortysnmn2010:
     Hard:
     8:
     0.495235,0.717669,0.183374,0.419141,0.213936,397.000000,376.000000,21.000000,48.000000,0.000000,0.000000,0.495235,0.717669,0.183374,0.419141,0.213936,397.000000,376.000000,21.000000,48.000000,0.000000,0.000000:
// measure 0
0000
0000
0000
0000
,  // measure 1
0000
0000
0000
0000
,  // measure 2
0000
0000
0000
0000
,  // measure 3
0000
0000
0000
0000
,  // measure 4
1000
0000
0000
0000
1100
0000
0000
0000
0010
0000
0000
0001
0000
0000
1000
0000
,  // measure 5
0001
0000
0101
0000
0001
0010
0001
0010
,  // measure 6
0001
0000
0000
0000
0101
0000
0000
0000
0010
0000
0000
1000
0000
0000
0100
0000
,  // measure 7
0010
0000
0011
0000
0001
0100
1000
0100
,  // measure 8
0001
0010
0001
1000
0002
0000
0100
0000
,  // measure 9
1003
0000
0001
0010
0000
0000
0110
0000
,  // measure 10
0100
1000
0001
1000
0100
0000
0110
0000
,  // measure 11
0010
0001
1000
0001
0000
0000
0101
0000
,  // measure 12
0010
1000
0001
0100
0010
0000
2000
0000
,  // measure 13
0100
0000
3001
0010
0000
0000
0012
0000
,  // measure 14
2000
0003
0100
0100
,  // measure 15
3001
0010
0100
1000
0001
0010
0100
0000
,  // measure 16
2000
0000
0000
0000
3000
0000
0001
0010
0001
0000
1000
0000
0000
0000
0001
0000
,  // measure 17
0100
0010
0100
0010
0100
0000
0001
0000
1000
0000
0100
0000
0010
0000
0100
0000
,  // measure 18
2000
0000
3001
0010
0100
1000
0010
0100
,  // measure 19
0010
1000
0001
0100
0010
0100
0001
1000
,  // measure 20
0002
0000
0000
0000
0013
0000
0100
0000
1000
0000
0000
0000
0001
0000
0100
0001
,  // measure 21
0100
0010
0100
0001
0200
0000
0320
0000
,  // measure 22
1030
0001
0100
0001
1000
0000
1100
0000
,  // measure 23
2002
0000
0000
3003
0000
0000
0001
0010
0001
0000
0000
0000
0000
0000
1000
0100
,  // measure 24
1000
0000
0100
0010
0100
0000
1000
0100
1000
0000
0100
0010
0100
0000
0000
0000
,  // measure 25
1000
0001
1000
0001
1000
0000
0001
0100
0001
0100
0001
0000
1000
0000
0000
0000
,  // measure 26
0001
0000
0100
0001
0100
0000
0010
0100
0010
0000
0100
0001
0100
0000
0000
0000
,  // measure 27
0010
1000
0010
1000
0010
0000
1000
0001
1000
0001
1000
0000
0001
0010
0001
0010
,  // measure 28
0002
0000
0000
0000
0003
0000
1000
0000
0100
1000
0100
0000
1000
0100
1000
0000
,  // measure 29
0002
0000
0000
0000
0003
0000
0010
0100
0010
0100
0010
0100
0010
0100
0010
0100
,  // measure 30
2000
0000
0000
0000
3000
0000
0001
0000
0100
0001
0100
0000
0001
0100
0001
0000
,  // measure 31
2000
0000
3100
0100
0010
0001
1000
0000
,  // measure 32
0001
0010
0011
0001
1000
0100
1100
0000
,  // measure 33
1000
0010
1010
1000
0001
0100
0101
0000
,  // measure 34
0001
1000
1001
0001
0010
0100
0110
0000
,  // measure 35
0100
1000
1010
0100
0001
0010
0011
0000
,  // measure 36
2002
0003
0020
3000
,  // measure 37
0002
0030
1003
0200
,  // measure 38
0002
0300
0020
0003
,  // measure 39
2000
0030
3001
0200
,  // measure 40
2000
0300
3010
0200
,  // measure 41
0002
0300
0013
0002
,  // measure 42
0200
0003
0310
1000
,  // measure 43
0002
0100
1000
0010
,  // measure 44
2003
0010
0100
0010
,  // measure 45
3001
0010
0100
1000
0001
0010
0100
1000
,  // measure 46
0001
0100
0001
1000
0010
0100
0001
0000
,  // measure 47
2000
0000
0000
0000
3000
0000
0100
0010
0100
0000
1000
0000
0000
0000
0001
0000
,  // measure 48
0100
0001
0100
0001
0100
0000
0001
0000
1000
0000
0100
0000
0010
0000
0100
0000
,  // measure 49
2000
0001
3001
0100
0010
0100
0001
1000
,  // measure 50
0010
0100
0010
1000
0001
0000
1001
0000
,  // measure 51
1000
0000
0000
0000
0100
0000
0020
0000
0001
0000
0000
0000
0130
0000
1000
0001
,  // measure 52
1000
0001
0100
0001
2000
0000
3002
0000
,  // measure 53
0103
0010
0100
0001
1000
0000
0100
0000
,  // measure 54
0010
0000
0000
0000
0000
0000
0001
0010
0001
0000
0000
0000
0000
0000
1000
0100
,  // measure 55
1000
0000
0000
0000
0000
0000
0001
0100
0001
0000
0000
0000
0000
0000
1000
0010
,  // measure 56
1000
0000
0000
0000
0000
0000
0100
0010
0100
0000
0000
0000
0000
0000
0010
0001
,  // measure 57
0010
0000
0000
0000
0000
0000
0001
0100
0002
0000
0000
0000
2003
0000
0000
0000
,  // measure 58
3200
0000
0010
0000
0310
0001
1000
0001
,  // measure 59
0200
0000
0000
0000
0010
0000
0000
0000
0310
0000
1000
0001
1000
0000
0000
0000
,  // measure 60
2200
0000
0000
0000
3300
0000
0010
0001
,  // measure 61
0100
0000
0000
0001
0000
0000
1000
0000
0100
0000
0000
0010
0000
0000
0001
1000
,  // measure 62
0002
0100
2003
0010
,  // measure 63
3200
0000
0001
0000
0320
0000
1000
0100
,  // measure 64
0032
0000
0000
0000
0000
0000
0000
0000
0000
0000
0000
0000
0003
0000
0100
0010
,  // measure 65
2000
0000
0100
3100
;

//---------------dance-single - ----------------
#NOTES:
     dance-single:
     :
     Beginner:
     1:
     0.096053,0.171586,0.008732,0.034928,0.000000,77.000000,76.000000,1.000000,4.000000,0.000000,0.000000,0.096053,0.171586,0.008732,0.034928,0.000000,77.000000,76.000000,1.000000,4.000000,0.000000,0.000000:
0000
0000
0000
0000
,
0000
0000
0000
0000
,
0000
0000
0000
0000
,
0000
0000
0000
0000
,
0010
0000
0000
0000
,
0100
0000
0000
0000
,
0010
0000
0000
0000
,
0100
0000
0000
0000
,
0001
0000
0001
0000
,
0001
0000
0000
0000
,
1000
0000
1000
0000
,
1000
0000
0000
0000
,
0010
0000
0010
0000
,
0010
0000
0000
0000
,
0100
0000
0100
0000
,
0100
0000
0000
0000
,
0001
0000
1000
0000
,
0001
0000
0000
0000
,
1000
0000
0000
0000
,
0100
0000
0000
0000
,
1000
0000
0001
0000
,
1000
0000
0000
0000
,
0001
0000
0000
0000
,
0100
0000
0000
0000
,
0010
0000
0000
0000
,
0010
0000
0000
0000
,
1000
0000
0000
0000
,
1000
0000
0000
0000
,
0001
0000
0001
0000
,
0001
0000
0000
0000
,
1000
0000
1000
0000
,
1000
0000
0000
0000
,
0010
0000
0000
0000
,
0100
0000
0000
0000
,
0001
0000
0000
0000
,
0010
0000
0000
0000
,
0200
0000
0000
0300
,
0000
0000
0000
0000
,
2000
0000
0000
3000
,
0000
0000
0000
0000
,
0002
0000
0000
0003
,
0000
0000
0000
0000
,
0020
0000
0000
0030
,
0000
0000
0000
0000
,
0100
0000
0010
0000
,
0100
0000
0010
0000
,
0100
0000
0010
0000
,
0100
0000
0000
0000
,
1000
0000
0000
0000
,
0001
0000
0000
0000
,
0100
0000
0000
0000
,
0100
0000
0000
0000
,
0010
0000
0000
0000
,
1000
0000
0000
0000
,
0001
0000
1000
0000
,
0001
0000
1000
0000
,
0001
0000
1000
0000
,
0001
0000
1000
0001
,
1000
0000
0000
0000
,
0001
0000
0000
0000
,
1000
0000
0000
0000
,
0100
0000
0100
0000
,
0100
0000
0000
0000
,
0010
0000
0000
0000
,
0010
0000
0000
0000
,
0001
0000
1001
0000
;

//---------------dance-single - ----------------
#NOTES:
     dance-single:
     :
     Medium:
     5:
     0.304376,0.373188,0.096053,0.253231,0.000000,244.000000,233.000000,11.000000,29.000000,0.000000,0.000000,0.304376,0.373188,0.096053,0.253231,0.000000,244.000000,233.000000,11.000000,29.000000,0.000000,0.000000:
// measure 0
0000
0000
0000
0000
,  // measure 1
0000
0000
0000
0000
,  // measure 2
0000
0000
0000
0000
,  // measure 3
0000
0000
0000
0000
,  // measure 4
1000
0000
0100
0000
0010
0000
0000
0010
,  // measure 5
0000
0001
0100
0010
,  // measure 6
1000
0000
0001
0000
0100
0000
0000
0100
,  // measure 7
0000
0010
1000
0100
,  // measure 8
0010
0001
0200
0300
,  // measure 9
0001
0000
1000
0100
0000
0000
0010
0000
,  // measure 10
0001
1000
2000
3000
,  // measure 11
0010
0100
0010
0100
0000
0000
0001
0000
,  // measure 12
1000
0200
0300
1000
,  // measure 13
0001
0000
0010
0001
0000
0000
0100
0000
,  // measure 14
1000
0000
0100
0001
,  // measure 15
1000
0000
0001
0000
,  // measure 16
2000
0000
3000
0100
0010
0100
0000
0010
,  // measure 17
0100
1000
0001
0100
,  // measure 18
0100
0000
0001
1000
0001
0000
1000
0000
,  // measure 19
0100
0010
0001
0100
,  // measure 20
0010
0000
1000
0010
1000
0000
0100
0000
,  // measure 21
0010
0000
0001
0010
0001
0000
1000
0000
,  // measure 22
0100
1000
0100
0010
,  // measure 23
0001
0000
0000
0100
0001
0000
0000
1000
,  // measure 24
0100
0000
0100
0000
0100
0001
0100
0000
,  // measure 25
0100
1000
0010
0100
,  // measure 26
0001
0000
0001
0000
0001
0010
0001
0000
,  // measure 27
0001
0000
0100
0000
0010
1000
0100
0000
,  // measure 28
1000
0000
0000
1000
0001
0000
0100
0000
,  // measure 29
0100
0000
0000
0001
1000
0000
0100
0000
,  // measure 30
0100
0000
0000
1000
0001
0000
0010
0000
,  // measure 31
0010
0000
0100
1000
0100
1000
0100
0000
,  // measure 32
0010
0011
0000
0101
,  // measure 33
0000
1100
0000
1010
,  // measure 34
0100
0101
0000
0011
,  // measure 35
0000
0000
1010
0000
0001
0100
0001
0000
,  // measure 36
2000
0000
3200
0000
,  // measure 37
0302
0000
0203
0010
,  // measure 38
0320
0000
0032
0100
,  // measure 39
0203
0000
0320
1000
,  // measure 40
2030
0000
3002
0010
,  // measure 41
0023
0000
2030
0010
,  // measure 42
3020
0000
0032
0000
,  // measure 43
2003
0000
3200
0000
,  // measure 44
0310
0001
0001
0100
,  // measure 45
1000
1000
0100
0010
,  // measure 46
1000
0001
1000
0001
1000
0000
1001
0000
,  // measure 47
0001
0000
0000
1000
0100
1000
0000
0100
,  // measure 48
1000
0001
0010
1000
,  // measure 49
0010
0001
0100
1000
,  // measure 50
0100
0010
1000
0001
,  // measure 51
0010
0000
0100
0010
0100
0000
1000
0000
,  // measure 52
0010
0000
0100
0010
0100
0000
0001
0000
,  // measure 53
0000
1000
0100
0000
1000
0000
0010
0000
,  // measure 54
2000
0000
3000
0001
0200
0000
0300
0001
,  // measure 55
2000
0000
3000
1000
0200
0000
0300
0100
,  // measure 56
0020
0000
0030
0010
0002
0000
0003
0001
,  // measure 57
2000
0000
3000
1000
0001
0000
0100
0000
,  // measure 58
0020
0000
0000
0030
0000
1000
0010
0000
,  // measure 59
0100
0001
0001
0010
,  // measure 60
0200
0000
0000
0000
0300
0000
1000
0100
,  // measure 61
0010
0000
0000
0001
0100
0000
0000
0010
,  // measure 62
1000
0000
0100
0010
,  // measure 63
0001
1000
0100
0010
,  // measure 64
1001
0000
0000
0010
,  // measure 65
1001
0000
0000
1100
;
