#TITLE:I Like That;
#SUBTITLE:;
#ARTIST:Richard Vission;
#TITLETRANSLIT:;
#SUBTITLETRANSLIT:;
#ARTISTTRANSLIT:;
#GENRE:;
#CREDIT:;
#BANNER:;
#BACKGROUND:;
#LYRICSPATH:;
#CDTITLE:;
#MUSIC:I Like That.mp3;
#OFFSET:-0.076000;
#SAMPLESTART:48.750999;
#SAMPLELENGTH:14.957000;
#SELECTABLE:YES;
#BPMS:0.000000=128.197998
;
#STOPS:
;
#BGCHANGES:;
#KEYSOUNDS:;
#ATTACKS:;

//---------------dance-single - Blank----------------
#NOTES:
     dance-single:
     Shortysnmn2010:
     Hard:
     7:
     0.426722,0.452410,0.218565,0.105235,0.125473,369.000000,342.000000,27.000000,13.000000,0.000000,0.000000,0.426722,0.452410,0.218565,0.105235,0.125473,369.000000,342.000000,27.000000,13.000000,0.000000,0.000000:
// measure 0
0000
0000
0000
0000
,  // measure 1
0000
0000
0000
0000
,  // measure 2
1001
0000
0100
1000
0001
1000
0001
0100
,  // measure 3
0000
0010
1000
0100
1000
0000
1010
0000
,  // measure 4
0101
0000
0001
0000
0010
0100
0010
0100
,  // measure 5
0000
1000
0100
0010
0001
0100
0001
0000
,  // measure 6
1001
0000
1000
0000
0100
0010
0100
0010
,  // measure 7
0000
0100
0001
0100
1000
0010
1010
0000
,  // measure 8
0101
0000
0010
0000
1000
0100
1000
0100
,  // measure 9
0020
0000
0000
0030
,  // measure 10
1001
0000
0100
0001
0010
0001
0010
0001
,  // measure 11
0000
1000
0010
0001
0010
0000
0110
0000
,  // measure 12
1001
0000
0010
0001
0100
1000
0100
1000
,  // measure 13
0000
0100
0010
0100
0001
0010
0100
1000
,  // measure 14
1100
1000
0001
0002
,  // measure 15
0003
1000
0010
0100
0010
0000
0110
0000
,  // measure 16
0101
0001
1000
2000
,  // measure 17
3000
0010
0100
0001
0100
0010
1000
0001
,  // measure 18
2000
0000
0000
0000
0000
0000
0000
0000
3000
0000
0010
0000
0000
0100
0000
0000
,  // measure 19
0001
0000
0000
0010
0000
0000
0100
0000
,  // measure 20
1000
0000
0000
0000
0000
0000
0000
0000
1000
0000
0010
0000
0000
0100
0000
0000
,  // measure 21
0001
0000
0000
0010
0000
0000
0100
0000
,  // measure 22
1000
0000
0000
0000
0000
0000
0000
0000
0000
0000
0001
0000
0000
0010
0000
0000
,  // measure 23
0001
0000
0000
0000
0000
0000
0100
0000
0000
0000
0100
0010
0000
0000
1000
0000
,  // measure 24
0001
0000
0000
0000
0000
0000
0000
0000
0000
0000
0010
0000
0000
0100
0000
0000
,  // measure 25
1000
0000
0000
0000
0000
0000
1001
0000
0000
0000
0000
0100
0010
0000
0000
0000
,  // measure 26
1000
0001
0200
0000
0010
0000
0310
0000
,  // measure 27
0100
0002
0010
0000
0103
0000
1010
0000
,  // measure 28
0101
0001
0020
0000
0100
0000
0130
0000
,  // measure 29
1000
0002
0100
0000
1003
0000
0001
0000
,  // measure 30
0110
0000
0100
1000
0010
1000
0200
0000
,  // measure 31
0010
0001
1300
0110
,  // measure 32
1001
1000
0001
0000
0100
0010
0100
0000
,  // measure 33
0001
0010
0001
0000
1000
0100
1000
0000
,  // measure 34
0001
0100
0010
0100
0001
0100
0010
0100
,  // measure 35
0000
0010
1000
0200
0010
0000
0310
0000
,  // measure 36
0001
0100
0010
1000
0010
0100
0001
0100
,  // measure 37
0000
0001
0010
0001
1000
0100
1000
0100
,  // measure 38
0000
0010
0100
1000
0001
0000
1001
0000
,  // measure 39
0000
1000
0010
0100
0010
0000
0110
0000
,  // measure 40
0000
0100
0001
0010
0001
1000
0100
0000
,  // measure 41
0000
1000
0010
0100
0001
0010
0001
0000
,  // measure 42
1000
0010
1000
0010
0001
0010
0001
0010
,  // measure 43
0001
0100
0001
0100
1000
0100
1000
0100
,  // measure 44
1000
0000
0000
0001
,  // measure 45
0000
0000
0010
0010
,  // measure 46
0010
0000
0000
0100
0010
0000
0000
0000
0100
0000
0000
0000
1000
0000
0000
0000
,  // measure 47
0001
0000
0000
0100
0001
0000
0000
0000
1000
0000
0000
0000
1010
0000
0000
0000
,  // measure 48
0100
0000
0000
0001
0100
0000
0000
0000
0010
0000
0000
0000
0010
0000
0000
0000
,  // measure 49
1000
0100
1000
0000
0001
0000
0011
0000
,  // measure 50
1000
0000
0000
0100
1000
0000
0000
0000
0010
0000
0000
0000
0100
0000
0000
0000
,  // measure 51
0001
0000
0000
0010
0001
0000
0000
0000
0100
0000
0000
0000
0110
0000
0000
0000
,  // measure 52
1000
0000
0000
0001
1000
0000
0000
0000
0001
0000
1000
0000
0001
0000
0000
0000
,  // measure 53
1000
0010
0100
0000
0010
0000
1001
0000
,  // measure 54
1000
0000
0000
0100
0010
0000
0000
0000
0001
0000
0000
0100
0010
0000
0000
0000
,  // measure 55
1000
0001
1000
0000
0001
0010
0100
0000
,  // measure 56
1000
0000
0000
0001
0010
0000
0000
0000
0001
0000
0000
1000
0010
0000
0000
0000
,  // measure 57
0100
0001
1000
0000
0100
1000
0100
0000
,  // measure 58
0010
0000
0000
0001
0000
0000
0100
0000
0010
0000
0100
0000
0000
0001
0000
0000
,  // measure 59
1000
0000
0000
0100
0000
0000
0010
0000
0100
0000
0010
0000
0000
0100
0000
0000
,  // measure 60
1000
0000
0000
0001
0000
0000
0100
0000
0010
0000
1000
0000
0000
0100
0000
0000
,  // measure 61
0010
0000
0000
0001
0000
0000
1000
0000
0001
0000
0100
0000
0000
0010
0000
0000
,  // measure 62
2000
0000
0000
0100
0000
0000
3100
0000
0010
0000
0100
0000
0000
0010
0000
0000
,  // measure 63
0002
0000
0000
0100
0000
0000
0103
0000
0010
0000
0100
0000
0000
0010
0000
0000
,  // measure 64
2000
0000
0000
0100
0000
0000
3001
0000
0100
0000
0010
0000
0000
1000
0000
0000
,  // measure 65
0101
0000
0000
1001
0000
0000
1000
0000
0100
0000
0010
0000
0110
0000
0000
0000
;

//---------------dance-single - ----------------
#NOTES:
     dance-single:
     Shortysnmn2010:
     Beginner:
     1:
     0.106391,0.133062,0.048570,0.032380,0.000000,92.000000,86.000000,6.000000,4.000000,0.000000,0.000000,0.106391,0.133062,0.048570,0.032380,0.000000,92.000000,86.000000,6.000000,4.000000,0.000000,0.000000:
0000
0000
0000
0000
,
0000
0000
0000
0000
,
1000
0000
0000
0000
,
0001
0000
0000
0100
,
0100
0000
0000
0000
,
0010
0000
0000
0000
,
1000
0000
0000
0000
,
0001
0000
0000
0010
,
0010
0000
0000
0000
,
0100
0000
0000
0000
,
1000
0000
0000
0000
,
0001
0000
0000
0100
,
0100
0000
0000
0000
,
0010
0000
0000
0000
,
1000
0000
0000
0000
,
0001
0000
0000
0010
,
0010
0000
0000
0000
,
0001
0000
0000
0000
,
0200
0000
0000
0000
,
0000
0000
0300
0000
,
0020
0000
0000
0000
,
0000
0000
0030
0000
,
2000
0000
0000
0000
,
0000
0000
3000
0000
,
0002
0000
0000
0000
,
0000
0000
0003
0000
,
1001
0000
0000
0000
,
0100
0000
0000
1000
,
1000
0000
0000
0000
,
0001
0000
0000
0000
,
1001
0000
0000
0000
,
0100
0000
0000
0010
,
0010
0000
0000
0000
,
1000
0000
0000
0000
,
1001
0000
0000
0000
,
0001
0000
0000
0000
,
0110
0000
0000
0000
,
1000
0000
0000
0000
,
1001
0000
0000
0000
,
0100
0000
0000
0000
,
0110
0000
0000
0000
,
1000
0000
0000
0000
,
0001
0000
0010
0000
,
0001
0000
0010
0000
,
0001
0000
0000
0000
,
1000
0000
0100
0100
,
0100
0000
0000
0000
,
1000
0000
1000
0000
,
1000
0000
0000
0000
,
0010
0000
0010
0000
,
0010
0000
0000
0000
,
0100
0000
0100
0000
,
0100
0000
0000
0000
,
0001
0000
0000
0000
,
1000
0000
0001
0000
,
1000
0000
1000
0000
,
0001
0000
0001
0000
,
1000
0000
0001
0000
,
1000
0000
1000
0000
,
0001
0000
0001
0000
,
1000
0000
0001
0000
,
1000
0000
1000
0000
,
0001
0000
0001
0000
,
1000
0000
1000
0000
,
1000
0000
0001
0000
,
1000
0000
0001
0001
;

//---------------dance-single - ----------------
#NOTES:
     dance-single:
     Shortysnmn2010:
     Medium:
     5:
     0.318018,0.319348,0.218565,0.064760,0.020238,275.000000,248.000000,27.000000,8.000000,0.000000,0.000000,0.318018,0.319348,0.218565,0.064760,0.020238,275.000000,248.000000,27.000000,8.000000,0.000000,0.000000:
// measure 0
0000
0000
0000
0000
,  // measure 1
0000
0000
0000
0000
,  // measure 2
1001
0001
0100
0010
,  // measure 3
0000
1000
0100
0000
0100
0000
1001
0000
,  // measure 4
0110
1000
0001
0001
,  // measure 5
0000
0010
0001
0000
0100
0000
0010
0000
,  // measure 6
1001
1000
0100
0100
,  // measure 7
0000
1000
0010
0000
0100
0000
0101
0000
,  // measure 8
0011
0001
0100
0100
,  // measure 9
0000
0010
0100
0000
0001
0000
0001
0000
,  // measure 10
1100
0010
0001
0001
,  // measure 11
0000
1000
0100
0000
0010
0000
0011
0000
,  // measure 12
0101
0100
0010
1000
,  // measure 13
0000
0001
0010
0000
0100
0000
1000
0000
,  // measure 14
0101
0010
1000
0001
,  // measure 15
0000
0010
0100
0000
0010
0000
1100
0000
,  // measure 16
1010
0100
0001
0010
,  // measure 17
0000
0001
0010
0000
0001
0000
0100
0000
,  // measure 18
0010
0000
0000
0000
0000
1000
0000
0000
,  // measure 19
0001
0000
0000
1000
0000
0000
0001
0000
,  // measure 20
1000
0000
0000
0000
0100
0010
0000
0000
,  // measure 21
0100
0000
0000
1000
0000
0000
0001
0000
,  // measure 22
0100
0000
0000
0000
0000
0010
0000
0000
,  // measure 23
0010
0000
0000
0100
0000
0001
0000
0100
,  // measure 24
0001
0000
0000
0000
0000
1000
0000
0000
,  // measure 25
0100
0000
0000
1001
0000
0000
0010
0000
,  // measure 26
1001
2000
0100
3100
,  // measure 27
1000
0001
0010
0110
,  // measure 28
1001
0002
0100
0103
,  // measure 29
0001
0000
0010
0000
0100
1000
0001
0000
,  // measure 30
1001
0020
0001
0130
,  // measure 31
1000
0001
0100
0110
,  // measure 32
1001
0200
0001
0310
,  // measure 33
1000
0000
0001
0000
0010
0100
1000
0000
,  // measure 34
1001
0000
1000
0000
0001
0000
0100
0001
,  // measure 35
0000
0001
0010
0000
0100
0000
1000
0000
,  // measure 36
1100
0000
0010
0000
0001
0000
0100
0001
,  // measure 37
0000
0001
0100
0000
0010
0000
1000
0000
,  // measure 38
1100
1000
0001
0001
,  // measure 39
0000
0100
0001
0000
1000
0000
1000
0000
,  // measure 40
0000
0100
1000
0000
0010
0000
0010
0000
,  // measure 41
0000
0100
0001
0000
1000
0000
1000
0000
,  // measure 42
0001
0100
1000
0010
,  // measure 43
0002
0203
2300
3020
,  // measure 44
0031
0000
0000
0000
,  // measure 45
0000
0000
1100
1001
,  // measure 46
0101
0001
0000
0000
,  // measure 47
1000
0000
0000
0001
1000
0000
0000
0000
0100
0000
0000
0000
0100
0000
0000
0000
,  // measure 48
0110
0010
0000
0000
,  // measure 49
0001
0100
0001
0000
0000
0000
1000
0000
,  // measure 50
0100
0000
0000
1000
0100
0000
0000
0000
0010
0000
0000
0000
0100
0000
0000
0000
,  // measure 51
1000
0000
0000
0001
1000
0000
0000
0000
0001
0000
0000
0000
0100
0000
0000
0000
,  // measure 52
0010
0110
0000
0000
,  // measure 53
0100
0001
0010
0000
0001
0000
0001
0000
,  // measure 54
1000
0000
0000
0100
1000
0000
0000
0000
0001
0000
0000
0000
0000
0000
0000
0000
,  // measure 55
0100
0001
0100
0000
0001
0100
0001
0000
,  // measure 56
0100
0000
0000
0001
0100
0000
0000
0000
0010
0000
0000
0000
0000
0000
0000
0000
,  // measure 57
1000
0001
1000
0000
0001
1000
0001
0000
,  // measure 58
1000
0000
0000
0100
1000
0000
0001
0000
,  // measure 59
0010
0000
0000
0100
0010
0000
0001
0000
,  // measure 60
0100
0000
0000
0010
1000
0000
0001
0000
,  // measure 61
1000
0000
0000
0100
0010
0000
0001
0000
,  // measure 62
1000
0000
0000
0001
0010
0000
0001
0000
,  // measure 63
0001
0000
0000
1000
0100
0000
1000
0000
,  // measure 64
1000
0000
0000
0010
0100
0000
0010
0000
,  // measure 65
0100
0000
0000
0001
0010
0001
0010
0000
;

//---------------dance-single - ----------------
#NOTES:
     dance-single:
     Shortysnmn2010:
     Easy:
     2:
     0.132989,0.239511,0.048570,0.024285,0.000000,115.000000,109.000000,6.000000,3.000000,8.000000,0.000000,0.132989,0.239511,0.048570,0.024285,0.000000,115.000000,109.000000,6.000000,3.000000,8.000000,0.000000:
0000
0000
0000
0000
,
0000
0000
0000
0000
,
1000
0000
0010
0000
,
1000
0000
0000
0001
,
0001
0000
0010
0000
,
0001
0000
0000
0000
,
1001
0000
0000
0000
,
1000
0000
0000
0010
,
0010
0000
1000
0000
,
0100
0000
0000
0000
,
0110
0000
0000
0000
,
1000
0000
0000
0001
,
0001
0000
0100
0000
,
0001
0000
0000
0000
,
1001
0000
0000
0000
,
1000
0000
0000
0010
,
0010
0000
0100
0000
,
0100
0000
0000
0000
,
0110
0000
0000
0M00
,
0001
0000
0000
10M0
,
1000
0000
0001
0M00
,
1000
0000
0000
10M0
,
1000
0000
0000
000M
,
0200
0000
0300
M000
,
0020
0000
0030
000M
,
0200
0000
0300
M010
,
0010
0000
0001
0000
,
0100
0000
0000
0010
,
0010
0000
1000
0000
,
0100
0000
0000
0000
,
1100
0000
0000
0000
,
1000
0000
0000
0001
,
0100
0000
0010
0000
,
0100
0000
0000
0000
,
0101
0000
0000
0000
,
0010
0000
1000
0000
,
0001
0000
0000
0000
,
1000
0000
0100
0000
,
1000
0000
0000
0000
,
0010
0000
0100
0000
,
0010
0000
0000
0000
,
1000
0000
0000
0000
,
0001
0001
1000
1000
,
0001
0001
1000
0001
,
1000
0000
0000
0000
,
0000
0000
0000
0000
,
1000
0000
0100
0000
,
0010
0000
0100
0000
,
1000
0000
0000
0000
,
0001
0001
0000
0000
,
1000
0000
0010
0000
,
0100
0000
0001
0000
,
0100
0000
0000
0000
,
0010
0010
0000
0000
,
0100
0000
0001
0000
,
0100
0000
0100
0000
,
0001
0000
0100
0000
,
0010
0000
0010
0000
,
0100
0000
0010
0000
,
1000
0000
0010
0000
,
0010
0000
1000
0000
,
1000
0000
0100
0000
,
1000
0000
0100
0000
,
0100
0000
0010
0000
,
0100
0000
0100
0000
,
0010
0000
0001
0001
;

//---------------dance-single - ----------------
#NOTES:
     dance-single:
     Shortysnmn2010:
     Challenge:
     9:
     0.557399,0.558859,0.356180,0.097140,0.344038,482.000000,438.000000,44.000000,12.000000,0.000000,0.000000,0.557399,0.558859,0.356180,0.097140,0.344038,482.000000,438.000000,44.000000,12.000000,0.000000,0.000000:
// measure 0
0000
0000
0000
0000
,  // measure 1
0000
0000
0000
0000
,  // measure 2
1000
0000
0100
0000
0010
0000
0100
0000
1000
0100
1000
0100
1000
0000
0100
0000
,  // measure 3
0000
0010
0001
0100
0010
0000
0110
0000
,  // measure 4
0101
0000
0000
0000
0010
0000
1000
0000
0001
0100
0001
0100
0001
0000
1000
0000
,  // measure 5
0000
0100
0010
0100
1000
0001
1000
0001
,  // measure 6
1001
0000
1000
0000
0100
0000
0010
0000
0100
0010
0100
0010
0100
0000
1000
0000
,  // measure 7
0000
0001
0100
0010
0100
0000
0110
0000
,  // measure 8
1010
0000
0000
0000
0001
0000
0010
0000
0001
0010
0001
0010
0001
0000
1000
0000
,  // measure 9
0000
0002
0010
0000
1003
0000
1001
0000
,  // measure 10
0101
0000
0010
0000
1000
0100
1000
0100
,  // measure 11
0000
1000
0010
0100
0001
1000
1100
0000
,  // measure 12
1001
0000
0010
0000
0001
0010
0001
0010
,  // measure 13
0000
0001
0100
1000
0100
0010
0100
0001
,  // measure 14
0011
0000
0000
0000
0100
0000
0000
0000
1000
0100
0010
0001
1000
0000
0100
0000
,  // measure 15
0000
1000
0010
0100
0001
2000
0001
0000
,  // measure 16
3001
0000
0000
0000
1000
0000
0000
0000
0010
0100
0001
1000
0010
0000
0100
0000
,  // measure 17
0000
0000
0002
0000
0100
0000
0000
0000
1003
0000
0000
0000
0001
1000
0100
0010
,  // measure 18
0100
0000
0000
0000
0000
0000
0000
0000
0010
0000
1000
0000
0000
0100
0000
0000
,  // measure 19
0001
0000
0000
0201
0000
0000
1000
0000
,  // measure 20
0310
0000
0000
0000
0000
0000
0000
0000
0100
0000
1000
0000
0000
0001
0000
0000
,  // measure 21
0100
0000
0000
0110
0000
0000
1000
0000
,  // measure 22
0001
0000
0000
0000
0000
0000
0000
0000
0000
0000
1000
0000
0000
0100
0000
0000
,  // measure 23
0100
0000
0000
0000
0000
0000
1000
0000
0000
0000
0001
0100
0000
0000
0010
0000
,  // measure 24
2000
0000
0000
0000
0000
0000
0000
0000
0000
0000
0001
0000
0000
0001
0000
0000
,  // measure 25
3010
0000
0000
0000
0000
0000
0110
0000
0000
0000
0000
0100
0010
0000
0000
0000
,  // measure 26
0001
0000
0000
0000
0001
0000
0000
0000
0001
0010
0100
1000
0001
0000
1000
0000
,  // measure 27
0000
1000
0001
0010
0100
0000
1100
0000
,  // measure 28
1010
0000
0000
0000
1000
0000
0000
0000
1000
0100
0010
0100
1000
0000
0001
0000
,  // measure 29
0000
0000
0001
0000
0100
0000
0000
0000
0010
1000
0001
1000
0010
0000
0100
0000
,  // measure 30
0110
0000
0000
0000
0010
0000
0000
0000
0010
1000
0001
0100
0010
0000
0100
0000
,  // measure 31
0000
0001
0100
1000
0100
0000
1010
0000
,  // measure 32
0101
0000
0000
0000
0100
0000
0000
0000
0100
0010
1000
0010
0100
0000
0001
0000
,  // measure 33
0000
2000
0100
0000
3100
0000
1100
0000
,  // measure 34
0001
0000
0010
0000
0100
0000
1000
0000
0001
0010
0001
0010
0100
0000
1000
0000
,  // measure 35
0000
0000
0010
0000
0100
0000
0001
0000
1000
0100
0010
0100
1000
0000
0001
0000
,  // measure 36
0000
0000
0010
0000
0100
0000
0010
0000
0001
1000
0001
1000
0010
0000
0100
0000
,  // measure 37
0000
0000
0010
0000
1000
0000
0001
0000
0100
1000
0100
1000
0001
0000
0010
0000
,  // measure 38
0000
0000
0100
0000
0001
0000
0010
0000
0001
1000
0001
1000
0100
0000
0010
0000
,  // measure 39
0000
0000
0100
0000
1000
0000
0010
0000
0100
0001
1000
0001
0010
0000
0100
0000
,  // measure 40
0000
0000
1000
0000
0010
0000
1000
0000
0001
0100
0010
0100
1000
0000
0100
0000
,  // measure 41
0000
0000
0010
0000
1000
0000
0100
0000
0001
0100
0010
0100
1000
0000
0001
0000
,  // measure 42
1000
0100
1000
0100
0010
0001
0010
0001
,  // measure 43
2000
0010
3020
0001
0032
0100
0203
1000
,  // measure 44
1300
0000
0000
0000
0000
0000
0001
0010
0000
0010
0001
0000
0010
0000
0100
1000
,  // measure 45
0000
1000
0100
0000
0010
0001
0000
0001
0010
0000
0000
0000
0110
0000
0000
0000
,  // measure 46
1100
0000
0000
0100
1000
0000
0000
0000
0001
0100
0010
0100
0001
0000
0000
0000
,  // measure 47
0110
0000
0000
1000
0100
0000
0000
0000
0010
0000
0100
0000
1100
0000
0000
0000
,  // measure 48
0010
0000
0000
0001
0100
0000
0000
0000
0010
1000
0001
0010
0100
0000
0000
0000
,  // measure 49
0010
0001
2100
0000
0010
0000
3010
0000
,  // measure 50
1001
0000
0000
1000
0100
0000
0000
0000
0010
0001
1000
0100
0010
0000
0000
0000
,  // measure 51
0001
0000
0000
0100
0010
0000
0000
0000
1000
0000
0001
0000
0100
0000
0000
0000
,  // measure 52
0110
0000
0000
0100
0001
0000
0000
0000
1000
0100
0010
0001
1000
0000
0000
0000
,  // measure 53
0001
0100
0101
0000
2010
0000
3100
0000
,  // measure 54
1010
0000
0000
1000
0001
0000
0000
0000
0101
0000
0000
0001
1000
0000
0000
0000
,  // measure 55
0100
1000
1100
0000
0001
0010
0011
0000
,  // measure 56
1100
0000
0000
1000
0100
0000
0000
0000
0110
0000
0000
0100
0010
0000
0000
0000
,  // measure 57
0100
0001
0101
0000
1000
0010
1010
0000
,  // measure 58
0001
0000
0000
0100
0010
0000
0100
0000
0001
0000
1000
0000
0001
0010
0000
0000
,  // measure 59
0100
0000
0000
1000
0100
0000
0010
0000
0001
0000
1000
0000
0010
1000
0000
0000
,  // measure 60
1001
0000
0000
0001
0010
0000
0001
0000
1000
0000
0100
0000
0010
0100
0000
0000
,  // measure 61
1000
0000
0000
0010
0100
0000
0010
0000
1000
0000
0001
0000
0100
0001
0000
0000
,  // measure 62
0010
0000
0000
0001
0010
0000
1000
0000
0010
0000
0001
0000
0010
0001
0000
0000
,  // measure 63
0100
0000
0000
0001
0100
0000
1000
0000
0100
0000
0001
0000
0100
0001
0000
0000
,  // measure 64
1010
0000
0000
0101
0000
0000
1001
0000
1000
0000
0100
0000
0000
0110
0000
0000
,  // measure 65
0011
0000
0000
1100
0000
0000
0001
0000
0010
0000
0010
0000
1100
0000
0000
0000
;
