#TITLE:Double Dragon;
#SUBTITLE:;
#ARTIST:Vomitron;
#TITLETRANSLIT:;
#SUBTITLETRANSLIT:;
#ARTISTTRANSLIT:;
#GENRE:;
#CREDIT:;
#BANNER:;
#BACKGROUND:;
#LYRICSPATH:;
#CDTITLE:;
#MUSIC:Vomitron - Double Dragon.mp3;
#OFFSET:-0.383000;
#SAMPLESTART:75.154999;
#SAMPLELENGTH:10.879999;
#SELECTABLE:YES;
#BPMS:0.000000=181.505997
,127.000000=175.826004
,288.000000=105.580002
,324.000000=106.680000
,326.000000=113.680000
;
#STOPS:
;
#BGCHANGES:;
#KEYSOUNDS:;
#ATTACKS:;

//---------------dance-single - ----------------
#NOTES:
     dance-single:
     :
     Beginner:
     1:
     0.087086,0.202033,0.016476,0.148281,0.000000,74.000000,72.000000,2.000000,18.000000,0.000000,0.000000,0.087086,0.202033,0.016476,0.148281,0.000000,74.000000,72.000000,2.000000,18.000000,0.000000,0.000000:
0000
0000
0000
0000
,
0000
0000
0000
0000
,
0000
0000
0000
0000
,
0000
0000
0000
0000
,
1000
0000
0000
0000
,
0001
0000
0000
0000
,
1000
0000
0000
0000
,
0001
0000
0000
0000
,
0010
0000
0000
0000
,
0100
0000
0000
0000
,
0010
0000
0000
0000
,
0100
0000
0000
0000
,
0010
0000
0000
0000
,
0010
0000
0000
0000
,
0010
0000
0000
0000
,
1001
0000
0000
0000
,
2000
0000
0000
3000
,
0000
0000
0000
0000
,
0002
0000
0000
0003
,
0000
0000
0000
0000
,
0200
0000
0000
0300
,
0000
0000
0000
0000
,
0020
0000
0000
0030
,
0000
0000
0000
0000
,
1000
0000
0000
0000
,
0001
0000
0000
0000
,
0010
0000
0000
0000
,
0001
0000
0000
0000
,
1000
0000
0000
0000
,
0100
0000
0000
0000
,
1000
0000
0000
0000
,
0000
0000
0000
0000
,
0001
0000
0000
0000
,
1000
0000
0000
0000
,
0001
0000
0000
0000
,
1000
0000
0000
0000
,
0100
0000
0000
0000
,
0010
0000
0000
0000
,
0100
0000
0000
0000
,
0010
0000
0000
0000
,
0001
0000
0000
0000
,
0100
0000
0000
0000
,
0001
0000
0000
0000
,
0100
0000
0000
0000
,
0010
0000
0000
0000
,
1000
0000
0000
0000
,
0010
0000
0000
0000
,
1000
0000
0000
0000
,
0002
0000
0000
0000
,
0003
0000
0000
0000
,
2000
0000
0000
0000
,
3000
0000
0000
0000
,
0200
0000
0000
0000
,
0300
0000
0000
0000
,
0020
0000
0000
0000
,
0030
0000
0000
0000
,
0001
0000
0000
0000
,
0100
0000
0000
0000
,
0010
0000
0000
0000
,
1000
0000
0000
0000
,
0001
0000
0000
0000
,
0010
0000
0000
0000
,
0100
0000
0000
0000
,
1000
0000
0000
0000
,
0020
0000
0000
0000
,
0030
0000
0000
0000
,
2000
0000
0000
0000
,
3000
0000
0000
0000
,
0200
0000
0000
0000
,
0300
0000
0000
0000
,
0020
0000
0000
0000
,
0030
0000
0000
0000
,
0001
0000
1000
0000
,
0001
0000
0000
0000
,
0010
0000
0100
0000
,
0010
0000
0000
0000
,
0001
0000
0100
0000
,
0002
0003
2000
3000
,
0002
0003
2000
3000
,
0010
0000
0100
0000
,
0010
0000
0100
0000
,
2002
0000
0000
3003
;

//---------------dance-single - ----------------
#NOTES:
     dance-single:
     :
     Medium:
     6:
     0.325983,0.472852,0.131805,0.222422,0.000000,277.000000,261.000000,16.000000,27.000000,0.000000,0.000000,0.325983,0.472852,0.131805,0.222422,0.000000,277.000000,261.000000,16.000000,27.000000,0.000000,0.000000:
0000
0000
0000
0000
,
0000
0000
0000
0000
,
0000
0000
0000
0000
,
0000
0000
0000
0000
,
1000
0000
0000
0000
0000
0100
0010
0000
,
0001
0000
0000
0000
0000
1000
0001
0000
,
0200
0000
0300
0000
,
0010
0000
1000
0001
0000
0000
0010
0000
,
0010
0000
0000
0000
0000
0100
1000
0000
,
0001
0000
0000
0000
0000
0100
0010
0000
,
0100
0000
0000
0000
0000
0001
0100
0000
,
0001
0000
0000
1000
0000
0000
0001
0000
,
0220
0000
0330
1000
,
0202
0000
0303
0010
,
2002
0000
3003
0000
,
0220
0000
0330
0000
,
1000
0000
0000
1001
0000
0000
0000
0101
,
0000
0000
0010
1000
,
0001
0000
0000
0010
0000
0000
0000
0011
,
0000
0100
0100
1000
,
0010
0000
0000
0100
0000
0000
0000
0110
,
0000
0000
0000
0000
0001
0000
0010
0001
,
0000
1000
0100
0100
,
1000
0001
0100
0010
,
0100
0000
0000
0100
0000
0000
0100
0000
,
0001
0000
0000
0001
0000
0000
0001
0000
,
0010
0000
0000
0010
0000
0000
0010
0000
,
0100
0000
0000
0100
0000
0000
0100
0000
,
1000
0000
0000
0001
0000
0000
1000
0000
,
0010
0000
0000
0100
0000
0000
0001
0000
,
2000
0000
0000
0000
,
0001
0000
0000
3001
0000
0000
0000
0000
,
0000
1000
0100
0000
1000
0100
0000
1000
,
0000
0001
0000
0002
0000
0000
0103
0000
,
0000
0001
0100
0000
0001
0100
0000
0001
,
0000
0010
0000
0200
0000
0000
0310
0000
,
0000
0100
1000
0000
0100
1000
0000
0001
,
0000
0100
0000
0002
0000
0000
0103
0000
,
0000
0001
1000
0000
0001
1000
0000
0100
,
0000
0010
0000
0100
1000
0000
0000
0000
,
0000
0001
0100
0000
0001
0100
0000
0010
,
0000
0100
0000
0001
0000
0000
1001
0000
,
0000
1000
0100
0000
0010
0100
0000
1000
,
0000
0010
0000
0100
0000
0000
0110
0000
,
0000
0100
0001
0000
0100
0010
0000
1000
,
0000
0100
0000
0010
0000
0000
0011
0000
,
0000
0001
1000
0000
0100
1000
0000
0010
,
0000
0100
0000
0001
0000
0000
0000
0000
,
2000
3000
0001
0010
,
0200
0300
1000
0010
,
0200
0300
0001
1000
,
0002
0003
0010
0100
,
2000
3000
0010
1000
,
0200
0300
0010
0001
,
0200
0300
0001
0010
,
0002
0000
0000
0003
,
0000
1000
0100
0000
0010
0001
0000
1000
,
0000
0001
0000
0100
0000
0000
0010
0000
,
0000
0100
0001
0000
1000
0010
0000
0100
,
0000
0001
0000
0010
0000
0000
0100
0000
,
0000
1000
0010
0000
1000
0001
0000
0010
,
0000
0100
0000
1000
0000
0000
0001
0000
,
0000
0100
0010
0000
1000
0010
0000
1000
,
0000
0100
0000
0010
0000
0000
0000
0000
,
2000
0100
3100
1000
,
0002
0010
0013
0001
,
2000
0010
3010
1000
,
0002
0100
0103
0001
,
0010
0000
0100
0010
0100
0000
0010
0000
,
0100
0000
1000
0001
1000
0000
0001
0000
,
0100
0000
0010
0100
0010
0000
1000
0000
,
0001
0000
0100
0001
0100
0000
0010
0000
,
2000
0000
0000
3000
,
0001
0010
0100
1000
,
0001
0100
0001
1000
,
0010
1000
0100
0100
,
0010
0000
0001
0000
,
1001
0001
0110
0100
,
1010
0010
0101
0010
,
0110
0000
1000
0000
0001
0100
0000
0001
,
0100
0000
0001
0000
1000
0000
0010
0100
,
0002
0000
0000
0003
,
1000
0000
0000
0000
;

//---------------dance-single - ----------------
#NOTES:
     dance-single:
     :
     Hard:
     7:
     0.437783,0.574178,0.082378,0.164757,0.008238,372.000000,362.000000,10.000000,20.000000,0.000000,0.000000,0.437783,0.574178,0.082378,0.164757,0.008238,372.000000,362.000000,10.000000,20.000000,0.000000,0.000000:
// measure 0
0000
0000
0000
0000
,  // measure 1
0000
0000
0000
0000
,  // measure 2
0000
0000
0000
0000
,  // measure 3
0000
0000
0000
0000
,  // measure 4
1001
0000
0000
0000
0000
0001
0100
0010
,  // measure 5
1000
0000
0000
0000
0000
0010
1000
0100
,  // measure 6
0010
0001
0100
1000
,  // measure 7
0100
0010
0100
0010
0000
0000
1000
0001
,  // measure 8
1000
0000
0000
0000
0100
0000
0000
0000
1000
0000
0100
0000
0010
0000
0000
0001
,  // measure 9
0010
0000
0000
0000
0001
0000
0000
0000
0010
0000
0001
0000
0010
0000
0000
0001
,  // measure 10
1000
0000
0100
0000
1000
0001
1000
0010
,  // measure 11
0100
0000
0001
0100
0000
0000
0010
0100
,  // measure 12
0020
0000
0030
0000
0000
1000
0100
0010
,  // measure 13
0001
0000
0000
0000
0000
0100
0001
0010
,  // measure 14
0200
0000
0300
0000
0000
1000
0001
0020
,  // measure 15
0000
0000
0030
0000
,  // measure 16
1001
0000
0000
0101
0000
0000
0000
1001
,  // measure 17
0000
0000
1000
0000
0100
0010
0100
0000
,  // measure 18
0010
0000
0000
0011
0000
0000
0000
1001
,  // measure 19
0000
0000
1000
0000
0001
0100
0010
0000
,  // measure 20
0100
0000
0000
0101
0000
0000
0000
1010
,  // measure 21
0000
0000
0010
0000
0100
0001
1000
0100
,  // measure 22
0000
2000
0100
0000
0100
0000
3001
0000
,  // measure 23
1000
0000
0000
0001
0000
0000
0100
0000
,  // measure 24
0001
0100
0001
0100
0000
0010
0100
0000
,  // measure 25
0010
1000
0010
1000
0000
0100
1000
0000
,  // measure 26
0001
0010
0001
0010
0000
0100
0010
0000
,  // measure 27
0100
1000
0100
1000
0000
0001
0100
0000
,  // measure 28
0010
0100
0010
0100
0000
0001
0100
0000
,  // measure 29
0001
1000
0001
1000
0000
0100
0010
0000
,  // measure 30
0002
0000
0003
0000
,  // measure 31
2000
0000
3000
0000
,  // measure 32
0000
0001
0010
0000
0100
1000
0000
0001
,  // measure 33
0000
0100
0010
0100
0000
0000
0001
0000
,  // measure 34
0000
1000
0100
0000
0100
1000
0000
0010
,  // measure 35
0000
0100
0001
0100
0000
0000
0010
0000
,  // measure 36
0000
1000
0001
0000
0001
1000
0000
0010
,  // measure 37
0000
0100
0001
1000
0000
0000
0100
0000
,  // measure 38
0000
0010
0001
0000
0001
0010
0000
0100
,  // measure 39
0000
1000
0000
0001
0100
0010
1000
0001
,  // measure 40
0000
1000
0100
0000
1000
0001
0000
0010
,  // measure 41
0000
0001
1000
0100
0000
0000
1000
0000
,  // measure 42
0000
0001
0100
0000
0001
1000
0000
0010
,  // measure 43
0000
0100
0001
0010
0000
0000
0001
0000
,  // measure 44
0000
1000
0010
0000
0100
1000
0000
0100
,  // measure 45
0000
0001
0010
0100
0000
0000
0010
0000
,  // measure 46
0000
0100
0010
0000
0100
0001
0000
0100
,  // measure 47
0000
1000
0000
0001
0010
0001
0010
0100
,  // measure 48
2000
0100
0100
3001
,  // measure 49
0002
0010
0010
1003
,  // measure 50
2000
0010
0010
3100
,  // measure 51
0200
0010
0010
1300
,  // measure 52
2000
0010
0001
3100
,  // measure 53
0002
0010
0100
1003
,  // measure 54
0020
1000
0100
0031
,  // measure 55
0100
0100
0100
1001
,  // measure 56
0000
0010
0001
0000
1000
0010
0000
0100
,  // measure 57
0000
0010
1000
0002
0000
0000
0013
0000
,  // measure 58
0000
0001
0010
0000
0001
0100
0000
0010
,  // measure 59
0000
0100
0001
2000
0000
0000
3100
0000
,  // measure 60
0000
1000
0010
0000
0100
0010
0000
0100
,  // measure 61
0000
0010
0001
0020
0000
0000
0130
0000
,  // measure 62
0000
0001
1000
0000
1000
0001
0000
0010
,  // measure 63
0000
0010
0000
0100
1000
0100
0010
0001
,  // measure 64
1000
0100
1000
0100
1000
0100
0010
0000
,  // measure 65
0001
0010
0001
0010
0001
0010
0100
0000
,  // measure 66
1000
0001
1000
0001
1000
0001
0100
0000
,  // measure 67
0010
1000
0010
1000
0010
1000
0001
0000
,  // measure 68
2000
0000
0010
0000
3010
0100
0001
0000
,  // measure 69
2000
0000
0100
0000
3100
0010
0001
0000
,  // measure 70
0002
0000
0100
0000
0103
0010
1000
0000
,  // measure 71
0001
0001
0001
0110
,  // measure 72
1000
0100
0010
0001
,  // measure 73
0100
0100
0100
1000
,  // measure 74
1000
0100
0001
0010
,  // measure 75
0010
1000
0001
0100
,  // measure 76
1000
0010
0001
1000
,  // measure 77
0100
1000
0100
0010
0100
0001
0100
0010
,  // measure 78
0100
1000
0100
0010
0100
1000
0100
0001
,  // measure 79
0100
0000
0001
0000
0010
0100
0000
1000
,  // measure 80
0100
0000
0010
0000
0001
1000
0001
1000
,  // measure 81
0020
0000
0000
0000
,  // measure 82
0130
0000
0000
0000
;

//---------------dance-single - ----------------
#NOTES:
     dance-single:
     :
     Easy:
     3:
     0.182409,0.270201,0.041189,0.041189,0.000000,155.000000,150.000000,5.000000,5.000000,0.000000,0.000000,0.182409,0.270201,0.041189,0.041189,0.000000,155.000000,150.000000,5.000000,5.000000,0.000000,0.000000:
0000
0000
0000
0000
,
0000
0000
0000
0000
,
0000
0000
0000
0000
,
0000
0000
0000
0000
,
1001
0000
0000
0000
,
0110
0000
0000
0000
,
1001
0000
0000
0000
,
1000
1000
0000
0000
,
0001
0000
0000
0010
,
0010
0000
0000
0100
,
0100
0000
0000
1000
,
1000
0000
0000
0010
,
0010
0000
0000
0100
,
0001
0000
0000
1000
,
0001
0000
0000
0100
,
0010
0000
0000
0000
,
1000
0000
0000
1000
0000
0000
0000
1000
,
0000
0000
0001
0000
,
0010
0000
0000
0010
0000
0000
0000
0010
,
0000
0000
0100
1000
,
0100
0000
0000
0100
0000
0000
0000
0100
,
0000
0000
0000
0000
0010
0000
0000
0001
,
0000
0000
1000
0001
,
1000
0000
0000
0000
,
0001
0000
0000
1000
,
0100
0000
0000
0010
,
0001
0000
0000
0100
,
0010
0000
0000
1000
,
0001
0000
0000
0001
,
1000
0000
0000
0100
,
0010
0000
0000
0000
,
1001
0000
0000
0000
,
0001
1000
0100
0000
,
0010
0000
0000
0000
,
0001
1000
0100
0000
,
1000
0000
0000
0000
,
0010
0100
0001
0000
,
1000
0000
0000
0000
,
1000
0100
0001
0000
,
0100
0000
0000
0000
,
1000
0010
0001
0000
,
0010
0000
0000
0000
,
0100
0001
0010
0000
,
0001
0000
0000
0000
,
1000
0001
0100
0000
,
1000
0000
0000
0000
,
0100
0001
0010
0000
,
0100
0000
0000
0000
,
2000
0000
0000
0010
,
0010
0000
0010
0000
,
3010
0000
0000
0000
,
1001
0000
0000
0000
,
0002
0000
0000
0100
,
0100
0000
0100
0000
,
0103
0000
0000
0000
,
0010
0000
0000
0000
,
0100
0001
0010
0000
,
0100
0000
1000
0000
,
0100
0010
0001
0000
,
1000
0000
0000
0000
,
0010
1000
0001
0000
,
0100
0000
1000
0000
,
0100
0010
0100
0000
,
0001
0000
0000
0000
,
2000
0000
0000
0100
,
0100
0000
0100
0000
,
3100
0000
0000
1000
,
0001
0000
0010
0000
,
0002
0000
0000
0010
,
0010
0000
0010
0000
,
0013
0000
0000
0001
,
1000
0000
0100
0000
,
0010
0000
0001
0000
,
0100
0000
0000
0000
,
0010
0000
0000
0000
,
1000
0000
0000
0000
,
0001
0000
0000
0000
,
0010
0100
0010
0100
,
0010
0000
0100
0000
,
1000
0100
1000
0000
,
0001
0010
0001
1000
,
0002
0000
0000
0000
,
1003
0000
0000
0000
;

//---------------dance-single - ----------------
#NOTES:
     dance-single:
     :
     Challenge:
     9:
     0.607247,1.114580,0.123568,0.288325,0.168876,516.000000,501.000000,15.000000,35.000000,0.000000,0.000000,0.607247,1.114580,0.123568,0.288325,0.168876,516.000000,501.000000,15.000000,35.000000,0.000000,0.000000:
// measure 0
0000
0000
0000
0000
,  // measure 1
0000
0000
0000
0000
,  // measure 2
0000
0000
0000
0000
,  // measure 3
0000
0000
0000
0000
,  // measure 4
2002
0000
3003
0000
0000
0010
0001
0100
,  // measure 5
0220
0000
0330
0000
0000
1000
0001
0010
,  // measure 6
0004
4000
0000
0000
0000
0000
0000
0000
0000
0000
0000
0000
3003
0000
0000
0000
,  // measure 7
0010
0001
1000
0000
0100
0000
0010
0000
0000
0000
0000
0000
0100
0000
1000
0000
,  // measure 8
0001
0000
0000
1000
0100
0000
1000
0000
0000
0000
0001
0000
0010
0000
0001
0100
,  // measure 9
0001
0000
0000
0100
0010
0000
1000
0000
0000
0000
0001
0000
0010
0000
0100
0010
,  // measure 10
0100
0000
0000
1000
0100
0000
0010
0000
0000
0000
0001
0000
0010
0000
0001
0000
,  // measure 11
2000
0000
3010
0002
0000
0003
0010
1000
,  // measure 12
0001
0000
0000
0100
0001
0000
0100
0000
0000
0000
0010
0000
1000
0000
0100
0000
,  // measure 13
0010
0000
0000
0100
1000
0000
0100
0000
0000
0000
0010
0000
0001
0000
0100
0000
,  // measure 14
0040
0400
0000
0000
0000
0000
0000
0000
0030
0300
0001
0000
1000
0000
0200
0000
,  // measure 15
0000
0000
0300
0000
,  // measure 16
1000
0100
0010
0001
0010
0100
1000
0002
,  // measure 17
0000
0100
1000
0013
,  // measure 18
0001
0100
1000
0100
0001
1000
0010
0200
,  // measure 19
0000
0010
1000
0301
,  // measure 20
1000
0010
0100
0001
0010
0001
0100
0002
,  // measure 21
0000
0000
0010
0000
1000
0000
0103
0010
,  // measure 22
0000
1010
1100
1010
,  // measure 23
1000
0001
0001
1000
0001
0001
1000
0000
,  // measure 24
0001
0010
0100
2000
0000
0010
3010
0000
,  // measure 25
1000
0100
0010
0002
0000
0100
0103
0000
,  // measure 26
0001
1000
0100
2000
0000
0001
3001
0000
,  // measure 27
1000
0010
0100
0002
0000
0010
0013
0000
,  // measure 28
0400
4000
0000
0000
0000
0000
0000
0000
0000
0000
0000
0000
3300
0000
0000
0000
,  // measure 29
0040
0004
0000
0000
0000
0000
0000
0000
0000
0000
0000
0000
0033
0000
0000
0000
,  // measure 30
0400
0040
0000
0000
0000
0000
0000
0000
0000
0000
0000
0000
0330
0000
0000
0000
,  // measure 31
1001
0000
0000
0110
0000
0000
0000
0000
,  // measure 32
1000
0100
0010
0001
1000
0010
1000
0001
,  // measure 33
0100
0010
1000
0002
0000
0000
0013
0000
,  // measure 34
0100
1000
0001
0100
1000
0100
0001
1000
,  // measure 35
0100
0010
0100
2000
0000
0000
3010
0000
,  // measure 36
0100
0001
0010
0100
0010
0001
0100
0010
,  // measure 37
0100
0001
0010
0200
0000
0000
1300
0000
,  // measure 38
0001
0100
1000
0100
0001
0010
0001
1000
,  // measure 39
0000
1100
0000
1000
0010
0100
0001
0000
,  // measure 40
1000
0100
0010
0001
1000
0010
0100
0001
,  // measure 41
1000
0100
0001
0200
0000
0000
0310
0000
,  // measure 42
0001
0010
0100
1000
0001
0100
0010
1000
,  // measure 43
0001
0010
0100
2000
0000
0000
3001
0000
,  // measure 44
0001
0010
0100
0010
0001
0100
0010
0100
,  // measure 45
0001
0010
1000
0020
0000
0000
0130
0000
,  // measure 46
0100
1000
0001
0010
1000
0010
0001
1000
,  // measure 47
0000
1001
0000
0001
0100
0010
1000
0001
,  // measure 48
2000
0100
3100
0010
0002
1000
1003
0010
,  // measure 49
0100
0001
0010
0001
1000
0010
1000
0100
,  // measure 50
0020
0001
0031
1000
0200
1000
1300
0001
,  // measure 51
0010
0100
1000
0010
0001
0010
0100
0001
,  // measure 52
1000
0000
0100
1000
0100
0000
1000
0000
0100
0000
1000
0100
1000
0000
0100
0000
,  // measure 53
0010
0000
0100
0010
0100
0000
0010
0000
0100
0000
0010
0100
0010
0000
0001
0000
,  // measure 54
0010
0000
0001
0010
0001
0000
0010
0000
0001
0000
0010
0001
0010
0000
0001
0000
,  // measure 55
2000
0000
3000
0000
,  // measure 56
0001
0100
0001
0010
0001
1000
0001
0100
,  // measure 57
0010
1000
0001
2000
0000
0000
3100
0000
,  // measure 58
1000
0010
1000
0001
1000
0100
1000
0001
,  // measure 59
0010
0100
1000
0020
0000
0000
0130
0000
,  // measure 60
0001
1000
0100
0010
0100
1000
0100
0001
,  // measure 61
0100
1000
0010
2000
0000
0000
3010
0000
,  // measure 62
0100
0001
0010
0001
1000
0001
0010
0001
,  // measure 63
0000
0101
0000
1001
0000
0000
0000
0000
,  // measure 64
2000
0010
3010
0100
0002
0100
0103
0010
,  // measure 65
1000
0001
0010
1000
0010
0001
1000
0100
,  // measure 66
0020
0001
0031
0100
0020
1000
1030
0100
,  // measure 67
0010
0001
0100
0001
0010
0100
1000
0010
,  // measure 68
1000
0000
0100
1000
0100
0000
0010
0000
0100
0000
0010
0100
0010
0000
0001
0000
,  // measure 69
0010
0000
0100
0010
0100
0000
1000
0000
0010
0000
0100
0010
0100
0000
0001
0000
,  // measure 70
0100
0000
0010
1000
0010
0000
0100
0000
0001
0000
1000
0001
1000
0000
0100
0000
,  // measure 71
0020
0000
0030
0000
,  // measure 72
0001
0011
1100
1001
,  // measure 73
1000
0010
1000
0100
0010
0100
1000
0010
,  // measure 74
0100
0001
0010
0001
1000
0001
0100
0010
,  // measure 75
1000
0001
1000
0100
0010
0001
1000
0010
,  // measure 76
1000
0100
0001
0100
1000
0010
0100
0001
,  // measure 77
1000
0000
0100
1000
0000
0100
1000
0000
0001
0010
0000
0001
0010
0000
0100
0010
0000
0100
0010
0000
0100
1000
0000
0100
,  // measure 78
1000
0000
0001
1000
0000
1000
0001
0000
0001
0010
0000
0010
0001
0000
1000
0100
0000
0100
1000
0000
0001
0100
0000
0001
,  // measure 79
0100
0000
0010
0000
1000
0002
0000
0010
,  // measure 80
0013
0000
0110
0000
0100
1000
0001
0100
,  // measure 81
0020
0000
0000
0000
,  // measure 82
0130
0000
0000
0000
;
