#TITLE:Dirty Talk;
#SUBTITLE:;
#ARTIST:Wynter Gordon;
#TITLETRANSLIT:;
#SUBTITLETRANSLIT:;
#ARTISTTRANSLIT:;
#GENRE:;
#CREDIT:;
#BANNER:;
#BACKGROUND:;
#LYRICSPATH:;
#CDTITLE:;
#MUSIC:Dirty Talk.mp3;
#OFFSET:-0.142000;
#SAMPLESTART:55.527000;
#SAMPLELENGTH:14.769000;
#SELECTABLE:YES;
#BPMS:0.000000=130.000000
;
#STOPS:
;
#BGCHANGES:;
#KEYSOUNDS:;
#ATTACKS:;

//---------------dance-single - Blank----------------
#NOTES:
     dance-single:
     Shortysnmn2010:
     Hard:
     8:
     0.466255,0.509184,0.331536,0.147349,0.287331,443.000000,398.000000,45.000000,20.000000,12.000000,0.000000,0.466255,0.509184,0.331536,0.147349,0.287331,443.000000,398.000000,45.000000,20.000000,12.000000,0.000000:
0000
0000
0000
0000
,
0000
0000
0000
0000
,
0000
0000
0000
0000
,
0000
0000
0000
0000
,
1000
0000
0000
0010
0000
0000
0100
0000
0000
0001
0000
0000
0011
0000
0000
0000
,
0001
0000
0000
1000
0000
0000
0100
0000
0000
0010
0000
0000
0110
0000
0000
0000
,
0100
0000
0000
1000
0000
0000
0010
0000
0000
0100
0000
0000
0101
0000
0000
0000
,
0002
0000
2003
0000
3200
0000
0310
0001
,
1000
0000
0000
0100
0000
0000
0001
0000
0000
0100
0000
0000
1100
0000
0000
0000
,
1000
0000
0000
0010
0000
0000
0001
0000
0000
0010
0000
0000
0110
0000
0000
0000
,
0100
0000
0000
0001
0000
0000
0010
0000
0000
0100
0000
0000
1100
0000
0000
0000
,
1000
0000
0000
1000
0000
0000
0001
0000
0000
0100
0000
0000
0101
0000
0000
0000
,
0001
0000
0000
1000
0100
0000
1000
0000
0010
0000
0000
1000
0001
0000
0100
0000
,
0001
0000
0000
0010
0100
0000
0000
0000
1000
0000
0001
0000
1MM1
0000
0000
0000
,
0100
0000
0000
0001
0100
0000
0010
0000
0100
0001
0000
0000
0010
0000
0100
0000
,
1000
0000
0000
0010
1000
0000
0100
0000
1000
0001
0000
0000
0010
0000
0001
0000
,
0010
0000
0000
0001
0100
0000
0001
0000
1000
0100
0000
0000
1000
0000
0001
0000
,
0010
0000
0100
0010
0000
0000
0011
0000
0000
1100
0000
0000
1001
0000
0000
0000
,
0010
0000
0000
0001
0100
0000
1000
0000
0100
0010
0000
0000
0100
0000
0001
0000
,
1000
0000
0000
0010
1000
0000
0100
0000
0010
0100
0000
0000
0001
0000
0100
0000
,
0010
0000
0000
0001
0100
0000
0010
0000
0100
0010
0000
0000
1000
0000
0001
0000
,
0010
0000
0000
0100
0000
0000
1000
0000
0000
0010
0000
0000
0010
0000
1000
0000
,
0001
0000
0000
0010
0000
0000
0010
0000
0000
0100
0000
0000
1000
0000
0010
0000
,
1000
0000
0000
0100
0000
0000
0010
0000
0000
0010
0000
0000
0001
0000
0100
0000
,
0010
1000
0001
0100
1000
0100
0001
1000
,
0001
0000
1000
0100
0000
1000
0100
0010
,
0100
0000
0000
0100
0000
0000
1000
0000
0000
0010
0000
0000
0010
0000
0100
0000
,
0001
0000
0000
0010
0000
0000
0010
0000
0000
0001
0000
0000
0100
0000
0010
0000
,
2000
0000
0000
3000
0000
0001
0100
0010
,
1000
0000
0000
1001
0000
0000
0001
0000
,
0010
0000
0000
0100
0000
0000
2000
0000
0000
0010
0000
0000
3010
0000
0100
0000
,
0110
0000
0000
1001
0000
0000
0101
0000
,
0010
0000
0000
1000
0000
0000
0100
0000
0000
0010
0000
0000
0001
0000
0010
0000
,
0002
0000
0100
0000
1000
0000
0013
0100
,
1000
0000
0000
0010
0000
0000
0200
0000
0000
0001
0000
0000
0301
0000
1000
0000
,
1001
0000
0000
0011
0000
0000
1100
0000
,
1000
0001
0010
0100
0010
0000
MM1M
0000
,
0001
0100
0010
1000
0001
0000
MMM1
0000
,
1000
0000
0000
0001
0010
0000
0000
0100
1000
0000
0010
0000
0100
0000
0000
0000
,
0201
0000
0310
0000
1000
0100
1000
0000
,
0010
0100
0010
0000
0100
0010
0100
0000
,
2010
0000
3100
0000
0010
0001
0100
0000
,
0001
0000
0000
0021
0000
0000
0130
0000
0000
0210
0000
0000
1300
0000
0001
0000
,
0010
0001
0100
0000
0010
1000
0100
0000
,
2100
0000
3010
0000
0102
0000
0013
0100
,
1000
0001
0010
0000
0001
0100
0101
0000
,
0010
0000
0000
1000
0000
0000
1001
0000
0000
0110
0000
0000
0110
0000
0000
0000
,
0001
0000
0000
0001
0000
0000
0010
0000
0000
0100
0000
0000
0100
0000
1000
0000
,
0010
0000
0000
1000
0000
0000
1000
0000
0000
0100
0000
0000
0010
0000
0001
0000
,
1000
0100
0001
0100
0010
0001
1000
0010
,
0100
0000
0000
0000
0001
0000
1000
0000
0000
0000
1000
0000
0001
0MM0
1000
0000
,
0100
0000
0000
0010
0000
0000
0001
0000
0000
1000
0000
0000
0010
0000
1000
0000
,
0100
0000
0000
0010
0000
0000
0001
0000
0000
1000
0000
0000
0010
0000
0100
0000
,
0010
0000
0000
0000
0000
1000
0001
0010
,
0100
0000
0000
0110
0000
0000
1001
0000
,
0001
0000
0000
0100
0000
0000
0110
0000
0000
0010
0000
0000
1000
0000
0001
0000
,
0010
0000
0000
0100
0000
0000
1100
0000
0000
1000
0000
0000
0001
0000
0010
0000
,
0100
0000
0000
1000
0000
0000
0100
0000
0001
0000
0100
0000
1000
0000
0010
0000
,
0200
0000
0001
0000
1000
0000
0310
1000
,
0001
0000
0000
0010
0000
0000
0011
0000
0000
0001
0000
0000
0010
0000
0100
0000
,
1000
0000
0000
0010
0000
0000
1010
0000
0000
1000
0000
0000
0010
0000
0100
0000
,
0001
0010
0100
1000
1100
0000
1100
0000
,
1000
0010
0100
0001
0101
0000
0011
0000
,
0210
1000
0001
0010
,
1300
0000
0000
2002
0000
3003
0010
0100
,
0001
0000
0000
1000
0000
0000
0100
0000
0010
0000
0001
0000
0010
0000
0100
0000
,
2000
0000
0010
0000
0100
0000
3010
0100
,
0001
0011
1100
1010
,
1001
0000
0000
0220
0000
0330
0000
1000
,
0001
0100
1000
0100
0001
0000
00M1
0000
,
1000
0100
0001
0100
1000
0000
10M0
0000
,
0001
0000
0000
1000
0100
0000
0000
0100
1000
0000
0000
0010
0100
0000
0000
0100
,
0010
0000
0000
1000
0001
0000
0000
0001
1000
0000
0100
0000
0010
0000
0000
0000
;

//---------------dance-single - ----------------
#NOTES:
     dance-single:
     :
     Beginner:
     1:
     0.088410,0.133996,0.022102,0.014735,0.000000,84.000000,81.000000,3.000000,2.000000,0.000000,0.000000,0.088410,0.133996,0.022102,0.014735,0.000000,84.000000,81.000000,3.000000,2.000000,0.000000,0.000000:
0000
0000
0000
0000
,
0000
0000
0000
0000
,
0000
0000
0000
0000
,
0000
0000
0000
0000
,
1000
0000
0000
0000
,
0010
0000
0000
0000
,
1000
0000
0000
0000
,
0001
0000
0001
0000
,
0001
0000
0000
0000
,
0010
0000
0000
0000
,
0100
0000
0100
0000
,
0100
0000
0100
0000
,
0100
0000
0000
0000
,
1000
0000
0000
0000
,
0001
0000
0000
0000
,
0010
0000
0010
0000
,
0010
0000
0000
0000
,
0100
0000
0000
0000
,
1000
0000
0000
0000
,
0010
0000
0010
0000
,
0010
0000
0000
0000
,
0100
0000
0000
0000
,
0002
0000
0000
0000
,
0000
0000
0003
0000
,
1000
0000
1000
0000
,
0001
0000
0001
0000
,
2000
0000
0000
0000
,
0000
0000
3000
0000
,
0100
0000
0000
0000
,
0010
0000
0000
0000
,
0110
0000
0000
0000
,
0001
0000
0000
0000
,
1000
0000
0000
0000
,
0010
0000
0010
0000
,
0010
0000
0000
0000
,
1000
0000
0000
0000
,
0100
0000
0000
0000
,
0010
0000
0000
0000
,
0001
0000
0000
0000
,
1000
0000
0000
0000
,
0010
0000
0000
0000
,
0001
0000
0000
0000
,
0010
0000
0000
0000
,
1000
0000
0000
0000
,
0100
0000
0000
0000
,
0100
0000
0000
0000
,
0001
0000
0000
0000
,
0100
0000
0100
0000
,
0100
0000
0000
0000
,
1000
0000
1000
0000
,
1000
0000
0000
0000
,
0001
0000
0001
0000
,
0001
0000
0000
0000
,
0010
0000
0000
0000
,
0110
0000
0000
0000
,
1001
0000
0000
0000
,
1000
0000
0000
0000
,
0001
0000
0001
0000
,
0001
0000
0000
0000
,
0010
0000
0000
0000
,
0100
0000
0000
0000
,
1000
0000
0000
0000
,
0010
0000
0000
0000
,
0001
0000
0000
0000
,
0010
0000
0000
0000
,
0100
0000
0000
0000
,
0001
0000
0001
0000
,
0001
0000
0000
0000
,
1000
0000
0000
0000
,
0100
0000
0000
0000
,
0010
0000
0000
0000
,
0001
0000
0000
0000
,
1000
0000
0000
0010
;

//---------------dance-single - ----------------
#NOTES:
     dance-single:
     :
     Easy:
     2:
     0.124194,0.187594,0.014735,0.029470,0.000000,118.000000,116.000000,2.000000,4.000000,0.000000,0.000000,0.124194,0.187594,0.014735,0.029470,0.000000,118.000000,116.000000,2.000000,4.000000,0.000000,0.000000:
// measure 0
0000
0000
0000
0000
,  // measure 1
0000
0000
0000
0000
,  // measure 2
0000
0000
0000
0000
,  // measure 3
0000
0000
0000
0000
,  // measure 4
1000
0000
0000
0001
,  // measure 5
0001
0000
0000
0010
,  // measure 6
0010
0000
0000
0000
,  // measure 7
0100
0000
0100
0000
,  // measure 8
0100
0000
0000
1000
,  // measure 9
1000
0000
0000
0001
,  // measure 10
0001
0000
0000
0010
,  // measure 11
0010
0000
0000
0000
,  // measure 12
0100
0000
0000
0000
,  // measure 13
1000
0000
0000
0000
,  // measure 14
0010
0000
0010
0000
,  // measure 15
0010
0000
0000
0000
,  // measure 16
0100
0000
0001
0000
,  // measure 17
1000
0000
0000
0000
,  // measure 18
0001
0000
0010
0000
,  // measure 19
0001
0000
0000
0000
,  // measure 20
1000
0000
0100
0000
,  // measure 21
0100
0000
0000
0000
,  // measure 22
2000
0000
0000
0000
,  // measure 23
0001
0000
3001
0000
,  // measure 24
1000
0000
0000
0000
,  // measure 25
0001
0000
0000
0000
,  // measure 26
0020
0000
0000
0000
,  // measure 27
0100
0000
0130
0000
,  // measure 28
0010
0000
0000
0000
,  // measure 29
0001
0000
0000
0000
,  // measure 30
1000
0000
0001
0000
,  // measure 31
1000
0000
1000
0000
,  // measure 32
0001
0000
1000
0000
,  // measure 33
0001
0000
0000
0000
,  // measure 34
0010
0000
0100
0000
,  // measure 35
0010
0000
0010
0000
,  // measure 36
0100
0000
0100
0000
,  // measure 37
0010
0000
0000
0000
,  // measure 38
0001
0000
0000
0000
,  // measure 39
1000
0000
0010
0000
,  // measure 40
1000
0000
0000
0000
,  // measure 41
0001
0000
0100
0000
,  // measure 42
0001
0000
0000
0000
,  // measure 43
0010
0000
0100
0000
,  // measure 44
1000
0000
0000
0000
,  // measure 45
0001
0000
0010
0000
,  // measure 46
1000
0000
0000
0000
,  // measure 47
0020
0000
0000
0000
,  // measure 48
0001
0000
0031
0000
,  // measure 49
1000
0000
0000
0000
,  // measure 50
0001
0000
0000
0000
,  // measure 51
2000
0000
0000
0000
,  // measure 52
0100
0000
3100
0000
,  // measure 53
0010
0000
0000
0000
,  // measure 54
0001
0000
0000
0000
,  // measure 55
0100
0000
0001
0000
,  // measure 56
0100
0000
0100
0000
,  // measure 57
0001
0000
0100
0000
,  // measure 58
0001
0000
0001
0000
,  // measure 59
0100
0000
0001
0000
,  // measure 60
0100
0000
0100
0000
,  // measure 61
0001
0001
0001
0000
,  // measure 62
0100
0100
0100
0000
,  // measure 63
0010
0000
1000
0000
,  // measure 64
0010
0000
0010
0000
,  // measure 65
1000
0000
0010
0000
,  // measure 66
1000
0000
1000
0000
,  // measure 67
0010
0000
0010
0000
,  // measure 68
1000
0000
1000
0000
,  // measure 69
0010
0010
0010
0000
,  // measure 70
1000
1000
1000
0000
,  // measure 71
0001
0000
1000
0000
,  // measure 72
0001
0000
1001
1001
;

//---------------dance-single - ----------------
#NOTES:
     dance-single:
     :
     Medium:
     5:
     0.257861,0.294790,0.073675,0.066307,0.000000,245.000000,235.000000,10.000000,9.000000,0.000000,0.000000,0.257861,0.294790,0.073675,0.066307,0.000000,245.000000,235.000000,10.000000,9.000000,0.000000,0.000000:
// measure 0
0000
0000
0000
0000
,  // measure 1
0000
0000
0000
0000
,  // measure 2
0000
0000
0000
0000
,  // measure 3
0000
0000
0000
0000
,  // measure 4
1000
0000
0000
0100
0000
0000
0010
0000
,  // measure 5
0010
0000
0000
0001
0000
0000
1000
0000
,  // measure 6
0001
0000
0000
0100
0000
0000
0010
0000
,  // measure 7
1000
0100
0010
0001
,  // measure 8
0100
0000
0000
0010
0000
0000
0100
0000
,  // measure 9
0001
0000
0000
1000
0000
0000
0001
0000
,  // measure 10
0010
0010
0010
0000
,  // measure 11
0100
1000
0100
0000
,  // measure 12
1000
0000
0010
0000
,  // measure 13
0100
0000
0001
0001
,  // measure 14
1000
1000
0001
0001
,  // measure 15
0010
0010
0001
0001
,  // measure 16
1000
1000
0100
0100
,  // measure 17
0020
0000
0030
0000
,  // measure 18
0001
0001
0100
1000
,  // measure 19
0100
0100
0010
1000
,  // measure 20
0100
0100
1000
0010
,  // measure 21
0100
0000
0000
0001
0000
0000
1001
0000
,  // measure 22
1001
0000
1000
0100
,  // measure 23
0020
0000
0001
0001
,  // measure 24
0031
0000
1000
0100
,  // measure 25
1000
0000
0000
1000
0000
0000
1000
0000
,  // measure 26
0001
0010
0100
0100
,  // measure 27
0100
0000
1000
0001
,  // measure 28
2000
0000
0000
0010
,  // measure 29
0010
0000
0000
0010
0000
0000
3010
0000
,  // measure 30
1001
0100
0001
0010
,  // measure 31
0100
0000
0000
1100
0000
0000
1000
0000
,  // measure 32
0010
0000
0100
0000
0001
0100
0001
0000
,  // measure 33
0200
1300
0200
0010
,  // measure 34
0310
1000
0100
0010
,  // measure 35
0001
0000
0000
0011
0000
0000
0000
0000
,  // measure 36
1000
0100
1000
0000
0100
0000
0000
0000
,  // measure 37
1000
0100
1000
0000
0100
0000
0000
0000
,  // measure 38
1000
0001
1000
0100
,  // measure 39
0010
0010
0001
0001
,  // measure 40
0100
0100
1000
1000
,  // measure 41
0100
0100
0010
0010
,  // measure 42
2000
0000
3000
0001
,  // measure 43
0010
0010
0100
0001
,  // measure 44
0100
0100
0010
1000
,  // measure 45
0010
0010
0001
1000
,  // measure 46
0010
0100
0110
0000
,  // measure 47
2000
0000
0100
0100
,  // measure 48
3100
0000
0000
0010
,  // measure 49
0001
0100
0010
0001
,  // measure 50
0010
0000
0000
1000
0000
0000
0100
0000
,  // measure 51
2100
0000
0001
0001
,  // measure 52
3001
0000
0010
0001
,  // measure 53
0200
0000
0000
0010
,  // measure 54
0010
0000
0000
0001
0000
0000
0310
0000
,  // measure 55
0110
0000
0000
1000
0000
0000
0001
0000
,  // measure 56
0010
0000
0000
0001
0000
0000
0100
0000
,  // measure 57
0010
0000
0000
1000
0000
0000
0100
0000
,  // measure 58
0010
0001
0100
1000
,  // measure 59
0100
0000
0000
0010
0000
0000
1000
0000
,  // measure 60
0100
0000
0000
0010
0000
0000
0001
0000
,  // measure 61
1000
1000
0100
0100
,  // measure 62
0010
0100
0010
0000
0001
0000
0001
0000
,  // measure 63
1000
0000
0000
0010
0000
0000
1000
0000
,  // measure 64
0100
0000
0000
0010
0000
0000
0001
0000
,  // measure 65
1000
0000
0000
0100
0000
0000
0010
0100
,  // measure 66
1000
0010
1010
1001
,  // measure 67
0001
0000
0000
0100
0000
0000
0010
0000
,  // measure 68
0100
0000
0000
0001
0000
0000
0010
0000
,  // measure 69
0100
1000
0100
0000
1000
0000
1000
0000
,  // measure 70
0001
0100
0001
0000
0100
0000
0100
0000
,  // measure 71
0010
1000
0001
0100
,  // measure 72
0010
0000
1000
0000
0100
0010
0100
0000
;
