#TITLE:Death by Glamour;
#SUBTITLE:;
#ARTIST:Toby Fox;
#TITLETRANSLIT:;
#SUBTITLETRANSLIT:;
#ARTISTTRANSLIT:;
#GENRE:;
#CREDIT:;
#BANNER:;
#BACKGROUND:;
#LYRICSPATH:;
#CDTITLE:;
#MUSIC:Death By Glamour.mp3;
#OFFSET:-0.062000;
#SAMPLESTART:90.873001;
#SAMPLELENGTH:12.952999;
#SELECTABLE:YES;
#BPMS:0.000000=148.000000
;
#STOPS:
;
#BGCHANGES:;
#KEYSOUNDS:;
#ATTACKS:;

//---------------dance-single - Blank----------------
#NOTES:
     dance-single:
     Shortysnmn2010:
     Beginner:
     1:
     0.102904,0.151770,0.044556,0.029704,0.000000,97.000000,91.000000,6.000000,4.000000,0.000000,0.000000,0.102904,0.151770,0.044556,0.029704,0.000000,97.000000,91.000000,6.000000,4.000000,0.000000,0.000000:
// measure 0
0000
0000
0000
0000
,  // measure 1
0000
0000
0000
0000
,  // measure 2
0000
0000
0000
0000
,  // measure 3
0000
0000
0000
0000
,  // measure 4
2000
3000
0000
0000
,  // measure 5
0000
0000
0000
0000
,  // measure 6
0002
0003
0000
0000
,  // measure 7
0000
0000
0000
0000
,  // measure 8
0020
0030
0000
0000
,  // measure 9
0000
0000
0000
0000
,  // measure 10
0200
0300
0000
0000
,  // measure 11
0000
0000
0000
0000
,  // measure 12
1000
0000
1000
0000
,  // measure 13
1000
0000
0000
0000
,  // measure 14
0001
0000
0001
0000
,  // measure 15
0001
0000
0000
0000
,  // measure 16
0100
0000
0000
0000
,  // measure 17
0100
0000
0000
0000
,  // measure 18
0100
0000
0100
0000
,  // measure 19
0100
0000
0000
0000
,  // measure 20
0010
0000
0000
0000
,  // measure 21
0010
0000
0000
0000
,  // measure 22
0010
0000
0010
0000
,  // measure 23
0010
0000
0000
0000
,  // measure 24
1001
0000
0000
0000
,  // measure 25
1000
0000
0000
0000
,  // measure 26
1001
0000
0000
0000
,  // measure 27
0001
0000
0000
0000
,  // measure 28
0110
0000
0000
0000
,  // measure 29
0100
0000
0000
0000
,  // measure 30
0110
0000
0000
0000
,  // measure 31
0010
0000
0000
0000
,  // measure 32
1000
0000
0000
0000
,  // measure 33
0001
0000
0000
0000
,  // measure 34
0010
0000
0000
0000
,  // measure 35
1000
0000
0000
0000
,  // measure 36
0010
0000
0000
0000
,  // measure 37
0100
0000
0000
0000
,  // measure 38
1000
0000
0001
0000
,  // measure 39
1000
0000
0001
0000
,  // measure 40
1000
0000
0000
0000
,  // measure 41
0010
0000
0000
0000
,  // measure 42
0100
0000
0000
0000
,  // measure 43
0001
0000
0000
0000
,  // measure 44
0010
0000
0000
0000
,  // measure 45
0100
0000
0000
0000
,  // measure 46
1000
0000
0000
0000
,  // measure 47
0010
0000
0000
0000
,  // measure 48
1000
0000
0000
0000
,  // measure 49
0100
0000
0000
0000
,  // measure 50
0010
0000
0000
0000
,  // measure 51
0001
0000
0000
0000
,  // measure 52
0100
0000
0000
0000
,  // measure 53
0010
0000
0000
0000
,  // measure 54
1000
0000
0000
0000
,  // measure 55
1001
0000
0000
0000
,  // measure 56
0001
0001
0000
0000
,  // measure 57
1000
0000
0000
0000
,  // measure 58
0010
0010
0000
0000
,  // measure 59
0100
0100
0000
0000
,  // measure 60
0010
0000
0000
0000
,  // measure 61
1000
0000
0000
0000
,  // measure 62
0100
0100
0000
0000
,  // measure 63
0010
0010
0000
0000
,  // measure 64
0001
0000
0000
0000
,  // measure 65
1000
0000
0000
0000
,  // measure 66
0001
0001
0000
0000
,  // measure 67
0100
0100
0000
0000
,  // measure 68
0010
0000
0000
0000
,  // measure 69
1000
0000
0000
0000
,  // measure 70
0100
0100
0000
0000
,  // measure 71
1000
1000
0000
0000
,  // measure 72
0001
0000
0000
0000
,  // measure 73
1000
0000
0000
0000
,  // measure 74
0010
0000
0000
0000
,  // measure 75
0100
0000
0100
0000
,  // measure 76
0100
0000
0000
0000
,  // measure 77
0010
0000
0000
0000
,  // measure 78
1000
0000
0000
0000
,  // measure 79
0001
0000
0001
0000
,  // measure 80
0001
0000
0000
0000
,  // measure 81
0000
0000
0000
1001
;

//---------------dance-single - Blank----------------
#NOTES:
     dance-single:
     Shortysnmn2010:
     Hard:
     9:
     0.562258,0.671872,0.289616,0.467841,0.445563,530.000000,491.000000,39.000000,63.000000,8.000000,0.000000,0.562258,0.671872,0.289616,0.467841,0.445563,530.000000,491.000000,39.000000,63.000000,8.000000,0.000000:
0000
0000
0000
0000
,
0000
0000
0000
0000
,
0000
0000
0000
0000
,
0000
0000
0000
0000
,
1000
0000
0000
0000
0001
0000
0000
0000
0010
0000
0000
0100
0000
0000
0010
0000
,
0000
0000
0100
0000
1000
0000
0000
0000
1001
0000
0000
1001
0000
0000
0000
0000
,
0001
0000
0000
0000
0100
0000
0000
0000
0010
0000
0000
0100
0000
0000
0010
0000
,
0000
0000
1000
0000
0001
0000
0000
0000
0011
0000
0000
0011
0000
0000
0000
0000
,
2100
0000
0000
3000
0002
0000
0000
0000
0100
0000
0000
0100
0000
0000
0013
0000
,
0000
0000
0100
0000
1000
0000
0000
0000
1010
0000
0000
1010
0000
0000
0000
0000
,
0102
0000
0000
0000
2003
0000
0000
0000
0010
0000
0000
0010
0000
0000
3100
0000
,
0000
0000
0010
0000
0001
0000
0000
0000
1001
0000
0000
1001
0000
0000
0000
0000
,
1000
0100
1000
0000
0001
0000
0010
0001
0000
0010
0001
0010
0001
0000
0010
0100
,
0010
0000
0100
0000
1000
0000
0000
0000
1001
0000
0000
1001
0000
0000
0000
0000
,
0001
0100
0001
0000
0100
0000
0010
1000
0000
0010
0100
0010
0100
0000
0001
0100
,
0001
0000
0100
0000
0010
0000
0000
0000
0110
0000
0000
0110
0000
0000
0000
0000
,
0100
0000
0001
0000
0010
0000
0001
0000
1000
0000
0100
1000
0000
0100
2000
0000
,
0000
0000
3001
0000
0010
0000
0001
0000
0101
0000
0000
0101
0000
0000
0000
0000
,
0010
0000
1000
0000
0001
0000
0010
0000
0100
0000
0010
0100
0000
0010
0200
0000
,
0000
0000
1300
0000
0001
0000
1000
0000
1010
0000
0000
1010
0000
0000
0000
0000
,
0100
0000
0001
0000
1000
0000
0100
0000
0010
0000
0001
0010
0000
0010
0002
0000
,
0000
0000
0103
0000
0010
0000
0100
0000
0110
0000
0000
0110
0000
0000
0000
0000
,
0010
0000
1000
0000
0100
0000
0010
0000
0001
0000
1000
0100
0000
0100
2000
0000
,
0000
0000
3001
0000
0100
0000
0001
0000
1001
0000
0000
1001
0000
0000
0000
0000
,
0001
0000
0010
0000
0001
0100
0000
0010
0000
0100
0001
0100
0001
0000
1000
0000
,
0010
0000
0100
0000
0010
0100
0000
0001
0000
0001
0100
0000
0001
0000
0010
0000
,
0001
0000
0100
0000
0010
0000
1000
0000
0002
0000
0000
0000
0000
0000
0000
0000
0000
0000
0000
0000
0003
0000
0000
0000
0000
0000
0000
0000
0000
0000
0100
0010
,
0100
0000
0000
0010
0000
0000
0100
0000
0001
0000
0010
0000
0001
0000
1000
0000
,
0100
0000
0100
0000
1000
0100
0000
0010
0000
0001
0010
0001
1000
0000
0010
0000
,
0100
0000
0001
0000
1000
0010
0000
0010
0000
1000
0010
0000
1000
0000
0100
0000
,
1000
0000
0100
0000
0010
0000
0001
0000
2000
0000
0000
0000
0000
0000
0000
0000
0000
0000
0000
0000
3000
0000
0000
0000
0000
0000
0000
0000
0000
0000
0001
0100
,
0001
0000
0000
1000
0000
0000
0010
0000
0100
0000
0001
0000
2000
0000
0001
0000
,
3001
0000
0100
0000
0010
1000
0000
0100
0000
0100
1000
0001
0100
0000
0010
0000
,
0100
0000
0001
0000
0010
0001
0000
1000
0000
0010
1000
0000
0001
0000
0100
0000
,
0001
0000
0100
0000
0010
0000
1000
0000
0002
0000
0000
0000
0000
0000
0000
0000
0000
0000
0000
0000
0003
0000
0000
0000
0000
0000
0000
0000
0000
0000
1000
0001
,
1000
0000
0000
0010
0000
0000
0100
0000
0001
0000
0010
0000
0100
0000
0000
0000
,
1000
0000
0001
0000
0010
0001
0000
1000
0000
1000
0010
0100
0001
0000
0001
0000
,
1000
0000
0100
0000
1000
0100
0000
0010
0000
0010
0001
0000
0100
0000
0010
0000
,
0100
0001
1000
0010
0100
0000
0000
0000
0001
1000
0100
0010
0100
0000
0000
0000
,
1000
0001
0010
0100
2000
0000
0001
0000
0002
0000
0000
0000
3003
0000
0000
0000
,
0202
0300
0020
0003
,
2030
0001
3020
0032
,
0200
0003
0020
0300
,
0130
0001
0100
0000
0010
1000
0010
0000
0200
0000
0000
0000
0310
0000
0000
0000
,
2002
0003
0200
3000
,
0302
1000
0203
2300
,
0020
3000
0002
0033
,
0010
0000
0100
0001
1000
0000
0100
0000
0010
0000
0000
0000
0100
0000
0000
0000
,
2200
0300
0020
3000
,
0032
1000
0010
1000
,
0020
0003
2000
0030
,
3001
0010
0001
0000
1000
0100
1000
0000
0002
0000
0000
0000
0103
0000
0000
0000
,
0202
0300
0020
0003
,
2030
0001
0010
0001
,
0020
3000
0002
0030
,
1003
0000
0000
1000
0000
0000
0010
0000
1000
0000
0000
0000
1001
0000
0000
0000
,
0011
0000
0000
0000
0001
0000
1000
0200
0000
0000
0000
0000
0010
0000
0310
0000
,
0001
0000
1000
0000
0010
0000
0100
0001
0000
0000
0000
0000
1000
0000
0100
0000
,
0020
0000
0000
0032
0000
0000
2003
0000
0002
0000
3000
0000
0103
0000
0001
0000
,
0010
0000
0000
0100
0000
0000
1000
0000
0010
0000
0000
0000
0100
0000
0010
0000
,
MM0M
0000
0100
0000
0001
0000
0010
0002
0000
0000
0000
0000
1000
0000
1003
0000
,
0010
0000
0100
0000
0010
0000
1000
0100
0000
0000
0000
0000
0010
0000
0001
0000
,
2000
0000
0000
3020
0000
0000
0032
0000
0020
0000
0003
0000
0130
0000
0010
0000
,
1000
0000
0000
0001
0000
0000
0010
0000
0100
0000
0000
0000
1000
0000
0100
0000
,
0010
0000
0000
0000
0011
0000
0001
0010
0000
0000
0000
0000
0001
0000
0100
0000
,
0010
0000
0100
0000
0100
0000
0001
0200
0000
0000
0000
0000
0010
0000
0310
0000
,
1000
0000
0000
0001
0000
0000
0010
0000
0001
0000
0000
0000
1000
0000
0100
0000
,
0020
0000
0000
0032
0000
0000
0203
0000
0020
0000
0300
0000
1030
0000
0010
0000
,
MM0M
0000
1000
0000
0100
0000
1000
0100
0000
0000
0000
0000
0010
0000
0001
0000
,
0100
0000
0001
0000
0101
0000
0100
0010
0000
0000
0000
0000
0100
0000
0002
0000
,
0010
0000
0000
0010
0000
0000
0010
0000
0013
0000
0000
0000
0100
0000
2000
0000
,
0010
0000
0000
0010
0000
0000
0010
0000
3010
0000
0000
0000
1000
0000
0001
0000
,
1000
0000
0001
0100
0001
0000
1000
0100
1000
0000
0001
0100
0001
0000
1000
0000
,
0000
0000
0001
0000
0010
0000
0000
0000
1001
0000
0000
1001
0000
0000
0000
0000
,
1000
0000
0010
0100
0010
0000
0100
0010
0100
0000
0010
0100
0010
0000
0001
0000
,
0000
0000
0010
0000
0100
0000
0000
0000
0011
0000
0000
0011
0000
0000
0000
0000
,
0001
0000
1000
0100
1000
0000
0100
0010
0100
0000
0010
0001
0010
0000
0100
0000
,
0000
0000
1000
0000
0010
0000
0000
0000
0110
0000
0000
0110
0000
0000
0000
0000
,
0001
0000
0100
0010
1000
0000
0010
0100
0001
0000
1000
0100
0010
0000
0001
0000
,
0000
0000
1000
0000
0100
0000
0000
0000
1001
0000
0000
1001
0000
0000
0000
0000
,
1000
0000
0000
0000
0001
0000
0000
0000
0010
0000
0000
0100
0000
0000
0010
0000
,
0000
0100
1000
0100
0010
0010
2002
0000
,
3003
M00M
0000
0000
;

//---------------dance-single - ----------------
#NOTES:
     dance-single:
     :
     Medium:
     6:
     0.350085,0.394602,0.051982,0.000000,0.063121,330.000000,323.000000,7.000000,0.000000,0.000000,0.000000,0.350085,0.394602,0.051982,0.000000,0.063121,330.000000,323.000000,7.000000,0.000000,0.000000,0.000000:
0000
0000
0000
0000
,
0000
0000
0000
0000
,
0000
0000
0000
0000
,
0000
0000
0000
0000
,
1000
0000
0100
0000
0010
0000
0000
0010
,
0000
0100
0010
0000
0100
0000
0000
0000
,
1000
0000
0001
0000
0100
0000
0000
0100
,
0000
0010
0100
0000
0001
0000
0000
0000
,
1000
0000
0100
0000
0010
0000
0000
0001
,
0000
1000
0100
0000
1000
0000
0000
0000
,
0001
0000
0100
0000
0001
0000
0000
0010
,
0000
1000
0010
0000
0001
0000
0000
0000
,
1000
0100
1000
0000
0001
0010
0001
0000
,
0100
0100
1001
0000
,
1000
0010
1000
0000
0001
0100
0001
0000
,
0010
0010
1100
0000
,
0010
0001
0100
0000
0010
1000
0100
0000
,
0010
0001
0001
0000
,
0100
1000
0001
0000
0010
1000
0100
0000
,
0010
0001
1000
0000
,
0100
0001
1000
0000
0010
0001
1000
0000
,
0001
0100
0001
0000
,
0100
0010
1000
0000
0100
0010
1000
0000
,
0010
0001
1000
0000
,
0001
0100
0001
0000
1000
0000
0001
0000
,
0010
0001
0010
0000
0001
0000
0100
0000
,
0010
1000
0000
0000
,
0001
0000
0010
0000
,
0100
1000
0100
0000
1000
0000
0010
0000
,
0100
1000
0100
0000
0010
0000
1000
0000
,
0001
0010
0001
0000
0010
0000
0000
0000
,
0100
0000
1000
0000
,
0001
0100
1000
0000
0100
0000
0001
0000
,
1000
0100
0001
0000
0100
0000
1000
0000
,
0001
1000
0100
0000
0000
0000
0000
0000
,
0001
0000
0010
0000
,
0010
0001
1000
0000
0010
0000
0001
0000
,
0010
1000
0001
0000
0010
0000
1000
0000
,
0010
0001
0010
0000
0010
0100
0010
0000
,
0100
1000
0100
0000
1001
0000
0000
0000
,
1100
0000
0010
0000
,
0001
0100
1000
0100
,
0001
0000
1000
0000
,
0010
0001
1000
0000
0100
1000
0010
0000
,
0001
0000
1100
0000
,
0010
0001
0100
0010
,
0100
0000
0001
0000
,
0010
0001
0100
0000
0100
0001
0010
0000
,
0100
0000
1000
0000
,
0010
1000
0100
0001
,
0100
0000
1000
0000
,
0001
1000
0100
0000
1000
0001
0100
0000
,
0001
0000
0010
0000
,
1000
0010
0001
0100
,
1000
0000
0100
0000
,
0001
0000
0000
0100
0000
0000
0001
0000
0100
0000
0000
0000
0001
0000
0000
0000
,
1000
0000
0100
1000
0000
0000
0010
0100
,
0001
0000
1000
0000
0100
0000
0010
0001
,
0100
0000
0000
0100
0000
0000
0001
0000
0100
0000
0000
0000
0010
0000
1000
0000
,
0100
0000
0000
0100
0000
0000
1000
0000
0100
0000
0000
0000
0010
0000
0001
0000
,
0000
1000
0001
0100
0000
0000
0010
1000
,
0001
1000
1001
0000
,
0001
0000
0000
0001
0000
0000
0010
0000
1000
0000
0000
0000
0010
0000
0001
0000
,
0010
0000
0000
0010
0000
0000
1000
0000
0010
0000
0000
0000
0001
0000
1000
0000
,
0001
0000
0100
0010
0000
0000
0100
0000
,
0001
0010
0100
1000
,
0010
0000
0000
0010
0000
0000
1000
0000
0001
0000
0000
0000
0010
0000
0000
0000
,
0001
0000
0000
0001
0000
0000
1000
0000
0010
0000
0000
0000
0100
0000
0001
0000
,
0000
0100
0001
0100
0000
0000
0010
0000
,
1000
0100
0100
1000
,
0010
0000
0000
0010
0000
0000
0100
0000
0001
0000
0000
0000
0100
0000
0000
0000
,
1000
0000
0000
1000
0000
0000
0100
0000
0001
0000
0000
0000
1000
0000
0000
0000
,
0100
0000
0000
0000
1000
0000
0000
0000
0010
0000
0000
0010
0000
0000
0010
0000
,
0000
0000
0100
0000
0001
0000
0000
0000
0010
0000
0000
0010
0000
0000
0000
0000
,
0100
0000
0000
0000
0010
0000
0000
0000
0001
0000
0000
0001
0000
0000
0001
0000
,
0000
0000
0100
0000
0010
0000
0000
0000
1000
0000
0000
1000
0000
0000
0000
0000
,
0001
0000
0000
0000
0100
0000
0000
0000
1000
0000
0000
1000
0000
0000
1000
0000
,
0000
0000
0100
0000
0001
0000
0000
0000
0010
0000
0000
0010
0000
0000
0000
0000
,
0100
0000
0000
0000
1000
0000
0000
0000
0001
0000
0000
0001
0000
0000
0001
0000
,
0000
0000
0010
0000
1000
0000
0000
0000
0010
0000
0000
0010
0000
0000
0000
0000
,
0100
1000
0001
0000
,
0000
0010
0001
1001
;

//---------------dance-single - ----------------
#NOTES:
     dance-single:
     :
     Easy:
     2:
     0.126243,0.151770,0.037130,0.089113,0.000000,119.000000,114.000000,5.000000,12.000000,0.000000,0.000000,0.126243,0.151770,0.037130,0.089113,0.000000,119.000000,114.000000,5.000000,12.000000,0.000000,0.000000:
// measure 0
0000
0000
0000
0000
,  // measure 1
0000
0000
0000
0000
,  // measure 2
0000
0000
0000
0000
,  // measure 3
0000
0000
0000
0000
,  // measure 4
1000
0000
0001
0000
,  // measure 5
0010
0000
0000
0000
,  // measure 6
0001
0000
1000
0000
,  // measure 7
0001
0000
0000
0000
,  // measure 8
0200
0000
0000
0000
,  // measure 9
0300
0000
0010
0000
,  // measure 10
0020
0000
0000
0000
,  // measure 11
0030
0000
1000
0000
,  // measure 12
2000
0000
0000
0000
,  // measure 13
3000
0000
0001
0000
,  // measure 14
0002
0000
0000
0000
,  // measure 15
0003
0000
0010
0000
,  // measure 16
0010
0000
0000
0000
,  // measure 17
0001
0000
1000
0000
,  // measure 18
0001
0000
0000
0000
,  // measure 19
0100
0000
0000
0000
,  // measure 20
0010
0000
0000
0000
,  // measure 21
1000
0000
0001
0000
,  // measure 22
1000
0000
0000
0000
,  // measure 23
0100
0000
0000
0000
,  // measure 24
0010
0001
0010
0000
,  // measure 25
0001
0000
0000
0000
,  // measure 26
1000
0000
0001
0000
,  // measure 27
1000
0000
0000
0000
,  // measure 28
0100
1000
0100
0000
,  // measure 29
1000
0000
0000
0000
,  // measure 30
0001
0000
1000
0000
,  // measure 31
0001
0000
0000
0000
,  // measure 32
0001
0010
0001
0000
,  // measure 33
0100
0000
0000
0000
,  // measure 34
0010
0000
0100
0000
,  // measure 35
0010
0000
0000
0000
,  // measure 36
1000
0001
0100
0000
,  // measure 37
0001
0000
0000
0000
,  // measure 38
1000
0000
1000
0000
,  // measure 39
1000
0000
0000
0000
,  // measure 40
0002
0000
0000
0003
,  // measure 41
1000
0000
0001
0000
,  // measure 42
2000
0000
0000
3000
,  // measure 43
0010
0000
0100
0000
,  // measure 44
0020
0000
0000
0030
,  // measure 45
0100
0000
0001
0000
,  // measure 46
0200
0000
0000
0300
,  // measure 47
0010
0000
0010
0000
,  // measure 48
0020
0000
0000
0030
,  // measure 49
1000
0000
1000
0000
,  // measure 50
2000
0000
0000
3000
,  // measure 51
0100
0000
0010
0000
,  // measure 52
0200
0000
0000
0300
,  // measure 53
0010
0000
0010
0000
,  // measure 54
0002
0000
0000
0003
,  // measure 55
1000
0000
0000
0000
,  // measure 56
1001
0000
0000
0000
,  // measure 57
0010
0000
1000
0000
,  // measure 58
0001
0000
0000
1000
,  // measure 59
1000
0000
0000
0000
,  // measure 60
1001
0000
0000
0000
,  // measure 61
0001
0000
0010
0000
,  // measure 62
0010
0000
0000
0100
,  // measure 63
0100
0000
0000
0000
,  // measure 64
1100
0000
0000
0000
,  // measure 65
0010
0000
0001
0000
,  // measure 66
0010
0000
0000
0001
,  // measure 67
0001
0000
0000
0000
,  // measure 68
0101
0000
0000
0000
,  // measure 69
0100
0000
0010
0000
,  // measure 70
0010
0000
0000
1000
,  // measure 71
1000
0000
0000
0000
,  // measure 72
0001
0000
0010
0000
,  // measure 73
0100
0000
1000
0000
,  // measure 74
0001
0000
0000
0000
,  // measure 75
1000
0000
0000
0000
,  // measure 76
1000
0000
0100
0000
,  // measure 77
0010
0000
0001
0000
,  // measure 78
1000
0000
0000
0000
,  // measure 79
0001
0000
0000
0000
,  // measure 80
0100
0000
0000
0000
,  // measure 81
0010
0000
0000
1001
;
