#TITLE:Dark Darker Yet Monster;
#SUBTITLE:;
#ARTIST:SharaX;
#TITLETRANSLIT:;
#SUBTITLETRANSLIT:;
#ARTISTTRANSLIT:;
#GENRE:;
#CREDIT:;
#BANNER:;
#BACKGROUND:;
#LYRICSPATH:;
#CDTITLE:;
#MUSIC:Dark Darker Yet Monster.mp3;
#OFFSET:-0.112000;
#SAMPLESTART:67.876999;
#SAMPLELENGTH:11.294000;
#SELECTABLE:YES;
#BPMS:0.000000=170.000000
,156.000000=85.000000
,174.000000=170.000000
;
#STOPS:
;
#BGCHANGES:;
#KEYSOUNDS:;
#ATTACKS:;

//---------------dance-single - Blank----------------
#NOTES:
     dance-single:
     Shortysnmn2010:
     Beginner:
     1:
     0.088913,0.193113,0.000000,0.034104,0.000000,73.000000,73.000000,0.000000,4.000000,0.000000,0.000000,0.088913,0.193113,0.000000,0.034104,0.000000,73.000000,73.000000,0.000000,4.000000,0.000000,0.000000:
0000
0000
0000
0000
,
0000
0000
0000
0000
,
0000
0000
0000
0000
,
0000
0000
0000
0000
,
1000
0000
0000
0000
,
0000
0000
0000
0000
,
0001
0000
0000
0000
,
0000
0000
0000
0000
,
0100
0000
0000
0000
,
0100
0000
0000
0000
,
0010
0000
0000
0000
,
0010
0000
0000
0000
,
1000
0000
0000
0000
,
1000
0000
0000
0000
,
0001
0000
0000
0000
,
0001
0000
0000
0000
,
1000
0000
0000
0000
,
0100
0000
0000
0000
,
1000
0000
0000
0000
,
0001
0000
0000
0000
,
0010
0000
0000
0000
,
0001
0000
0000
0000
,
0100
0000
0000
0000
,
0010
0000
0000
0000
,
0100
0000
0100
0000
,
0100
0000
0000
0000
,
0010
0000
0000
0000
,
1000
0000
0000
0000
,
0001
0000
0001
0000
,
0001
0000
0000
0000
,
1000
0000
0000
0000
,
0100
0000
0000
0000
,
0010
0000
0000
0000
,
0001
0000
0000
0000
,
0100
0000
0000
0000
,
0010
0000
0000
0000
,
1000
0000
0000
0000
,
0001
0000
0000
0000
,
1000
0000
0000
0000
,
0100
0000
1000
0000
,
0000
0000
0001
0000
,
0000
0000
0010
0000
,
0010
0000
0010
0000
,
0010
0100
0010
0000
,
0000
0000
0001
0000
,
0000
0000
1000
0000
,
0000
0000
0001
0000
,
0000
0000
0100
0000
,
0000
0000
0100
0000
,
0000
0000
0001
0000
,
0000
0000
1000
0000
,
0000
0000
0010
0000
,
0000
0000
0100
0000
,
0000
0000
0010
0000
,
0000
0000
1000
0000
,
0000
0000
0001
0000
,
0000
0000
0010
0000
,
0000
0000
1000
0000
,
0000
0000
0010
0000
,
0000
0000
0200
0000
,
0300
0000
0000
0000
,
0000
0000
2000
0000
,
3000
0000
0000
0000
,
0000
0000
0020
0000
,
0030
0000
0000
0000
,
0000
0000
0200
0000
,
0300
0000
0000
0000
,
0000
0000
0001
0000
,
0000
0000
0100
0000
,
0000
0000
0001
0000
,
0000
0000
1000
0000
,
0000
0000
0100
0000
,
0000
0000
0010
0000
,
0000
0000
0100
0000
,
0000
0000
1000
0000
,
0001
0000
1000
0000
;

//---------------dance-single - Blank----------------
#NOTES:
     dance-single:
     Shortysnmn2010:
     Easy:
     4:
     0.261868,0.514967,0.051156,0.076734,0.000000,215.000000,209.000000,6.000000,9.000000,0.000000,0.000000,0.261868,0.514967,0.051156,0.076734,0.000000,215.000000,209.000000,6.000000,9.000000,0.000000,0.000000:
// measure 0
0000
0000
0000
0000
,  // measure 1
0000
0000
0000
0000
,  // measure 2
0000
0000
0000
0000
,  // measure 3
0000
0000
0000
0000
,  // measure 4
1000
0000
0000
0000
,  // measure 5
0001
0000
0000
0000
,  // measure 6
0010
0000
0000
0000
,  // measure 7
0100
0000
0000
0000
,  // measure 8
1000
1000
1000
0000
,  // measure 9
0001
0000
0010
0000
,  // measure 10
0001
0000
0100
0000
,  // measure 11
0010
0000
0000
0000
,  // measure 12
0100
0100
0100
0000
,  // measure 13
0001
0000
0010
0000
,  // measure 14
0001
0000
1000
0000
,  // measure 15
0100
0000
0000
0000
,  // measure 16
0110
0000
0000
0000
,  // measure 17
0010
0001
0010
0000
,  // measure 18
0001
0000
0000
0000
,  // measure 19
1000
0000
0000
0000
,  // measure 20
0110
0000
0000
0000
,  // measure 21
0100
0001
0100
0000
,  // measure 22
0010
0000
0000
0000
,  // measure 23
1000
0000
0002
2003
,  // measure 24
3001
0000
0010
0000
,  // measure 25
0001
1000
0001
1000
,  // measure 26
0001
0000
1000
0000
,  // measure 27
0100
1000
0100
1000
,  // measure 28
0100
0000
0010
0000
,  // measure 29
0001
0100
0001
0100
,  // measure 30
0001
0000
1000
0000
,  // measure 31
0010
0100
0010
0100
,  // measure 32
0002
0000
0000
1000
,  // measure 33
1000
0000
0000
0010
,  // measure 34
0010
0000
0000
0103
,  // measure 35
0110
0000
0000
0000
,  // measure 36
2000
0000
0000
0100
,  // measure 37
0100
0000
0000
0010
,  // measure 38
0010
0000
0000
3001
,  // measure 39
0011
0000
0000
0000
1000
0001
1000
0001
,  // measure 40
1000
0001
0010
0001
0100
0001
0100
0001
,  // measure 41
1000
0001
0010
0000
0100
1000
0100
1000
,  // measure 42
0100
0010
0100
0010
0100
0001
0100
1000
,  // measure 43
0001
0100
0020
0000
1030
0000
0010
0000
,  // measure 44
1000
0100
0010
0010
,  // measure 45
0001
1000
0001
0001
,  // measure 46
0100
0010
1000
0000
,  // measure 47
0100
0000
0010
0010
,  // measure 48
0001
0100
0001
0001
,  // measure 49
0010
0100
1000
1000
,  // measure 50
0010
0100
0001
0000
,  // measure 51
1000
0000
0001
0001
,  // measure 52
0001
0010
0001
0100
,  // measure 53
0001
0000
1000
1000
,  // measure 54
1000
0100
0010
0000
,  // measure 55
0001
0000
1000
0100
,  // measure 56
1000
0001
0100
0100
,  // measure 57
0100
0000
0001
0010
,  // measure 58
0001
1000
0100
0100
,  // measure 59
0100
0000
0020
0000
,  // measure 60
0001
0100
0001
0000
,  // measure 61
0031
0000
0002
0000
,  // measure 62
0100
1000
0013
0000
,  // measure 63
0110
0000
0200
0000
,  // measure 64
0001
0010
1000
0000
,  // measure 65
1300
0000
2000
0000
,  // measure 66
0010
0100
3001
0000
,  // measure 67
0010
0100
1000
1000
,  // measure 68
1000
0010
0100
0100
,  // measure 69
0001
0010
0001
0001
,  // measure 70
0001
0010
0100
0100
,  // measure 71
0100
0000
1000
1000
,  // measure 72
0010
1000
0001
0001
,  // measure 73
0001
0100
0001
0001
,  // measure 74
0010
0100
1000
0000
,  // measure 75
0001
0100
0110
0000
;

//---------------dance-single - Blank----------------
#NOTES:
     dance-single:
     Shortysnmn2010:
     Hard:
     7:
     0.448221,0.712769,0.136415,0.136415,0.000000,368.000000,352.000000,16.000000,16.000000,61.000000,0.000000,0.448221,0.712769,0.136415,0.136415,0.000000,368.000000,352.000000,16.000000,16.000000,61.000000,0.000000:
// measure 0
0000
0000
0000
0000
,  // measure 1
0000
0000
0000
0000
,  // measure 2
0000
0000
0000
0000
,  // measure 3
0000
0000
0000
0000
,  // measure 4
1000
0000
0001
0010
0001
0000
0100
0000
,  // measure 5
0100
0001
1000
0100
,  // measure 6
0010
0000
0100
0010
0100
0000
1000
0000
,  // measure 7
0001
0000
0100
0000
0010
0100
0010
0100
,  // measure 8
0001
0100
0010
0000
0100
0010
0100
0000
,  // measure 9
1000
0010
0001
0000
0010
0100
0001
0000
,  // measure 10
0010
0100
1000
0000
0100
1000
0100
0000
,  // measure 11
0010
0001
0100
0000
0001
0100
0001
0000
,  // measure 12
1000
0010
0100
0000
1000
0100
0001
0000
,  // measure 13
1000
0100
0001
0000
0100
0010
0100
0000
,  // measure 14
1000
0010
0100
0000
0001
0010
0100
0000
,  // measure 15
1000
0001
1000
0000
0001
1000
0001
0000
,  // measure 16
1000
0000
0100
0000
1000
0002
0000
0003
,  // measure 17
1000
0101
0001
1100
,  // measure 18
0010
0000
0001
0000
1000
0020
0000
0030
,  // measure 19
0100
1001
0100
1001
,  // measure 20
0010
0000
1000
0000
0100
2000
0000
3000
,  // measure 21
0001
1010
1000
0011
,  // measure 22
0001
0000
0100
0000
0001
0020
0000
0030
,  // measure 23
0001
0000
0110
0000
2000
0000
3001
0010
,  // measure 24
0001
0000
1000
0000
0001
0100
0000
0100
,  // measure 25
M001
0M10
010M
10M0
,  // measure 26
0010
0000
0100
0000
0010
1000
0000
1000
,  // measure 27
010M
M010
0M01
10M0
,  // measure 28
0100
0000
0100
0000
0010
0001
0000
0001
,  // measure 29
10M0
010M
M010
0M01
,  // measure 30
1000
0000
0010
0000
0100
0001
0000
0100
,  // measure 31
M001
0M10
010M
10M0
,  // measure 32
0001
0001
MMMM
1000
,  // measure 33
0010
0010
MMMM
0100
,  // measure 34
0001
1000
MMMM
0001
,  // measure 35
0010
0010
MMMM
0100
,  // measure 36
0010
0001
MMMM
1000
,  // measure 37
0001
0100
MMMM
0010
,  // measure 38
0010
1001
MMMM
0200
,  // measure 39
0000
0000
0300
0000
1000
1100
1000
0001
,  // measure 40
0100
0110
0010
1000
0001
0011
0001
1000
,  // measure 41
0100
0110
0010
0001
1000
1010
1000
0100
,  // measure 42
0010
0011
0001
0100
0001
0011
0010
0100
,  // measure 43
1000
1001
0002
0M00
1003
0100
1000
0000
,  // measure 44
0001
0000
0010
0000
0001
0100
0001
0000
,  // measure 45
1000
0000
0100
0000
0010
0100
0010
0000
,  // measure 46
0001
0000
0100
0000
0010
1000
0001
1000
,  // measure 47
0010
1000
0001
0000
1000
0100
0010
0000
,  // measure 48
0100
0000
1000
0000
0001
0100
0010
0000
,  // measure 49
0100
0000
0001
0000
0010
0100
1000
0000
,  // measure 50
0001
0000
0100
0000
1000
0100
0001
0100
,  // measure 51
1000
0100
0001
0000
1000
0002
1000
0000
,  // measure 52
1003
0000
0001
0000
0010
0001
0100
0000
,  // measure 53
0100
0001
0010
0000
0001
2000
0001
0000
,  // measure 54
3001
0000
1000
0000
0100
1000
0010
0000
,  // measure 55
0010
1000
0100
0000
0010
0002
0010
0000
,  // measure 56
0013
0000
0100
0000
1000
0100
0010
0000
,  // measure 57
0100
0010
0001
0000
1000
0020
1000
0000
,  // measure 58
1030
0000
0001
0000
0100
0010
1000
0000
,  // measure 59
0001
1000
0002
0100
,  // measure 60
0100
1000
0103
0010
,  // measure 61
1000
0100
1000
0000
0020
0000
0100
0000
,  // measure 62
1000
0130
0001
1000
,  // measure 63
0100
0010
0100
0000
2000
0000
0100
0000
,  // measure 64
0001
0010
3100
0010
,  // measure 65
0001
1000
0100
0000
0020
0000
1000
0000
,  // measure 66
0100
0001
0130
1000
,  // measure 67
0001
0100
0010
0100
M001
0000
0001
0000
,  // measure 68
0100
1000
100M
0100
,  // measure 69
0010
0010
100M
0100
,  // measure 70
0100
0010
0M01
1000
,  // measure 71
0100
0010
0100
0010
010M
0000
1000
0000
,  // measure 72
M010
0001
10M0
0100
,  // measure 73
M001
0010
1M00
0001
,  // measure 74
01M0
0000
1000
0000
M001
0100
0010
1000
,  // measure 75
0M01
0010
0100
1000
00M2
0000
MMM0
0000
,  // measure 76
0003
0000
0000
0000
;

//---------------dance-single - Blank----------------
#NOTES:
     dance-single:
     Shortysnmn2010:
     Challenge:
     10:
     0.665024,1.130221,0.170519,0.153467,0.208886,546.000000,526.000000,20.000000,18.000000,40.000000,0.000000,0.665024,1.130221,0.170519,0.153467,0.208886,546.000000,526.000000,20.000000,18.000000,40.000000,0.000000:
0000
0000
0000
0000
,
0000
0000
0000
0000
,
0000
0000
0000
0000
,
0000
0000
0000
0000
,
1001
0000
1000
0002
1000
0000
1003
0000
,
1001
0000
0110
0000
1000
0001
0010
0100
,
1000
0000
0001
0200
0001
0000
0310
0000
,
0110
0000
1001
0000
0001
0100
0100
0010
,
1000
0100
1000
0100
1000
0100
0010
0001
,
0100
0010
0100
0010
0100
0010
1000
0001
,
0010
1000
0010
1000
0010
1000
0001
0100
,
1000
0001
1000
0001
1000
0001
0100
0010
,
0001
1000
0001
1000
0001
1000
0100
0001
,
1000
0100
1000
0100
1000
0100
0010
0001
,
0100
1000
0100
1000
0100
1000
0001
0010
,
1000
0001
1000
0001
1000
0001
0010
0100
,
1000
0000
0000
0000
0001
0000
0010
0100
1000
0000
0001
0000
0000
0000
0200
0000
,
0001
0010
0001
0310
,
1000
0000
0000
0000
0001
0000
0010
0001
1000
0000
0100
0000
0000
0000
0020
0000
,
0001
0000
0100
0000
0100
0000
0031
1000
,
0100
0000
0000
0000
1000
0000
0010
0100
0001
0000
1000
0000
0000
0000
0020
0000
,
0100
0001
1000
0130
,
0001
0000
0000
0000
1000
0000
0100
1000
0010
0000
0100
0000
0000
0000
0002
0000
,
1000
0000
0000
0000
0103
0000
0000
0000
0001
0100
0010
1000
0001
0000
0011
0000
,
1100
0000
0000
0000
1000
0000
0001
0100
0010
0000
1000
0000
1000
0000
0002
0000
,
0010
00M0
0100
0M00
0013
00M0
0101
0000
,
0110
0000
0000
0000
1000
0000
0001
0100
0010
0000
1000
0000
0100
0000
2000
0000
,
0010
00M0
0100
0M00
3010
00M0
0100
0010
,
0001
0000
0000
0000
0100
0000
0010
0100
0001
0000
0010
0000
0100
0000
2000
0000
,
0001
000M
0100
0M00
3001
000M
0110
0000
,
1000
0000
0000
0000
0001
0000
0100
0010
0100
0000
0001
0000
0010
0000
0200
0000
,
0001
000M
1000
M000
0001
000M
1300
0001
,
0100
0000
0000
0000
0010
0000
0000
0000
0100
0000
0000
0000
0010
0000
0000
0000
M000
0M00
00M0
000M
0000
0000
0000
0000
1000
0000
0000
0000
0001
0000
0000
0000
,
0010
0000
0000
0000
0100
0000
0000
0000
0010
0000
0000
0000
0100
0000
0000
0000
M000
0M00
00M0
000M
0000
0000
0000
0000
1000
0000
0000
0000
0010
0000
0000
0000
,
0100
0000
0000
0000
0001
0000
0000
0000
0100
0000
0000
0000
0001
0000
0000
0000
M000
0M00
00M0
000M
0000
0000
0000
0000
1000
0000
0000
0000
0100
0000
0000
0000
,
0010
0000
0000
0000
0001
0000
0000
0000
0010
0000
0000
0000
0001
0000
0000
0000
M000
0M00
00M0
000M
0000
0000
0000
0000
0100
0000
0000
0000
1000
0000
0000
0000
,
0010
0000
0000
0000
0100
0000
0000
0000
0010
0000
0000
0000
0100
0000
0000
0000
000M
00M0
0M00
M000
0000
0000
0000
0000
0010
0000
0000
0000
0100
0000
0000
0000
,
0001
0000
0000
0000
0010
0000
0000
0000
0001
0000
0000
0000
0010
0000
0000
0000
M000
0M00
00M0
000M
0000
0000
0000
0000
0100
0000
0000
0000
1000
0000
0000
0000
,
0001
0000
0000
0000
0100
0000
0000
0000
0001
0000
0000
0000
0100
0000
0000
0000
000M
00M0
0M00
M000
0000
0000
0000
0000
0002
0000
0000
0000
2000
0000
0000
0000
,
0000
0000
3003
0000
1000
0101
1000
0101
,
0010
1001
0100
1001
0010
1100
0001
0110
,
1000
0000
0101
0000
0010
0000
1001
0000
1000
0100
0010
0001
1000
0100
0010
0001
,
1000
0010
0100
0001
1000
0010
0100
0001
1000
0100
0010
0100
1000
0100
0010
0100
,
1000
0000
0001
0000
0100
0000
0010
0000
0100
0001
1000
0010
0100
0000
0001
0000
1000
0000
0000
0000
0100
0000
0000
0000
0010
0000
0000
0000
0001
0000
0000
0000
,
1000
0010
1000
0100
0100
0010
0001
0100
,
0010
0100
0001
1000
1000
0001
0100
0010
,
0100
0001
1000
0100
0100
0010
1000
0010
,
0001
1000
0100
0010
0010
0001
0100
0010
,
0100
0001
1000
0010
0010
0100
0001
0010
,
1000
0010
0100
1000
1000
0010
0001
0010
,
0100
0001
0010
0100
0100
1000
0100
0000
,
1000
0100
1000
0000
0001
0100
0010
1000
,
0001
0010
0100
0010
0010
0001
0100
0010
,
0100
0001
1000
0100
0100
1000
0010
0001
,
0010
0100
0001
1000
1000
0100
0010
0001
,
0010
1000
0010
0001
0001
0100
1000
0100
,
0001
0100
1000
0100
0100
0001
0010
0100
,
0010
0001
0010
0100
0100
1000
0010
1000
,
0100
1000
0010
0100
0100
0001
0010
0001
,
0100
0001
0010
0100
0100
1000
0100
1000
,
0010
0100
0010
0100
0001
0010
0001
0010
,
0100
1000
0100
1000
0001
0100
0001
0100
,
0010
1000
0010
1000
0001
0020
0001
0030
,
0001
0020
0001
0030
1000
0100
1000
0100
,
0010
0001
0010
0001
0100
1000
0100
1000
,
0001
0010
0001
0010
1000
0100
1000
0100
,
0010
1000
0010
1000
0010
0002
0010
0003
,
0010
0002
0010
0003
0100
1000
0001
1000
,
0100
1000
0001
1000
0100
0010
1000
0010
,
0100
0010
1000
0010
0001
0100
0010
0100
,
0001
0100
0010
0100
0001
0010
0001
0000
,
1000
0100
1000
0000
1000
0001
0100
0001
,
1000
0001
0100
0001
1000
0010
0100
0010
,
1000
0010
0100
0010
1000
0100
0010
0100
,
1000
0100
0010
0100
1000
0001
0010
0100
,
1000
0001
0010
0110
2002
0000
3003
0000
;

//---------------dance-single - ----------------
#NOTES:
     dance-single:
     :
     Medium:
     6:
     0.393412,0.643709,0.093785,0.017052,0.000000,323.000000,312.000000,11.000000,2.000000,32.000000,0.000000,0.393412,0.643709,0.093785,0.017052,0.000000,323.000000,312.000000,11.000000,2.000000,32.000000,0.000000:
// measure 0
0000
0000
0000
0000
,  // measure 1
0000
0000
0000
0000
,  // measure 2
0000
0000
0000
0000
,  // measure 3
0000
0000
0000
0000
,  // measure 4
1000
0000
0001
0010
0100
0000
1000
0000
,  // measure 5
1000
0010
0100
0000
,  // measure 6
1000
0000
0100
0010
0001
0000
0100
0000
,  // measure 7
0100
0010
1000
0000
,  // measure 8
1000
0000
0001
0000
,  // measure 9
0010
0100
0010
0000
,  // measure 10
0001
0000
0100
0000
,  // measure 11
0010
1000
0100
0000
,  // measure 12
1000
0000
0001
0000
,  // measure 13
0100
0010
1000
0000
,  // measure 14
0001
0000
0010
0000
,  // measure 15
0001
1000
0100
0000
,  // measure 16
1000
0000
0001
0000
0100
0001
0000
0001
,  // measure 17
0100
0010
1000
0000
,  // measure 18
0010
0000
0001
0000
0100
0001
0000
0001
,  // measure 19
0100
0010
1000
0000
,  // measure 20
0010
0000
0001
0000
1000
0100
0000
1000
,  // measure 21
0100
0010
0001
0000
,  // measure 22
0010
0000
1000
0000
0001
0100
0000
0001
,  // measure 23
0100
0001
10M0
11MM
,  // measure 24
0001
0000
0010
0000
0100
1000
00MM
1000
,  // measure 25
0100
1000
0100
1000
,  // measure 26
0010
0000
0100
0000
0001
0100
M0M0
0100
,  // measure 27
0001
0010
0001
0010
,  // measure 28
0100
0000
0010
0000
0100
1000
00MM
1000
,  // measure 29
0100
0010
0100
0010
,  // measure 30
0001
0000
0100
0000
1000
0100
00MM
0100
,  // measure 31
1000
0100
0001
0100
,  // measure 32
0001
0001
MMM0
1100
,  // measure 33
0010
0010
MM0M
1001
,  // measure 34
0100
0100
M0MM
0011
,  // measure 35
1000
1000
0MMM
0110
,  // measure 36
0001
0001
MMM0
1100
,  // measure 37
0010
0001
MMM0
0101
,  // measure 38
0010
1000
0MMM
0002
,  // measure 39
0000
0000
0003
0000
1000
0001
0010
0110
,  // measure 40
0010
0001
0100
0010
1000
0100
0010
0110
,  // measure 41
0100
1000
0010
0100
0001
1000
0100
1100
,  // measure 42
1000
0010
0100
0001
0010
0100
0010
0011
,  // measure 43
0001
0100
0020
1000
0130
0001
0100
0000
,  // measure 44
0010
1000
0100
0100
,  // measure 45
0010
0000
0001
0000
0100
0010
0100
0000
,  // measure 46
0001
0000
0010
0000
0100
1000
0100
1000
,  // measure 47
0100
1000
0100
0000
0010
0001
0010
0000
,  // measure 48
0001
0100
0010
1000
,  // measure 49
0100
0000
0100
0000
1000
0100
1000
0000
,  // measure 50
0001
0000
0100
0000
0001
0100
0001
0100
,  // measure 51
0001
0100
0001
0000
1000
0100
0010
0000
,  // measure 52
0001
0100
0001
0001
,  // measure 53
0010
0000
0100
0000
1000
0010
1000
0000
,  // measure 54
0100
0000
0010
0000
0001
0100
0001
0100
,  // measure 55
0001
0100
0001
0000
0010
0100
0010
0000
,  // measure 56
0100
1000
0010
0010
,  // measure 57
1000
0000
0100
0000
1000
0001
1000
0000
,  // measure 58
0001
0000
0100
0000
1000
0100
1000
0100
,  // measure 59
1000
0100
1000
0000
0100
0000
0100
0000
,  // measure 60
0001
0001
0010
0010
,  // measure 61
1000
1000
0010
0001
,  // measure 62
0100
0010
1000
0100
,  // measure 63
0010
0000
0001
0001
,  // measure 64
1000
0100
0001
0001
,  // measure 65
0100
1000
0001
0001
,  // measure 66
0100
1000
0100
0100
,  // measure 67
0001
1000
0010
0010
,  // measure 68
1000
0001
0010
0010
,  // measure 69
1000
0010
0001
0001
,  // measure 70
1000
0000
0010
0000
0001
0010
1000
0000
,  // measure 71
1000
0010
0001
0000
0010
0000
0100
0000
,  // measure 72
0001
0001
0010
0100
,  // measure 73
1000
0000
1000
0000
0010
0100
0010
0000
,  // measure 74
0100
0010
0100
0000
0001
0000
1000
0000
,  // measure 75
0100
0010
0100
0010
0100
0000
0000
0000
;
