#TITLE:Damaged;
#SUBTITLE:;
#ARTIST:Danity Kane;
#TITLETRANSLIT:;
#SUBTITLETRANSLIT:;
#ARTISTTRANSLIT:;
#GENRE:;
#CREDIT:;
#BANNER:;
#BACKGROUND:;
#LYRICSPATH:;
#CDTITLE:;
#MUSIC:Damaged.mp3;
#OFFSET:-0.034000;
#SAMPLESTART:80.033997;
#SAMPLELENGTH:16.000000;
#SELECTABLE:YES;
#BPMS:0.000000=120.000000
;
#STOPS:
;
#BGCHANGES:;
#KEYSOUNDS:;
#ATTACKS:;

//---------------dance-single - Blank----------------
#NOTES:
     dance-single:
     Shortysnmn2010:
     Beginner:
     1:
     0.078695,0.098099,0.007546,0.060369,0.000000,73.000000,72.000000,1.000000,8.000000,0.000000,0.000000,0.078695,0.098099,0.007546,0.060369,0.000000,73.000000,72.000000,1.000000,8.000000,0.000000,0.000000:
0000
0000
0000
0000
,
0000
0000
0000
0000
,
0000
0000
0000
0000
,
0000
0000
0000
0000
,
1000
0000
0000
0000
,
0100
0000
0000
0000
,
0010
0000
0000
0000
,
0100
0000
0000
0000
,
2200
0000
0000
0000
,
3300
0000
0000
0000
,
0010
0000
0000
0000
,
0001
0000
0001
0000
,
0001
0000
0000
0000
,
0100
0000
0000
0000
,
0010
0000
0010
0000
,
0010
0000
0000
0000
,
2000
3000
0000
0000
,
0002
0003
0000
0000
,
0020
0030
0000
0000
,
0200
0300
0000
0000
,
1000
0000
1000
0000
,
1000
0000
0000
0000
,
0001
0000
0001
0000
,
0001
0000
0000
0000
,
0010
0000
0000
0000
,
0100
0000
0000
0000
,
0010
0000
0000
0000
,
0100
0000
0000
0000
,
1000
1000
0000
0000
,
0001
0000
0000
0000
,
0010
0010
0000
0000
,
0200
0000
0300
0000
,
0000
0000
0000
0000
,
1000
0000
0000
0000
,
0010
0000
0010
0000
,
0010
0000
0000
0000
,
1000
0000
0000
0000
,
0100
0000
0100
0000
,
0100
0000
0000
0000
,
0010
0000
0000
0000
,
0001
0000
0001
0000
,
1000
0000
0000
0000
,
0010
0000
0000
0000
,
1000
0000
1000
0000
,
0001
0000
0000
0000
,
0100
0000
0000
0000
,
0010
0000
0010
0000
,
0100
0000
0000
0000
,
0001
0000
0000
0000
,
1000
0000
0000
0000
,
0100
0000
0100
0000
,
0100
0000
0000
0000
,
1000
0000
0000
0000
,
0001
0000
0000
0000
,
0010
0000
0010
0000
,
0010
0000
0000
0000
,
0100
0000
0000
0000
,
0000
0000
1000
0000
,
0001
0000
0000
0000
,
0000
0000
0100
0000
,
0010
0000
0000
0000
,
0000
0000
1000
0000
,
0001
0000
0000
0000
,
0000
0000
0010
0000
,
0200
0000
0000
0000
,
0300
0000
0000
0000
;

//---------------dance-single - Blank----------------
#NOTES:
     dance-single:
     Shortysnmn2010:
     Hard:
     8:
     0.405333,0.418525,0.196198,0.218837,0.022638,376.000000,350.000000,26.000000,29.000000,0.000000,0.000000,0.405333,0.418525,0.196198,0.218837,0.022638,376.000000,350.000000,26.000000,29.000000,0.000000,0.000000:
// measure 0
0000
0000
0000
0000
,  // measure 1
0000
0000
0000
0000
,  // measure 2
0000
0000
0000
0000
,  // measure 3
0000
0000
0000
0000
,  // measure 4
0001
0001
0001
1000
0010
0000
1000
0100
,  // measure 5
1000
0001
0010
0100
1000
0000
0001
0100
,  // measure 6
0001
1000
0010
0001
0010
0000
0100
0001
,  // measure 7
1000
0100
0010
0001
0020
0000
0100
0130
,  // measure 8
1000
0000
1000
0000
0000
0001
0000
0001
,  // measure 9
0010
0000
0010
0000
0000
0001
0100
0001
,  // measure 10
0000
0101
0000
1000
0000
1100
0000
1000
,  // measure 11
0010
0100
0001
0010
0100
0100
1000
1000
,  // measure 12
0000
0000
0101
0000
0000
0000
1000
0000
0000
0000
0101
0000
0000
0000
1000
0010
,  // measure 13
1000
0001
0100
0010
0200
0000
0001
0301
,  // measure 14
0000
0000
1001
0000
0000
0000
1000
0000
0000
0000
1001
0000
0000
0000
0001
0010
,  // measure 15
0001
1000
0100
1000
0001
0100
0010
0100
,  // measure 16
0000
0101
0000
0001
0000
1100
0000
1000
,  // measure 17
0000
0110
0000
0001
0000
1100
0000
0010
,  // measure 18
0001
0100
0010
0100
0001
0000
0010
0002
,  // measure 19
0100
0000
0103
0100
0001
0001
0010
0100
,  // measure 20
0000
1000
0100
0010
0000
0001
0100
0001
,  // measure 21
0000
1000
0200
0000
0010
0000
0310
0000
,  // measure 22
1000
0001
0010
1000
0020
0000
0001
0031
,  // measure 23
1000
0100
1100
0000
,  // measure 24
1000
0000
0001
0000
1000
0000
0100
0010
,  // measure 25
0000
0000
0220
0000
0000
0330
0000
0000
0001
0000
0100
0000
0010
0000
1000
0000
,  // measure 26
0001
0000
0010
0000
0001
0000
0100
0010
,  // measure 27
0000
0000
0220
0000
0000
0330
0000
0000
0100
0000
0001
0000
0010
0000
0100
0000
,  // measure 28
1000
1000
1000
0000
0010
0010
0100
0001
,  // measure 29
0000
0001
0010
0000
0001
0100
0010
0100
,  // measure 30
0001
0001
0001
0000
0010
0010
0100
0010
,  // measure 31
0000
0100
1000
0000
0010
0100
0001
2000
,  // measure 32
0000
0000
0000
0000
0000
0010
0000
0010
,  // measure 33
0010
0000
0001
0000
0000
3001
0100
0010
,  // measure 34
1000
0100
0000
1000
0100
0000
0010
0001
,  // measure 35
0100
0100
0001
0010
0200
0000
1300
0001
,  // measure 36
0010
0010
0010
0001
0100
0000
0010
1000
,  // measure 37
0001
0010
1000
0010
0200
0000
1300
0001
,  // measure 38
0010
0001
0100
0010
0200
0000
0301
1000
,  // measure 39
0010
0001
0010
1000
0002
0000
0013
0100
,  // measure 40
1000
0100
1000
0100
0010
0001
0100
0001
,  // measure 41
0010
0100
0010
0100
1000
0010
0001
0010
,  // measure 42
1000
0001
1000
0001
0100
1000
0100
0001
,  // measure 43
0000
0001
0010
0100
1000
0010
0100
0100
,  // measure 44
0000
0001
0100
0001
1000
0001
0010
0002
,  // measure 45
0000
0000
0010
0013
,  // measure 46
0100
1000
0010
1000
0100
0001
0100
1000
,  // measure 47
0010
0001
0010
0100
0002
0010
0013
0100
,  // measure 48
0000
1100
0000
1000
0000
0101
0000
0001
,  // measure 49
0000
0011
0000
1000
0000
0110
0000
0001
,  // measure 50
0010
0100
1000
0010
1000
0000
0100
0010
,  // measure 51
0100
0000
1000
0100
0010
0001
0010
0001
,  // measure 52
0000
0100
0001
0010
0000
0100
1000
0010
,  // measure 53
0000
1000
0002
0000
0010
0000
0013
0100
,  // measure 54
1000
0100
0010
1000
0020
0000
0031
0100
,  // measure 55
0002
0000
0010
0013
,  // measure 56
2100
0000
3001
0000
0102
0000
1000
1003
,  // measure 57
0000
0110
0000
0000
0001
0000
0010
0000
,  // measure 58
0021
0000
0130
0000
0210
0000
1000
1300
,  // measure 59
0000
1010
0000
0000
0100
0000
0001
0000
,  // measure 60
1001
0000
0000
0001
0010
0000
0001
0000
2000
0000
0000
0000
3010
0000
0000
0000
,  // measure 61
0110
0000
0000
0001
0100
0000
0010
0000
0200
0000
0000
0000
0301
0000
0000
0000
,  // measure 62
1000
0000
0000
0100
0010
0000
0001
0000
0020
0000
0000
0000
0130
0000
0000
0000
,  // measure 63
1000
0000
0000
0001
0010
0000
0001
0000
2000
0000
0000
0000
3010
0000
0000
0000
,  // measure 64
2002
0000
0000
0000
,  // measure 65
0000
3003
0000
0000
;

//---------------dance-single - ----------------
#NOTES:
     dance-single:
     :
     Easy:
     3:
     0.133674,0.171674,0.007546,0.022638,0.000000,124.000000,123.000000,1.000000,3.000000,0.000000,0.000000,0.133674,0.171674,0.007546,0.022638,0.000000,124.000000,123.000000,1.000000,3.000000,0.000000,0.000000:
// measure 0
0000
0000
0000
0000
,  // measure 1
0000
0000
0000
0000
,  // measure 2
0000
0000
0000
0000
,  // measure 3
0000
0000
0000
0000
,  // measure 4
0010
0000
1000
0000
,  // measure 5
0001
0000
0000
0000
,  // measure 6
0100
0000
0001
0000
,  // measure 7
0010
0000
0000
0000
,  // measure 8
0100
0100
0000
0000
,  // measure 9
1000
1000
0000
0000
,  // measure 10
0001
0001
0001
0000
,  // measure 11
0010
0000
0001
0000
,  // measure 12
1000
1000
1000
0000
,  // measure 13
0001
0000
0100
0000
,  // measure 14
0010
0010
0010
0000
,  // measure 15
1000
0000
0001
0000
,  // measure 16
1000
0000
1000
0000
,  // measure 17
0001
0000
0001
0000
,  // measure 18
0010
0000
0010
0000
,  // measure 19
0100
0000
0000
0000
,  // measure 20
1000
0000
1000
0000
,  // measure 21
0010
0000
0010
0000
,  // measure 22
0001
0000
0001
0000
,  // measure 23
0010
0000
0000
0000
,  // measure 24
0100
0100
0100
0000
,  // measure 25
0100
0000
0000
0000
,  // measure 26
0001
0001
0001
0000
,  // measure 27
0001
0000
0000
0000
,  // measure 28
1000
1000
1000
0000
,  // measure 29
1000
0000
0000
0000
,  // measure 30
0010
0010
0010
0000
,  // measure 31
0010
0000
0000
2002
,  // measure 32
0000
0000
0000
0000
,  // measure 33
0000
0000
3003
0000
,  // measure 34
1000
0000
0001
0000
,  // measure 35
1000
0100
1000
0000
,  // measure 36
0001
0001
0001
0000
,  // measure 37
1000
1000
1000
0000
,  // measure 38
0010
0000
0100
0000
,  // measure 39
0010
0000
0000
0000
,  // measure 40
1000
0000
0100
0000
,  // measure 41
0010
0000
0001
0000
,  // measure 42
1000
0000
0001
0000
,  // measure 43
0100
0000
0010
0000
,  // measure 44
1000
0000
0001
0000
,  // measure 45
1000
0000
0100
0000
,  // measure 46
0010
0000
0001
0000
,  // measure 47
2000
0000
0000
3000
,  // measure 48
0001
0000
0000
0010
,  // measure 49
0010
0000
0000
0001
,  // measure 50
0001
0000
0001
0000
,  // measure 51
0001
0000
0000
1000
,  // measure 52
1000
0000
0000
0010
,  // measure 53
0010
0000
0000
1000
,  // measure 54
0100
0000
1000
0000
,  // measure 55
0100
0000
0000
0000
,  // measure 56
1000
0001
1000
0001
,  // measure 57
0000
0000
1000
0000
,  // measure 58
0001
1000
0001
1000
,  // measure 59
0000
0000
0010
0000
,  // measure 60
0100
0010
0100
0010
,  // measure 61
0000
0000
0100
0000
,  // measure 62
0010
0100
0010
0100
,  // measure 63
0000
0000
0001
0000
,  // measure 64
1000
0000
0001
0000
,  // measure 65
1000
0000
0000
0000
;

//---------------dance-single - ----------------
#NOTES:
     dance-single:
     :
     Medium:
     5:
     0.282439,0.289770,0.105645,0.060369,0.000000,262.000000,248.000000,14.000000,8.000000,0.000000,0.000000,0.282439,0.289770,0.105645,0.060369,0.000000,262.000000,248.000000,14.000000,8.000000,0.000000,0.000000:
// measure 0
0000
0000
0000
0000
,  // measure 1
0000
0000
0000
0000
,  // measure 2
0000
0000
0000
0000
,  // measure 3
0000
0000
0000
0000
,  // measure 4
1000
0100
1000
0000
0001
0000
0000
0000
,  // measure 5
0010
0000
0100
0010
0200
0000
1300
0000
,  // measure 6
0100
0000
0010
0100
0020
0000
0031
0000
,  // measure 7
0010
0100
1000
0001
,  // measure 8
0100
0000
0100
0000
0000
0000
0000
0001
,  // measure 9
1000
0000
1000
0000
0000
0000
0000
0001
,  // measure 10
0000
0011
0000
1000
0000
1100
0000
0000
,  // measure 11
1000
0000
0001
0000
0010
0100
0010
0001
,  // measure 12
0000
0001
0000
0000
0000
0000
0000
1000
,  // measure 13
0010
0000
0100
0000
0001
0000
1000
0100
,  // measure 14
0000
0100
0000
0010
0000
0010
0000
0001
,  // measure 15
0010
0000
0100
0000
1000
0000
0001
0100
,  // measure 16
0000
0101
0000
1000
0000
1010
0000
0001
,  // measure 17
0000
0010
0000
0100
0000
1000
0000
0001
,  // measure 18
0100
0000
0001
0100
0001
0000
0100
0002
,  // measure 19
0000
0003
0000
1000
0001
0000
0010
0100
,  // measure 20
0000
0110
0000
1000
0000
1001
0000
0001
,  // measure 21
0000
0200
0000
0000
0001
0000
1300
0000
,  // measure 22
0100
0000
0010
0100
0010
0000
0001
0100
,  // measure 23
0000
0000
0010
0010
,  // measure 24
1000
0000
0001
0000
1000
0000
0001
1000
,  // measure 25
0000
1001
0000
0000
0010
0000
0100
0000
,  // measure 26
0010
0000
0100
0000
0110
0000
0100
0010
,  // measure 27
0000
0110
0000
0000
0001
0000
0001
0000
,  // measure 28
1000
1000
1000
0000
0001
0000
1000
0001
,  // measure 29
0000
0001
1000
0000
0100
0000
0100
0000
,  // measure 30
0010
0010
0010
0000
0100
0000
0010
0100
,  // measure 31
0000
0110
0000
0000
0000
0000
0000
0000
,  // measure 32
0000
0001
0000
0001
0010
0000
0100
0000
,  // measure 33
1000
1000
0100
1000
,  // measure 34
0000
0001
0000
1000
0100
0000
0010
0000
,  // measure 35
0001
0100
0010
0010
,  // measure 36
1000
0000
0001
1000
0001
0000
1000
0000
,  // measure 37
0100
0000
1000
0001
2000
0000
3010
0000
,  // measure 38
1000
0000
0001
1000
0002
0000
0103
0000
,  // measure 39
0001
0000
1000
0001
1000
0000
0100
0000
,  // measure 40
0010
0010
0001
0001
,  // measure 41
0100
0100
1000
1000
,  // measure 42
0100
0100
0001
0001
,  // measure 43
0010
0010
1000
0000
,  // measure 44
0010
0000
0001
0000
0100
0000
0001
2000
,  // measure 45
0000
0000
0001
3001
,  // measure 46
0010
0100
1000
0010
,  // measure 47
1000
0000
0001
0200
0000
0300
0000
0010
,  // measure 48
0000
0110
0000
0001
0000
1001
0000
1000
,  // measure 49
0000
0100
0000
0010
0000
0001
0000
0100
,  // measure 50
0001
0000
1000
0000
0010
0000
0001
0010
,  // measure 51
1000
0000
0001
0000
1000
0000
0100
0010
,  // measure 52
0000
0010
0000
0001
0000
0101
0000
1000
,  // measure 53
0000
0100
0010
0000
0001
0000
0001
0000
,  // measure 54
1000
0000
0100
0000
0001
0000
0100
1000
,  // measure 55
0100
0000
0010
0010
,  // measure 56
0001
0000
1000
0000
0001
0000
1000
0100
,  // measure 57
0000
1000
0000
0000
0001
0000
0001
0000
,  // measure 58
0010
0000
0001
0000
1000
0000
0001
0100
,  // measure 59
0000
0001
0000
0000
1000
0000
1000
0000
,  // measure 60
0010
0000
0100
0000
0010
0000
1000
0100
,  // measure 61
0000
0100
0000
0000
0010
0000
0001
0000
,  // measure 62
1000
0000
0001
0000
0100
0000
0010
0100
,  // measure 63
0000
0001
0000
0000
1000
0000
0100
0000
,  // measure 64
1001
0000
0000
0000
;
