#TITLE:Crypteque;
#SUBTITLE:;
#ARTIST:Danny Baranowsky;
#TITLETRANSLIT:;
#SUBTITLETRANSLIT:;
#ARTISTTRANSLIT:;
#GENRE:;
#CREDIT:;
#BANNER:;
#BACKGROUND:;
#LYRICSPATH:;
#CDTITLE:;
#MUSIC:Crypteque.mp3;
#OFFSET:-0.083000;
#SAMPLESTART:64.717995;
#SAMPLELENGTH:14.608996;
#SELECTABLE:YES;
#BPMS:0.000000=130.000000
;
#STOPS:
;
#BGCHANGES:;
#KEYSOUNDS:;
#ATTACKS:;

//---------------dance-single - Blank----------------
#NOTES:
     dance-single:
     Shortysnmn2010:
     Beginner:
     1:
     0.107809,0.159671,0.039719,0.039719,0.000000,95.000000,90.000000,5.000000,5.000000,0.000000,0.000000,0.107809,0.159671,0.039719,0.039719,0.000000,95.000000,90.000000,5.000000,5.000000,0.000000,0.000000:
0000
0000
0000
0000
,
0000
0000
0000
0000
,
0000
0000
0000
0000
,
0000
0000
0000
0000
,
1000
0000
0000
0000
,
0010
0000
0000
0000
,
0100
0000
0000
0000
,
0010
0000
0000
0000
,
1000
0000
1000
0000
,
1000
0000
0001
0000
,
1000
0000
0000
0000
,
0001
0000
0000
0000
,
0100
0000
0100
0000
,
0100
0000
0010
0000
,
0100
0000
0000
0000
,
0001
0000
0000
0000
,
0020
0000
0030
0000
,
0100
0000
0000
0000
,
1000
0000
0000
0000
,
0010
0000
0100
0000
,
0020
0000
0030
0000
,
1000
0000
0000
0000
,
0001
0000
0000
0000
,
0010
0000
0000
0000
,
0002
0000
0003
0000
,
1000
0000
0000
0000
,
1000
0000
0001
0000
,
1000
0000
0000
0000
,
0010
0000
0100
0000
,
0010
0000
0000
0000
,
1000
0000
0001
0000
,
1000
0000
0000
0000
,
0100
0000
0010
0000
,
0100
0000
0000
0000
,
0010
0000
0001
0000
,
0010
0000
0000
0000
,
0100
0000
0100
0100
,
0100
0000
0000
0000
,
1000
0000
0000
0000
,
0010
0000
0000
0000
,
1000
0000
1000
1000
,
1000
0000
0000
0000
,
0001
0000
0000
0000
,
0010
0000
0010
0000
,
0010
0000
0000
0000
,
0100
0000
0100
0000
,
0200
0000
0300
0000
,
1001
0000
0000
0000
,
1000
0000
0000
0000
,
1001
0000
0000
0000
,
0001
0000
0000
0000
,
0110
0000
0000
0000
,
0010
0000
0000
0000
,
0110
0000
0000
0000
,
0100
0000
0000
0000
,
0001
0000
0000
0000
,
1000
1000
1000
0000
,
1000
0000
0000
0000
,
0001
0001
0001
0000
,
0001
0000
0000
0000
,
0010
0010
0010
0000
,
0010
0000
0000
0000
,
0100
0100
0100
0000
,
0100
0000
1000
0000
,
0100
0000
0000
0000
,
1000
0000
0001
0000
,
2000
0000
3000
0000
,
1001
0000
0000
0000
;

//---------------dance-single - Blank----------------
#NOTES:
     dance-single:
     Shortysnmn2010:
     Easy:
     4:
     0.213348,0.293822,0.158876,0.198596,0.000000,188.000000,168.000000,20.000000,25.000000,0.000000,0.000000,0.213348,0.293822,0.158876,0.198596,0.000000,188.000000,168.000000,20.000000,25.000000,0.000000,0.000000:
0000
0000
0000
0000
,
0000
0000
0000
0000
,
0000
0000
0000
0000
,
0000
0000
0000
0000
,
1000
0001
1000
0001
,
0100
0001
1000
0000
,
0001
1000
0001
1000
,
0010
1000
0001
0000
,
1000
0000
1000
0000
,
1000
0100
0010
0010
,
0001
0000
0001
0000
,
0001
0100
0010
0010
,
1000
0000
0100
0000
,
1000
0010
0100
0001
,
1000
0000
0001
0000
,
0010
0001
0100
0000
,
0002
0000
1000
0000
,
0100
0000
1003
0000
,
2000
0000
0010
0000
,
0100
0000
3010
0000
,
0200
0000
0010
0000
,
1000
0000
0301
0000
,
0020
0000
0001
0000
,
0100
0000
1030
0000
,
1001
0000
0000
0000
,
1000
0100
0010
0010
,
0001
0100
0100
0001
,
0020
0030
0200
0300
,
1000
1000
0001
0001
,
0200
0300
0020
0030
,
2000
3000
0002
0003
,
0010
0100
0010
0100
,
1000
0010
1000
0010
,
0200
0300
0002
0003
,
2000
3000
0020
0030
,
0100
0000
0100
0000
,
0100
0001
0010
0100
,
1001
0000
1000
0000
,
0010
1000
0100
0010
,
1001
0000
0001
0000
,
0100
0001
1000
0100
,
0011
0000
0001
0000
,
1000
0010
0100
0001
,
1010
0000
1010
0000
,
1000
0100
0010
0000
,
0011
0000
0011
0000
,
0001
0000
1000
0000
,
0002
0000
1003
0000
,
2000
0000
3010
0000
,
0020
0000
0130
0000
,
0200
0000
0301
0000
,
0002
0000
1003
0000
,
2000
0000
3100
0000
,
0020
0000
0031
0000
,
2000
0000
3001
0000
,
2000
0000
3100
0000
,
1100
1100
1100
0000
,
0010
0001
0100
0000
,
0101
0101
0101
0000
,
0010
1000
0001
0000
,
1001
1001
1001
0000
,
1000
0100
0010
0000
,
0110
1001
0110
0000
,
0100
0000
0001
0000
,
0010
0100
0010
0001
,
0100
0000
0010
0000
,
2000
0000
0100
0001
,
0020
3030
0000
0000
;

//---------------dance-single - Blank----------------
#NOTES:
     dance-single:
     Shortysnmn2010:
     Challenge:
     10:
     0.670685,0.827018,0.413079,0.182708,1.282927,591.000000,539.000000,52.000000,23.000000,0.000000,0.000000,0.670685,0.827018,0.413079,0.182708,1.282927,591.000000,539.000000,52.000000,23.000000,0.000000,0.000000:
0000
0000
0000
0000
,
0000
0000
0000
0000
,
0000
0000
0000
0000
,
0000
0000
0000
0000
,
1000
0000
0100
0010
0000
0001
0100
0000
0001
1000
0000
0100
,
0010
0000
0001
0100
0000
0001
0100
0000
0010
1000
0001
0100
,
0010
0000
1000
0100
0000
0010
0001
0000
1000
0010
0000
0100
,
0001
0100
0001
0100
0000
0010
0200
0000
0301
1000
0100
0010
,
0001
1000
0100
0000
0000
2100
0000
0000
3001
0000
0000
0002
,
0010
0013
0100
2000
0010
3010
0100
0000
0001
1000
0000
0100
,
0010
0000
0001
0020
0000
0000
0100
0000
0000
0031
0000
0000
,
1000
0010
0010
0100
0001
0010
0010
0100
1000
0001
0100
0001
,
1000
0100
0010
0000
0000
0012
0000
0000
0103
0010
0000
0010
,
1000
0001
1000
0100
0010
0001
1000
0000
0001
0100
0000
0001
,
0100
0000
0020
0000
0000
1000
0000
0000
0130
0001
0000
0001
,
1000
0000
1000
0100
0000
0100
0010
0000
0010
0001
0000
0001
,
1000
0000
1010
0000
0000
1001
0000
0000
1001
0000
0000
1000
,
0100
0000
0100
0010
0000
0010
0001
0000
0001
0100
1000
0100
,
0001
0000
1000
0000
0000
1100
0000
0000
1001
0000
0000
0001
,
0010
0100
0010
0100
0000
0100
1000
0000
0010
1000
0100
1000
,
0001
0000
0010
0000
0000
0011
0000
0000
1001
0000
0000
0001
,
0100
0000
0100
0010
0000
0010
1000
0000
1000
0100
0010
0001
,
1000
0100
0010
0001
0100
0010
1000
0001
1000
0100
0010
0100
,
1000
0001
0100
0010
0100
0001
0010
1000
0010
0100
1000
0010
,
2000
0100
0001
0100
,
3002
0000
0000
0010
0000
0000
1003
0100
0010
0001
1000
0100
,
0110
0011
0101
1010
,
1000
0000
0100
0000
0010
0000
0001
0010
0001
0000
1000
0000
0010
0000
0100
0000
0001
0000
1000
0000
0100
0000
0010
0000
,
0011
1100
1010
0101
,
1000
0100
1000
0001
0010
0001
1000
0010
1000
0001
0100
0001
,
2000
0000
0000
0000
0100
0000
0000
0000
0001
0000
0000
0000
3010
0000
0100
0000
0001
0000
1000
0100
1000
0100
1000
0100
,
1000
0000
0001
0000
0100
0000
0001
0000
0010
0000
0100
0000
1000
0000
0001
0000
0100
0000
0010
1000
0010
1000
0010
1000
,
0010
0100
0010
1000
0100
1000
0001
0010
0100
1000
0010
0001
,
0010
0100
0001
1000
0001
0010
0100
1000
0010
1000
0001
0010
,
0100
1000
0001
0100
1000
0100
0001
1000
0100
0001
0100
1000
,
0002
0000
0013
0100
1000
0100
0020
0000
0031
1000
0001
0100
,
0020
0000
1030
0001
0100
0001
1000
0000
0100
1000
0000
0001
,
0100
0000
0100
0010
1000
0100
0001
0000
0001
0100
0010
0001
,
0100
0000
0100
1000
0001
0010
2000
0000
0000
3002
0000
0000
,
0103
0000
0010
1000
0100
0010
0001
0000
1000
0010
0100
1000
,
0100
0000
0001
1000
0100
0010
2000
0000
0000
3020
0000
0000
,
0031
0000
1000
0001
0100
0010
1000
0000
0001
1000
0100
0010
,
0001
0000
0100
0010
1000
0100
0010
0000
0100
1000
0000
0100
,
2000
0000
0000
0100
0000
0000
3002
0000
0200
0000
0303
0000
,
2000
0000
0020
0000
3030
0100
0001
0000
1000
0100
0000
0010
,
0100
0000
0000
1100
0000
0000
1001
0000
0000
0001
0100
0001
,
0010
0000
0010
0100
1000
0000
1001
0000
0001
0100
0010
1000
,
1100
0000
1100
0000
0010
0001
0100
0000
0101
0000
0010
1000
,
0001
0000
1001
0000
1000
0100
0010
0000
0011
0000
0001
1000
,
0010
0000
0101
0000
0010
1000
0100
0000
1001
0000
1000
0100
,
0010
0000
1100
0000
0010
0001
1000
0000
0101
0000
0010
0100
,
0010
0000
1001
0000
0100
0010
0100
0000
1001
0000
0001
0100
,
0010
0000
0101
0000
0010
1000
0001
0000
0011
0000
0001
1000
,
0100
0000
1100
0000
0010
0100
1000
0000
1010
0000
0100
0001
,
1000
0000
0101
0000
0010
1000
0001
0000
0110
0000
1000
0001
,
1000
0000
0110
0000
0001
1000
0001
0000
0100
0010
0000
1000
,
1100
1001
0011
0110
,
0100
0000
1000
0000
0001
0000
0100
0010
0100
0000
0001
0000
1000
0000
0100
0000
0010
0000
0001
0000
0100
0000
0010
0000
,
1010
1001
0101
0110
,
0100
0000
0001
0000
0100
0000
0001
0000
1000
0000
0001
0000
1000
0100
1000
0000
0100
1000
0000
0000
0100
1000
0100
0000
,
0011
0000
0001
1000
0000
0010
0100
0000
0001
0010
0000
0100
,
1000
0000
0001
0000
0010
0000
0100
1000
0001
0000
0100
0000
0010
0000
1000
0000
0010
0000
0100
0000
0001
0000
1000
0000
,
0100
0000
0010
0001
0000
0010
0001
0000
0100
0010
0000
0100
,
0010
1000
1000
0001
0100
0100
0010
0000
0010
1000
0000
1000
,
0100
0010
0001
0001
0100
0010
2000
0000
0100
0000
0001
0000
,
3010
0110
1001
0011
,
4000
0400
0000
0000
0000
0000
0000
0000
0000
0000
0000
0000
0000
3300
0000
0000
0010
0000
0001
0000
0100
0000
0010
0000
,
1001
0000
0110
0000
0000
0000
0000
0000
0000
0000
0000
0000
;

//---------------dance-single - ----------------
#NOTES:
     dance-single:
     :
     Hard:
     8:
     0.445989,0.480204,0.285978,0.127101,0.663309,393.000000,357.000000,36.000000,16.000000,0.000000,0.000000,0.445989,0.480204,0.285978,0.127101,0.663309,393.000000,357.000000,36.000000,16.000000,0.000000,0.000000:
0000
0000
0000
0000
,
0000
0000
0000
0000
,
0000
0000
0000
0000
,
0000
0000
0000
0000
,
1000
0000
0100
0010
0000
0000
0001
0000
0010
0100
0000
0000
,
1000
0000
0001
0100
0000
0000
0001
0000
1000
0010
0100
0001
,
1000
0000
0001
1000
0000
0000
0001
0000
0010
0001
0000
0000
,
1000
0000
0100
1000
0000
0000
0001
0000
0010
0100
0000
0000
,
1000
0001
0010
0000
0000
0100
0000
0000
1100
0000
0000
1000
,
0002
0000
0000
0013
0100
1000
0001
0000
0100
0001
0000
1000
,
0100
0000
0010
0200
0000
0000
2300
0000
0000
3002
0000
0000
,
1003
1100
0001
0011
,
1000
0100
0010
0000
0000
0011
0000
0000
0001
1000
0000
0001
,
0200
0000
0000
0301
1000
0001
0100
0000
0010
0100
0000
0010
,
1000
0000
0001
0000
0000
0010
0000
0000
0010
0100
0000
0010
,
0100
0000
1000
0100
0000
0010
0001
0000
1000
0010
0000
1000
,
0200
0000
0010
0000
0000
0010
0000
0000
1000
0000
0000
0010
,
0000
0000
0001
0000
0000
0010
0000
0000
1300
0001
0010
0100
,
2000
0000
0001
0000
0000
0010
0000
0000
0001
0000
0000
3001
,
0000
1000
0001
0000
0000
0100
0000
0000
0001
0000
0000
0000
,
0002
0000
0010
0000
0000
1000
0000
0000
1000
0000
0000
0100
,
0000
0000
0100
0000
0000
0010
0000
0000
0013
0100
1000
0100
,
0010
0000
0001
0010
0000
0100
1000
0000
0001
0100
0000
0010
,
1000
0000
0001
0010
0000
0100
0010
0000
0001
0100
0000
0010
,
2000
0100
3002
0100
,
2003
0100
0002
3003
,
1001
0101
1010
1100
,
1000
0001
1000
0001
0000
0000
0010
0000
0000
0100
0000
0000
,
0110
0011
1100
1010
,
0100
0000
0001
1000
0000
0000
0010
0000
1000
0000
0000
0000
,
0001
0000
0010
0000
0100
0000
1000
0001
1000
0001
0000
0000
,
0010
0000
0100
0000
1000
0000
0001
0100
0001
0100
0000
0000
,
0010
0000
1000
0000
0001
0000
0010
0000
0100
0000
1000
0000
,
0001
0000
0001
0000
0001
0000
0010
0000
0010
0000
0010
0000
,
0100
0000
0100
0000
0100
0000
1000
0000
1000
0000
1000
0000
,
0001
0000
1000
0100
0000
0000
0100
0000
0010
0001
0000
0000
,
0001
0000
1000
0100
0000
0000
1100
0000
0000
1001
0000
0000
,
0001
0000
0100
0010
0000
0000
0010
0000
1000
0100
0000
0000
,
0100
0000
0010
0001
0000
0000
0101
0000
0000
1001
0000
0000
,
1000
0000
0001
0100
0000
0000
0001
0000
1000
0010
0000
0000
,
1000
0000
0001
0010
0000
0000
0110
0000
0000
1001
0000
0000
,
1000
0000
1000
0100
0000
0000
0010
0000
0010
0100
0000
0000
,
1000
0000
1000
0001
0000
0000
0101
0000
0000
1010
0000
0000
,
2000
0000
0000
0100
0000
0000
0001
0000
0002
3000
0000
0000
,
0100
0000
0200
0003
0000
0000
0010
0000
0000
0310
0000
0000
,
0001
0000
0000
0001
0000
0000
1000
0000
0100
0000
0000
0000
,
1000
0000
0001
0000
0100
0000
0010
0000
1000
0000
0001
0000
,
0010
0000
0100
0000
1000
0000
0100
0000
0010
0000
0001
0000
,
1000
0000
0001
0000
0100
0000
0001
0000
1000
0000
0010
0000
,
0100
0000
0100
0000
0001
0000
1000
0000
1000
0000
0010
0000
,
0100
0000
0100
0000
0001
0000
0010
0000
0010
0000
0001
1000
,
0001
0000
0001
0000
0100
0000
0010
0000
0010
0000
1000
0000
,
0100
0000
0100
0000
0010
0000
0001
0000
0001
0000
1000
0100
,
1000
0000
1000
0000
0010
0000
0100
0000
0100
0000
0001
0000
,
0010
0000
0010
0000
0001
0000
1000
0000
1000
0000
0100
0010
,
0100
0000
1000
0000
0100
0000
0020
0000
0000
0030
0000
0000
,
0110
0011
0101
1010
,
1000
0001
1000
0001
0000
0000
0010
0000
0000
0010
0000
0000
,
0011
1100
1001
0101
,
0001
1000
0001
1000
0000
0000
0010
0000
0100
0000
0010
0000
,
0100
0101
0011
0101
,
0010
1000
0010
1000
0000
0000
0100
0000
0000
0100
0000
0000
,
1100
1010
1100
1010
,
1000
0000
0000
0001
0000
0000
0100
0000
0010
0100
0000
0010
,
0100
0000
0000
0001
0000
0000
1000
0000
0100
0000
0010
0000
,
0001
0100
1000
0010
,
0001
0000
0000
0000
0000
0000
0000
0000
1000
0100
1000
0100
,
1000
0000
1001
0000
0000
0000
0000
0000
0000
0000
0000
0000
;

//---------------dance-single - ----------------
#NOTES:
     dance-single:
     :
     Medium:
     5:
     0.300730,0.373492,0.421023,0.119157,0.194624,265.000000,212.000000,53.000000,15.000000,8.000000,0.000000,0.300730,0.373492,0.421023,0.119157,0.194624,265.000000,212.000000,53.000000,15.000000,8.000000,0.000000:
0000
0000
0000
0000
,
0000
0000
0000
0000
,
0000
0000
0000
0000
,
0000
0000
0000
0000
,
1000
0000
0001
1000
0000
0000
0001
0000
0000
0001
0000
0000
,
1000
0000
0001
1000
0000
0000
1001
0000
0000
0000
0000
0000
,
0100
0000
0010
0100
0000
0000
0010
0000
0000
0010
0000
0000
,
0100
0000
0010
0100
0000
0000
0110
0000
0000
0000
0000
0000
,
0100
0000
0001
0000
0000
1000
0000
0000
0100
0000
0000
1000
,
0001
0010
0110
1100
,
1000
0000
0001
1000
0000
0000
0001
0000
0000
0100
0000
0000
,
0002
0000
0003
0000
,
0001
0000
0100
0000
0000
0010
0000
0000
1000
0000
0000
1000
,
0100
0010
0011
1001
,
1000
0000
0100
0000
0000
0010
0000
0000
0010
0001
0000
0000
,
2000
0000
3000
0000
,
0002
0000
0000
0000
0000
0010
0M00
0000
0010
0000
0000
1000
,
0000
0000
0100
00M0
0000
0100
0000
0000
0000
0003
0000
0000
,
2000
0000
0000
0000
0000
0100
00M0
0000
0100
0000
0000
0001
,
0000
0000
0010
0M00
0000
0010
0000
0000
0000
3000
0000
0000
,
0200
0000
0000
0000
0000
0010
000M
0000
1000
0000
0000
0010
,
0000
0000
0010
M000
0000
0001
0000
0000
0000
0300
0000
0000
,
0010
0001
0100
0010
,
1000
0100
0010
0001
,
0100
0M00
0100
0000
,
0100
0M00
0100
0000
,
1100
1100
0011
0011
,
1000
0100
0010
0001
,
0101
0101
1010
1010
,
1000
0001
0100
0000
,
0010
0000
1000
0000
0001
0000
0100
0000
0000
0000
0000
0000
,
0001
0000
1000
0000
0100
0000
1000
0000
0000
0000
0000
0000
,
0001
0000
0010
0000
0100
0000
2000
0000
0000
3000
0000
0000
,
0020
0030
0002
0003
,
0200
0300
2000
3000
,
0001
0000
0000
0001
0000
0000
0001
0000
0100
0001
0000
0000
,
1000
0100
1001
1001
,
0010
0000
0000
0010
0000
0000
0010
0000
0100
0010
0000
0000
,
0001
0100
1100
1100
,
1000
0000
0000
1000
0000
0000
1000
0000
0001
1000
0000
0000
,
0100
0010
0101
0101
,
0010
0000
0000
0010
0000
0000
0010
0000
1000
0010
0000
0000
,
0100
0001
1001
1100
,
0010
0001
0200
0300
,
0020
0030
1000
0001
,
1000
1100
0020
0030
,
0001
0000
1000
0000
0001
0000
1000
0000
0001
0000
1000
0000
,
0001
0000
0011
0000
,
1000
0000
1100
0000
,
0010
0000
1001
0000
,
0100
0000
1010
0000
,
1000
0000
0101
0000
,
0001
0000
0110
0000
,
1000
0000
1001
0000
,
0010
0000
1001
0000
,
1000
0000
1100
0000
,
0011
1001
1100
1001
,
0101
0000
0000
0000
,
0110
1010
1001
0011
,
0110
0000
0000
0000
,
1100
1010
0011
0101
,
1100
0000
0000
0000
,
0011
1010
1100
0101
,
1001
0000
0000
0000
0000
0000
0010
0000
0100
0010
0000
0000
,
1000
0000
0000
0000
0000
0000
0001
0000
0100
0000
0001
0000
,
0100
0100
0010
1000
,
2002
0000
0000
3003
,
1000
0000
0001
0000
0000
0000
0000
0000
0000
0000
0000
0000
;
