#TITLE:Cheat Codes;
#SUBTITLE:;
#ARTIST:Nitro Fun;
#TITLETRANSLIT:;
#SUBTITLETRANSLIT:;
#ARTISTTRANSLIT:;
#GENRE:;
#CREDIT:;
#BANNER:;
#BACKGROUND:;
#LYRICSPATH:;
#CDTITLE:;
#MUSIC:Cheat Codes.mp3;
#OFFSET:-0.078000;
#SAMPLESTART:30.077999;
#SAMPLELENGTH:14.980000;
#SELECTABLE:YES;
#BPMS:0.000000=128.000000
,156.020828=64.000000
,157.000000=128.000000
,172.000000=64.000000
,173.000000=128.000000
,187.000000=64.000000
,188.000000=128.000000
,202.000000=64.000000
,203.000000=128.000000
;
#STOPS:156.000000=1.406000
;
#BGCHANGES:;
#KEYSOUNDS:;
#ATTACKS:;

//---------------dance-single - Blank----------------
#NOTES:
     dance-single:
     Shortysnmn2010:
     Beginner:
     1:
     0.093744,0.127653,0.008203,0.057418,0.000000,80.000000,79.000000,1.000000,7.000000,0.000000,0.000000,0.093744,0.127653,0.008203,0.057418,0.000000,80.000000,79.000000,1.000000,7.000000,0.000000,0.000000:
0000
0000
0000
0000
,
0000
0000
0000
0000
,
0000
0000
0000
0000
,
0000
0000
0000
0000
,
0010
0000
0000
0000
,
0010
0000
0000
0000
,
0100
0000
0000
0000
,
0100
0000
0000
0000
,
1000
1000
0000
0000
,
0001
0001
0000
0000
,
0010
0010
0000
0000
,
0100
0100
0000
0000
,
1000
1000
0000
0000
,
0010
0010
0000
0000
,
0100
0100
0000
0000
,
0001
0001
0000
0000
,
1000
0000
1000
0000
,
1000
0000
0000
0000
,
0001
0000
0001
0000
,
0001
0000
0000
0000
,
0010
0000
0010
0000
,
0010
0000
0000
0000
,
0100
0000
0100
0000
,
0100
0000
0000
0000
,
1000
0000
0010
0000
,
1000
0000
0000
0000
,
0001
0000
0100
0000
,
0001
0000
0000
0000
,
1000
0000
0001
0000
,
1000
0000
0000
0000
,
0010
0000
0100
0000
,
0010
0000
0000
0000
,
2000
0000
3000
0000
,
0001
0000
0000
0000
,
0020
0000
0030
0000
,
0100
0000
0000
0000
,
2000
0000
3000
0000
,
0001
0000
0000
0000
,
1000
0000
0000
0000
,
0001
0000
0000
0000
,
0100
0000
0000
0000
,
0010
0000
0000
0000
,
0001
0000
0000
0000
,
0100
0000
0000
0010
,
0000
0000
0000
1000
,
0000
0000
0000
0100
,
0000
0000
0000
0010
,
0000
0000
0001
0000
,
0000
0000
0100
0000
,
0000
0000
0001
0000
,
0000
0000
1000
0000
,
0000
0100
0000
0000
,
0000
0010
0000
0000
,
0000
0001
0000
0001
,
0000
2000
0000
3000
,
0000
0002
0000
0003
,
0000
2000
0000
3000
,
0000
0002
0000
0003
,
0000
1000
0000
1000
,
0000
1000
0000
0000
,
0000
0001
0000
0001
,
0000
0001
0000
0000
,
0000
0110
0000
0000
;

//---------------dance-single - Blank----------------
#NOTES:
     dance-single:
     Shortysnmn2010:
     Easy:
     4:
     0.220298,0.306366,0.098431,0.024608,0.000000,188.000000,176.000000,12.000000,3.000000,0.000000,0.000000,0.220298,0.306366,0.098431,0.024608,0.000000,188.000000,176.000000,12.000000,3.000000,0.000000,0.000000:
0000
0000
0000
0000
,
0000
0000
0000
0000
,
0000
0000
0000
0000
,
0000
0000
0000
0000
,
0000
1000
0000
0001
,
0000
0010
0000
0001
,
0000
1000
0000
0100
,
0000
1000
0000
0010
,
1000
1000
1000
0000
,
0001
0001
0001
0000
,
0010
0010
0010
0000
,
0100
0100
0100
0000
,
1000
0010
1000
0000
,
0001
0100
0001
0000
,
1000
0100
1000
0000
,
0001
0010
0001
0000
,
1000
0010
1000
0010
,
1000
0001
1000
0000
,
0001
0100
0001
1000
,
0001
0010
0001
0000
,
1000
0100
0001
0100
,
1000
0100
0001
0000
,
0100
0010
0001
0100
,
0010
0001
0010
0000
,
1000
0100
1000
0001
,
1000
0010
0100
0001
,
0010
0001
0010
0100
,
1000
0010
1000
0010
,
0100
0001
1000
0100
,
0010
0100
1000
1000
,
0001
0100
0010
0100
,
0001
0010
0001
0001
,
2000
0000
0000
0010
,
0010
0000
0000
0001
,
0001
0000
0000
0100
,
0100
0000
0000
0010
,
3010
0000
1010
0000
,
1001
0000
1100
0000
,
0011
0000
1001
0000
,
0101
0110
1001
0000
0000
0000
1000
0000
,
0100
0010
0010
0001
,
0100
0000
0001
0010
,
0001
0001
1000
0100
,
0000
1001
0000
0000
0010
0000
0000
0000
,
0001
0100
0100
0010
,
0000
1000
0100
1000
,
0001
0000
0001
0000
1000
0000
0000
0110
,
0000
0001
0100
0010
,
1000
1000
0100
0000
,
1000
0000
0001
0010
,
0100
0000
1000
0000
0000
0101
0000
0000
,
0010
1000
0100
0010
,
0001
1000
0000
0010
,
0000
1000
0100
0001
,
0100
2000
0000
0000
,
0000
0000
0000
3000
,
0000
0002
0000
0000
,
0000
0000
0000
0003
,
0000
0100
0010
0100
,
0001
1000
0100
0010
,
0001
1000
0001
0100
,
0010
1000
0001
0001
,
0010
0110
0000
0000
;

//---------------dance-single - Blank----------------
#NOTES:
     dance-single:
     Shortysnmn2010:
     Hard:
     8:
     0.461688,0.512661,0.385521,0.328103,0.155849,394.000000,347.000000,47.000000,40.000000,8.000000,0.000000,0.461688,0.512661,0.385521,0.328103,0.155849,394.000000,347.000000,47.000000,40.000000,8.000000,0.000000:
0000
0000
0000
0000
,
0000
0000
0000
0000
,
0000
0000
0000
0000
,
0000
0000
0000
0000
,
1000
0100
0001
0000
0100
0010
0100
2000
,
0000
0000
0010
0000
3002
0000
0103
0010
,
0100
0001
1000
0000
0100
0010
0001
0020
,
0000
0130
1100
1001
,
1000
0000
0001
0000
0100
0010
0100
0001
,
1000
0000
1100
0000
0010
0001
1000
0001
,
0100
0000
0110
0000
0100
0001
1000
0100
,
0001
0000
0101
0000
0100
1000
0010
0100
,
0001
0000
1001
0000
0001
0010
0100
1000
,
0010
0000
0101
0000
1000
0010
0001
0010
,
1000
0000
1100
0000
0010
0001
0100
0010
,
0100
0000
1010
0000
0001
0010
0100
0000
,
2100
3002
0100
0013
,
0210
0000
2300
0000
3002
0100
2003
0010
,
3001
0011
0110
1100
,
2001
0000
3020
0000
0230
0001
0320
1000
,
0130
0101
1001
1100
,
1002
0000
0023
0000
0230
1000
0320
0001
,
0130
1100
1010
0101
,
0021
0000
0230
0000
2300
0010
3002
0100
,
1003
0000
0100
0010
0001
0010
0001
0100
,
0001
0000
2001
0000
0100
0100
3002
1000
,
1003
0000
0001
0100
0010
1000
0010
1000
,
0001
0000
0102
0000
0010
0010
2003
0100
,
3100
0000
0010
0001
0010
0001
0100
0000
,
0010
1000
0100
0000
1000
0010
0100
0001
,
1000
0000
0001
0010
0001
0010
1000
0000
,
0010
0000
0001
0000
0100
0000
0000
0000
0010
1000
0001
0100
0010
0000
0000
0000
,
2000
0000
0000
0000
0100
0000
0000
0000
3010
0000
0000
0100
0001
0000
0010
0000
,
0002
0000
0000
0000
1000
0000
0000
0000
0103
0000
0000
0010
1000
0000
0001
0000
,
0020
0000
0000
0000
0100
0000
0000
0000
0031
0000
0000
1000
0100
0000
1000
0000
,
0020
0000
0000
0000
0100
0000
0000
0000
0130
0000
0000
0001
1000
0000
0100
0000
,
0010
0000
0001
0000
0010
0000
0001
0000
1000
0000
0100
0000
0001
0000
0100
0010
,
0100
0000
1000
0000
0100
0000
1000
0000
0010
0000
0100
0000
0010
0000
0100
0001
,
0100
0001
1000
0010
0100
0001
1000
0010
,
0100
0000
1001
0000
0220
0000
0000
0330
0000
0000
1000
0000
0001
0000
0010
0000
,
0000
0000
0000
0000
0000
0100
0000
1000
0000
0100
1000
0100
0010
0000
0001
0000
,
2000
0000
0000
0000
3000
0000
0000
0001
0000
0001
0010
0000
0001
0000
0100
0000
,
0001
0000
1100
0000
1000
0010
0100
0001
,
0000
1001
0000
1000
0100
0010
0000
0000
,
0000
0010
0000
0001
0000
1000
0001
1000
0001
0000
0100
0000
0020
0000
0000
0000
,
0030
0000
0000
0100
0000
0100
0001
0000
1000
0000
0001
0000
0010
0000
0000
0000
,
0110
0000
0001
0100
1000
0010
0001
1001
,
0000
0001
1000
0000
0001
0000
0010
0000
0000
0000
0000
0000
0000
0100
0000
1000
,
0000
0100
0010
0001
0010
0000
0001
0000
2000
0000
0000
0000
3000
0000
0000
0100
,
0000
0010
0100
0000
2000
0000
0001
0000
3001
0000
0000
0000
1001
0000
0000
0000
,
0001
0000
0100
0000
1000
0000
0010
0000
0001
0000
1001
0000
0000
1000
0100
0000
,
0010
0000
0001
0000
0000
0000
0000
0000
0000
1000
0000
1000
0000
0010
1000
0001
,
1000
0000
0001
0000
0200
0000
0000
0000
0300
0000
0000
0010
0000
0100
0010
0000
,
1000
0000
0100
0000
2000
0000
0001
3000
0002
0000
1000
0003
2000
0000
0001
3000
,
1001
0000
0110
0000
0000
0MM0
0000
1001
,
0000
0011
0000
0000
1100
0000
0000
0000
0000
0000
MM00
0000
0000
0000
0011
0000
,
0000
1100
0000
0000
1001
0000
0000
0000
0000
0000
M00M
0000
0000
0000
0101
0000
,
0000
1010
0000
0000
1001
0000
0000
0000
0000
0000
M00M
0000
0000
0000
0110
0000
,
0000
1001
0000
0000
0010
0000
0001
0000
0100
0000
0000
0000
0010
0000
1000
0000
,
0100
0000
1000
0100
0010
0000
0001
0100
,
0010
0000
1000
0001
0100
0000
0010
1000
,
0001
0000
0100
0000
1001
0000
1000
0010
,
0001
0100
2000
0000
3000
0000
0000
0000
;

//---------------dance-single - ----------------
#NOTES:
     dance-single:
     :
     Medium:
     6:
     0.304667,0.333229,0.180457,0.147646,0.028709,260.000000,238.000000,22.000000,18.000000,0.000000,0.000000,0.304667,0.333229,0.180457,0.147646,0.028709,260.000000,238.000000,22.000000,18.000000,0.000000,0.000000:
0000
0000
0000
0000
,
0000
0000
0000
0000
,
0000
0000
0000
0000
,
0000
0000
0000
0000
,
1000
0001
1000
0000
0001
0100
0001
0200
,
0000
0000
0000
0000
0310
0000
0000
2002
,
0000
0000
0000
3003
0000
0000
0000
0220
,
0000
0000
0000
0000
0000
0330
0000
0000
,
1000
0000
0100
0000
1000
0100
0010
0000
,
0001
0000
0001
0000
1000
0010
0100
0000
,
0001
0000
1000
0000
0100
0010
0100
0000
,
1000
0001
0100
0000
,
0001
0000
0010
0000
0001
0010
0001
0000
,
1000
0000
0100
0000
1000
0100
1000
0000
,
0010
0000
0100
0000
0001
0100
0001
0000
,
0010
0100
1000
0000
,
0001
0100
1000
0100
,
0001
0000
1000
0000
0100
0010
0100
0010
,
0100
1000
0010
0100
,
0001
0000
0010
0000
0100
0010
0100
0010
,
0100
1000
0001
0100
,
1000
0000
0100
0000
0001
1000
0001
1000
,
0001
1000
0100
0010
,
0001
0000
1000
0000
0010
0100
0010
0100
,
0001
0101
0001
1000
,
0100
0000
1100
0000
1000
0001
1000
0000
,
0001
0011
0001
1000
,
0010
0000
1010
0000
1000
0001
0100
0000
,
0010
0110
0100
0001
,
1000
0000
1100
0000
1000
0001
0010
0000
,
0100
0110
1000
0001
,
0100
0000
0101
0000
0010
1000
0010
0000
,
2000
0000
0000
3100
,
0002
0000
0000
0013
,
2000
0000
0000
3001
,
0200
0000
0000
0310
,
1000
0001
1000
0001
,
0010
0100
0010
0100
,
1000
0001
1000
0001
1000
0001
1000
0001
,
1000
0000
0001
0000
0000
1000
0100
1000
,
0000
0000
0001
1000
,
2000
0000
0010
0100
,
3001
0000
0100
0000
0001
0100
0010
1000
,
0001
1000
0000
0000
0001
0010
0000
0000
,
0100
1000
1000
0220
,
0330
0000
0001
1000
,
1100
0000
1000
0010
0001
0010
1000
0001
,
0000
0000
1000
0100
0000
0000
1000
0000
,
0010
0001
2002
3003
,
0000
0100
0101
1010
,
0001
0010
0100
1000
0001
0100
0000
0000
,
0001
1000
0000
0000
0100
0000
0010
0000
,
0010
2200
3300
0010
,
0001
0000
0100
0010
0100
0010
0100
0010
,
0100
0000
1001
0000
0000
0000
0000
1000
,
0000
0001
0000
0000
1000
0000
0000
0000
0000
0000
0000
0000
0000
0000
0100
0000
,
0000
0010
0000
0000
0100
0000
0000
0000
0000
0000
0000
0000
0000
0000
0010
0000
,
0000
0001
0000
0000
0100
0000
0000
0000
0000
0000
0000
0000
0000
0000
0010
0000
,
0000
1000
0000
0000
0100
0000
0000
0000
1100
0000
0000
0000
0000
0000
0010
0000
,
0000
0001
0000
0000
1000
0000
0000
0000
1100
0000
0000
0000
0000
0000
0100
0000
,
0000
1000
0000
0000
0010
0000
0000
0000
0110
0000
0000
0000
0000
0000
0100
0000
,
0000
0001
0000
0000
0010
0000
0000
0000
0110
0000
0000
0000
0100
0000
0000
0000
,
1000
2002
3003
0000
;
