#TITLE:Bad Intentions;
#SUBTITLE:;
#ARTIST:Zomboy;
#TITLETRANSLIT:;
#SUBTITLETRANSLIT:;
#ARTISTTRANSLIT:;
#GENRE:;
#CREDIT:;
#BANNER:;
#BACKGROUND:;
#LYRICSPATH:;
#CDTITLE:;
#MUSIC:Bad Intentions.mp3;
#OFFSET:-0.164000;
#SAMPLESTART:75.164001;
#SAMPLELENGTH:15.000000;
#SELECTABLE:YES;
#BPMS:0.000000=128.000000
,96.000000=64.000000
,112.000000=128.000000
,206.000000=64.000000
,207.000000=128.000000
;
#STOPS:
;
#BGCHANGES:;
#KEYSOUNDS:;
#ATTACKS:;

//---------------dance-single - Blank----------------
#NOTES:
     dance-single:
     Shortysnmn2010:
     Beginner:
     1:
     0.084592,0.145836,0.032008,0.072018,0.000000,74.000000,70.000000,4.000000,9.000000,0.000000,0.000000,0.084592,0.145836,0.032008,0.072018,0.000000,74.000000,70.000000,4.000000,9.000000,0.000000,0.000000:
0000
0000
0000
0000
,
0000
0000
0000
0000
,
0000
0000
0000
0000
,
0000
0000
0000
0000
,
1000
0000
0000
0000
,
0001
0000
0000
0000
,
0010
0000
0000
0000
,
0001
0000
0000
0000
,
0100
0000
0000
0000
,
0010
0000
0000
0000
,
1000
0000
0000
0000
,
0001
0000
0000
0000
,
1000
0000
0000
0000
,
0100
0000
0000
0000
,
0001
0000
0000
0000
,
0100
0000
0000
0000
,
1000
0000
1000
0000
,
1000
0000
0000
0000
,
0001
0000
0001
0000
,
0001
0000
0000
0000
,
0100
0000
0100
0000
,
0100
0000
0000
0000
,
0010
0000
0010
0000
,
0010
0000
0000
0000
,
2002
3003
0000
0000
,
0220
0330
0000
0000
,
2002
3003
0000
0000
,
0220
0330
0000
0000
,
1000
0000
0000
0000
,
0001
0000
0000
0000
,
0010
0000
0000
0000
,
0100
0000
0000
0000
,
1000
0000
0000
0000
,
0100
0000
0000
0000
,
1000
0000
0000
0000
,
0010
0000
0000
0000
,
1000
0000
1000
0000
,
0001
0000
0001
0000
,
1000
0000
0000
0000
,
0100
0000
0000
0000
,
0010
0000
0010
0000
,
0100
0000
0100
0000
,
0010
0000
0000
0000
,
0100
0000
0000
0000
,
1000
0000
0000
0000
,
0001
0000
0000
0000
,
0100
0000
0000
0000
,
0010
0000
0000
0000
,
0100
0000
0100
0000
,
0100
0000
0100
0000
,
0010
0000
0010
0000
,
0010
0000
0000
1000
,
0000
0000
0000
0001
,
0000
1000
0000
0001
,
0000
0000
0000
0010
,
0000
0000
0000
0100
,
0000
0000
0000
1000
,
0000
0100
0000
1000
,
0000
0000
0000
0010
,
0000
0000
0000
0200
,
0000
0000
0000
0300
;

//---------------dance-single - Blank----------------
#NOTES:
     dance-single:
     Shortysnmn2010:
     Easy:
     2:
     0.125745,0.168742,0.048012,0.168042,0.000000,110.000000,104.000000,6.000000,21.000000,16.000000,1.000000,0.125745,0.168742,0.048012,0.168042,0.000000,110.000000,104.000000,6.000000,21.000000,16.000000,1.000000:
0000
0000
0000
0000
,
0000
0000
0000
0000
,
0000
0000
0000
0000
,
0000
0000
0000
0000
,
1000
0000
0001
0000
,
0010
0000
0001
0000
,
1000
0000
0010
0000
,
0200
0000
0300
0000
,
0010
0000
0010
0000
,
0010
0010
0010
0000
,
1000
0000
0100
0000
,
1000
0000
0000
0000
,
0001
0000
0001
0000
,
0001
0001
0001
0000
,
1000
0000
0010
0000
,
0100
0000
0000
0000
,
0010
0010
0010
0000
,
0010
0000
1000
0000
,
0001
0001
0001
0000
,
0001
0000
1000
0000
,
0100
0100
0100
0000
,
0010
0000
0010
0000
,
0001
0001
0001
0000
,
0100
0000
0000
0000
,
0020
0000
2030
0000
,
3002
0000
0023
0000
,
0230
0000
2300
0000
,
3002
0000
0023
0000
,
2032
0000
0000
0000
,
0MM0
0000
3MM3
0000
,
0220
0000
0000
0000
,
M00M
0000
M33M
0000
,
2020
0000
0000
0000
,
0M0M
0000
3M3M
0000
,
0202
0000
0000
0000
,
M0M0
0000
M3M3
0000
,
1000
0001
1000
0000
,
0001
0000
1000
0000
,
0100
0010
0100
0000
,
0010
0000
0100
0000
,
1000
0010
1000
0000
,
0010
0000
1000
0000
,
0001
0100
0001
0000
,
1000
0000
0001
0000
,
2000
0000
0000
0000
,
0001
0000
3001
0000
,
0002
0000
0000
0000
,
0100
0000
0103
0000
,
0200
0000
0000
0000
,
0010
0000
0010
0000
,
0010
0000
0010
0000
,
0310
0000
1001
1000
,
0000
0100
0000
1000
,
0000
0001
0000
0010
,
0000
0000
0000
0110
,
0000
0000
0000
0100
,
0000
1000
0000
0010
,
0000
0100
0000
0001
,
0000
1000
0000
0001
,
1000
0001
1000
0002
,
0000
0003
0000
0000
;

//---------------dance-single - Blank----------------
#NOTES:
     dance-single:
     Shortysnmn2010:
     Hard:
     9:
     0.516700,0.626755,0.352087,0.272067,0.444110,452.000000,408.000000,44.000000,34.000000,0.000000,0.000000,0.516700,0.626755,0.352087,0.272067,0.444110,452.000000,408.000000,44.000000,34.000000,0.000000,0.000000:
// measure 0
0000
0000
0000
0000
,  // measure 1
0000
0000
0000
0000
,  // measure 2
0000
0000
0000
0000
,  // measure 3
0000
0000
0000
0000
,  // measure 4
1000
0100
0010
0100
1000
0100
0001
0100
,  // measure 5
0000
0000
1000
0000
0100
0000
1000
0000
0001
0000
0100
0010
0000
0000
0100
0001
,  // measure 6
0000
0100
0000
0100
0000
0001
0000
0001
0000
1000
0000
0100
0000
1000
0100
0000
,  // measure 7
0000
0010
0001
1000
0001
0200
0000
0310
,  // measure 8
1000
0001
1000
0000
0100
0000
0010
0000
0001
0000
1000
0000
0001
0000
0100
0000
,  // measure 9
0000
0000
0010
0000
0100
0000
0001
0000
0010
0000
0100
1000
0000
0000
0001
0010
,  // measure 10
0000
0100
0000
1000
0000
1000
0000
0010
0000
0100
0000
0001
0000
0001
1000
0000
,  // measure 11
0000
0001
0100
0001
2000
0000
3002
0000
,  // measure 12
0013
0100
1000
0010
0001
0010
0100
0001
,  // measure 13
0000
0000
0010
0000
0100
0000
1000
0000
0010
0000
0100
0001
0000
0000
1000
0100
,  // measure 14
0000
0010
0000
0010
0000
0001
0000
1000
0000
1000
0000
0010
0000
0010
1000
0000
,  // measure 15
0000
0100
0010
0001
2000
0010
0000
3001
,  // measure 16
0100
0010
1000
0001
0100
0010
1000
0100
,  // measure 17
0010
0001
1000
0100
0010
0100
1000
0010
,  // measure 18
0100
0001
1000
0010
0001
0010
1000
0100
,  // measure 19
0010
1000
0010
0001
0100
0010
2000
0100
,  // measure 20
3001
0010
0001
1000
0100
0010
0001
0100
,  // measure 21
1000
0100
0010
1000
0001
0100
1000
0100
,  // measure 22
0001
0010
0100
0001
0100
0010
0001
1000
,  // measure 23
1100
1001
0101
1001
,  // measure 24
2000
0000
0000
0100
3002
0000
0000
0010
,  // measure 25
2003
0000
0000
0010
3200
0000
0000
0001
,  // measure 26
0320
0000
0000
0001
0230
0000
0000
0001
,  // measure 27
2300
0000
0000
0010
3002
0000
0000
0100
,  // measure 28
1003
0000
0000
1100
0000
0000
1001
0000
0000
0000
0012
0000
0000
0100
0000
0000
,  // measure 29
2003
0000
0000
0100
0000
0000
3001
0000
0000
0000
2010
0000
0000
0100
0000
0000
,  // measure 30
3002
0000
0000
0100
0000
0000
1003
0000
0000
0000
1020
0000
0000
0001
0000
0000
,  // measure 31
0230
0000
0000
1000
0000
0000
0301
0000
0000
0000
0101
0000
0000
1010
0000
0000
,  // measure 32
1001
0000
0000
1100
0000
0000
0011
0000
0000
0000
0110
0000
0000
1100
0000
0000
,  // measure 33
1010
0000
0000
1001
0000
0000
0101
0000
0000
0000
0110
0000
0000
0110
0000
0000
,  // measure 34
1001
0000
0000
0011
0000
0000
1100
0000
0000
0000
1001
0000
0000
1001
0000
0000
,  // measure 35
0101
0000
0000
1010
0000
0000
1100
0000
0000
0000
0010
0000
0000
0001
0000
0000
,  // measure 36
0202
0000
0000
0303
0000
0000
1000
0001
0100
0010
1000
0100
0010
0001
2000
0000
,  // measure 37
0000
0000
0000
0000
3000
0000
0000
0000
0001
0010
0001
0010
0100
1000
0100
1000
,  // measure 38
0001
0010
0100
1000
0000
0001
0200
0000
0000
0000
0310
1000
0001
0010
0002
0000
,  // measure 39
0000
0000
0003
0000
1000
0000
0100
1000
0100
0010
0100
1000
0001
0010
0001
1000
,  // measure 40
0100
0000
0000
0010
0000
0010
0001
0000
0000
0000
0100
0001
1000
0010
0000
0000
,  // measure 41
1000
0001
0010
0001
0000
0000
1000
0100
0010
0100
1000
0001
0010
0100
1000
0001
,  // measure 42
1000
0000
0001
0010
0001
0000
1000
0100
1000
0000
0001
0100
0001
0000
1000
0000
,  // measure 43
0010
0000
0100
0000
0001
0000
1000
0000
0100
0010
0100
0010
0001
1000
0001
1000
,  // measure 44
0010
0000
0100
0000
0000
0102
0000
0000
0010
0000
0000
1000
0000
0000
0103
0000
,  // measure 45
0010
0000
1000
0000
0000
2100
0000
0000
0001
0000
0000
0010
0000
0000
3001
0000
,  // measure 46
0010
0000
0100
0000
0000
1200
0000
0000
0001
0000
0000
0010
0000
0000
0310
0000
,  // measure 47
0001
0000
1000
0000
0000
0102
0000
0000
0010
0000
0000
1000
0000
0000
0103
0010
,  // measure 48
1000
0000
0000
0001
0010
0000
0000
0100
1000
0000
0000
0010
0100
0000
0000
0001
,  // measure 49
1000
0000
0000
0100
0010
0000
0000
0001
0100
0000
0000
1000
0100
0000
0000
0001
,  // measure 50
1000
1000
0100
0100
0010
0010
0001
0001
,  // measure 51
1000
0100
0010
0001
1000
0100
0010
0001
1000
0000
0000
0000
1001
0000
0000
0001
,  // measure 52
1000
0000
0100
0000
0001
0000
0100
0000
1000
0000
0000
0000
1001
0000
0000
1000
,  // measure 53
0002
0000
0100
0000
2003
0000
0100
0000
3001
0000
0000
0000
1010
0000
0000
0010
,  // measure 54
0100
0000
0001
0000
1000
0000
0100
0000
0010
0000
0000
0000
0011
0000
0000
0010
,  // measure 55
0001
0000
0100
0000
0010
0000
1000
0000
1100
0000
0000
0000
1001
0000
0000
0001
,  // measure 56
0010
0000
0001
0000
0100
0000
0010
0000
1000
0000
0000
0000
1100
0000
0000
1000
,  // measure 57
0200
0000
0001
0000
0320
0000
1000
0000
0130
0000
0000
0000
0110
0000
0000
0010
,  // measure 58
0001
0000
0100
0000
0010
0000
1000
0000
0001
0000
0000
0000
0101
0000
0000
0001
,  // measure 59
0010
0000
1000
0000
0010
0100
1000
0000
0001
0100
0000
0000
0220
0000
0000
0000
,  // measure 60
0000
0330
0000
0000
;

//---------------dance-single - ----------------
#NOTES:
     dance-single:
     :
     Medium:
     6:
     0.284642,0.382495,0.128032,0.032008,0.000000,249.000000,233.000000,16.000000,4.000000,0.000000,0.000000,0.284642,0.382495,0.128032,0.032008,0.000000,249.000000,233.000000,16.000000,4.000000,0.000000,0.000000:
// measure 0
0000
0000
0000
0000
,  // measure 1
0000
0000
0000
0000
,  // measure 2
0000
0000
0000
0000
,  // measure 3
0000
0000
0000
0000
,  // measure 4
1000
0000
0001
0000
0010
0000
0001
0100
,  // measure 5
0000
0100
0001
0000
0010
0000
0100
0000
,  // measure 6
1000
1000
0001
0001
,  // measure 7
0010
0010
0100
1001
,  // measure 8
1000
0000
0010
0000
1000
0000
0100
1000
,  // measure 9
0000
1000
0100
0000
0010
0000
0001
0000
,  // measure 10
0100
0100
0001
0001
,  // measure 11
0010
0010
0100
1001
,  // measure 12
1000
0000
0001
0000
0100
0000
0010
1000
,  // measure 13
0000
1000
0010
0000
0100
0000
0001
0000
,  // measure 14
1000
1000
0010
0010
,  // measure 15
0001
0001
0010
0101
,  // measure 16
0010
1000
0100
0000
1000
0100
0010
0000
,  // measure 17
0001
0010
0001
0000
0010
0001
0100
0000
,  // measure 18
0001
1000
0001
0000
1000
0001
1000
0000
,  // measure 19
0100
0010
0100
0000
0010
0100
0010
0000
,  // measure 20
0100
1000
0100
0000
1000
0001
1000
0000
,  // measure 21
0001
0100
0001
0000
0100
0010
0100
0000
,  // measure 22
0010
1000
0010
0000
1000
0100
0010
0000
,  // measure 23
0001
0100
0001
1000
,  // measure 24
1001
0000
0000
0010
1000
0000
0000
0100
,  // measure 25
0010
0000
0000
0001
0100
0000
0000
0001
,  // measure 26
1000
0000
0000
1000
0100
0000
0000
0100
,  // measure 27
0010
0000
0000
0010
0001
0000
0000
0001
,  // measure 28
1000
0000
0000
1000
0000
0100
0000
0000
,  // measure 29
0010
0000
0000
0001
0000
0100
0000
0000
,  // measure 30
0001
0000
0000
0010
0000
0100
0000
0000
,  // measure 31
1000
0000
0000
0001
0000
0100
0000
0000
,  // measure 32
0010
0000
0000
1000
0000
0001
0000
0000
,  // measure 33
0010
0000
0000
0100
0000
0010
0000
0000
,  // measure 34
0001
0000
0000
0100
0000
1000
0000
0000
,  // measure 35
0100
0000
0000
0010
0000
1000
0000
0000
,  // measure 36
1001
0000
1000
0000
0100
0010
0100
0010
,  // measure 37
0100
1000
0010
0100
,  // measure 38
0001
0000
0010
0001
0100
0000
0100
0001
,  // measure 39
0010
0100
1000
0000
,  // measure 40
0001
0100
0010
1000
,  // measure 41
0100
0010
0010
0001
,  // measure 42
0100
0001
0100
0001
0100
0001
0100
0000
,  // measure 43
0010
0100
0010
0100
0010
0100
0010
0000
,  // measure 44
2000
0000
0000
3000
,  // measure 45
0002
0000
0000
0003
,  // measure 46
0200
0000
0000
0300
,  // measure 47
0020
0000
0000
0030
,  // measure 48
1001
0100
0100
0100
,  // measure 49
1010
0001
0001
0001
,  // measure 50
1100
1100
0011
0011
,  // measure 51
0110
0110
1001
1000
,  // measure 52
0100
0000
0010
0001
0100
0000
0001
0000
,  // measure 53
1000
0010
0000
1000
,  // measure 54
0001
0000
0100
0010
1000
0000
0001
0000
,  // measure 55
0010
0001
0000
1000
,  // measure 56
0100
0000
0010
0001
0100
0000
0001
0000
,  // measure 57
1000
1100
0000
1000
,  // measure 58
0010
0000
0100
0001
0010
0000
0001
0000
,  // measure 59
1000
0001
0100
0001
1000
0000
1001
0000
;
