#TITLE:Awkward Justice;
#SUBTITLE:;
#ARTIST:Motoi Sakuraba;
#TITLETRANSLIT:;
#SUBTITLETRANSLIT:;
#ARTISTTRANSLIT:;
#GENRE:;
#CREDIT:;
#BANNER:;
#BACKGROUND:;
#LYRICSPATH:;
#CDTITLE:;
#MUSIC:Awkward Justice.mp3;
#OFFSET:-0.433000;
#SAMPLESTART:35.173000;
#SAMPLELENGTH:12.609000;
#SELECTABLE:YES;
#BPMS:0.000000=151.973007
;
#STOPS:
;
#BGCHANGES:;
#KEYSOUNDS:;
#ATTACKS:;

//---------------dance-single - Blank----------------
#NOTES:
     dance-single:
     Shortysnmn2010:
     Easy:
     2:
     0.127493,0.185536,0.007829,0.117428,0.000000,114.000000,113.000000,1.000000,15.000000,0.000000,0.000000,0.127493,0.185536,0.007829,0.117428,0.000000,114.000000,113.000000,1.000000,15.000000,0.000000,0.000000:
// measure 0
0000
0000
0000
0000
,  // measure 1
0000
0000
0000
0000
,  // measure 2
0000
0000
0000
0000
,  // measure 3
0000
0000
0000
0000
,  // measure 4
1000
0000
0000
0000
,  // measure 5
0010
0000
0100
0000
,  // measure 6
0010
0000
0000
0000
,  // measure 7
1000
0000
0000
0100
,  // measure 8
0100
0000
0000
0000
,  // measure 9
0010
0000
0000
0000
,  // measure 10
0001
0000
0000
0000
,  // measure 11
0100
0000
0000
0010
,  // measure 12
0010
0000
0000
0000
,  // measure 13
1000
0000
0000
0000
,  // measure 14
0001
0000
0010
0000
,  // measure 15
0001
0000
0000
0000
,  // measure 16
1000
0000
0000
0000
,  // measure 17
0001
0000
0000
0000
,  // measure 18
0100
0000
0010
0000
,  // measure 19
0100
0000
0000
0000
,  // measure 20
0001
0000
0000
0000
,  // measure 21
1000
0000
0000
0000
,  // measure 22
0020
0000
0030
0000
,  // measure 23
1000
0000
0001
0000
,  // measure 24
2000
0000
3000
0000
,  // measure 25
0100
0000
0000
0000
,  // measure 26
0020
0000
0030
0000
,  // measure 27
0001
0000
0100
0000
,  // measure 28
0002
0000
0003
0000
,  // measure 29
1000
0000
0000
0000
,  // measure 30
0002
0000
0000
0003
,  // measure 31
0010
0000
0100
0000
,  // measure 32
2000
0000
0000
3000
,  // measure 33
0001
0000
0000
0000
,  // measure 34
0020
0000
0000
0030
,  // measure 35
0100
0000
1000
0000
,  // measure 36
0020
0000
0000
0030
,  // measure 37
0100
0000
0000
0000
,  // measure 38
0001
0001
0001
0000
,  // measure 39
0001
0000
0001
0000
,  // measure 40
0001
0001
0001
0000
,  // measure 41
0001
0000
0000
0000
,  // measure 42
1000
1000
1000
0000
,  // measure 43
1000
0000
1000
0000
,  // measure 44
1000
1000
1000
0000
,  // measure 45
1000
0000
0000
0000
,  // measure 46
0100
0000
0000
0100
,  // measure 47
0100
0000
0100
0000
,  // measure 48
0200
0000
0010
0000
,  // measure 49
0000
0000
0300
0000
,  // measure 50
2000
0000
0000
0000
,  // measure 51
0001
0000
3000
0000
,  // measure 52
0002
0000
0000
0000
,  // measure 53
0000
0000
0003
0000
,  // measure 54
1000
0000
0001
0000
,  // measure 55
1000
0000
0001
0000
,  // measure 56
0010
0000
0001
0000
,  // measure 57
1000
0000
0001
0000
,  // measure 58
0100
0000
0001
0000
,  // measure 59
1000
0000
0010
0000
,  // measure 60
1000
0000
0001
0000
,  // measure 61
0010
0000
0100
0000
,  // measure 62
1000
0000
0000
0001
,  // measure 63
0000
0000
0010
0100
,  // measure 64
0010
0000
0000
0001
,  // measure 65
0000
0000
0200
0300
,  // measure 66
0010
0000
0000
1000
,  // measure 67
0000
0000
0100
1000
,  // measure 68
0100
0000
0000
0010
,  // measure 69
0000
0000
0002
0003
,  // measure 70
1000
0000
0000
0000
,  // measure 71
0001
0000
0000
0000
,  // measure 72
0010
0000
0000
0000
,  // measure 73
0100
0000
0000
0000
,  // measure 74
1000
0000
0001
0000
,  // measure 75
1000
0000
0010
0000
,  // measure 76
1000
0000
0001
0000
,  // measure 77
0100
0000
0001
0000
,  // measure 78
2002
0000
0000
0000
,  // measure 79
3003
0000
0000
0000
;

//---------------dance-single - Blank----------------
#NOTES:
     dance-single:
     Shortysnmn2010:
     Hard:
     8:
     0.422740,0.553085,0.172228,0.383598,0.148742,378.000000,356.000000,22.000000,49.000000,16.000000,0.000000,0.422740,0.553085,0.172228,0.383598,0.148742,378.000000,356.000000,22.000000,49.000000,16.000000,0.000000:
// measure 0
0000
0000
0000
0000
,  // measure 1
0000
0000
0000
0000
,  // measure 2
0000
0000
0000
0000
,  // measure 3
0000
0000
0000
0000
,  // measure 4
2002
0000
3003
0000
,  // measure 5
1010
0000
0101
0000
,  // measure 6
0010
0000
0000
0000
1000
0000
0001
0100
0000
0100
0001
0000
1000
0000
0000
0000
,  // measure 7
1001
0000
0000
0000
0001
0000
1000
0100
0000
0100
0010
0000
0001
0000
0000
0000
,  // measure 8
0101
0000
0000
0000
0100
0000
0010
1000
0000
0010
1000
0000
0001
0000
0000
0000
,  // measure 9
1100
0000
0000
0000
1000
0000
0100
1000
0000
0100
1000
0000
0001
0000
0000
0000
,  // measure 10
2000
0000
0000
0000
3010
0000
0100
0001
0000
0100
0001
0000
1000
0000
0000
0000
,  // measure 11
0002
0000
0000
0010
0000
0000
1003
0000
,  // measure 12
0002
0000
0000
0000
1003
0000
0100
1000
0000
0100
1000
0000
0010
0000
0000
0000
,  // measure 13
0100
0000
0000
0000
0001
0000
1000
0100
0000
0010
0001
0000
1000
0000
0000
0000
,  // measure 14
0001
0000
0000
1000
0000
0000
0200
0000
0020
0000
0000
0000
0330
0000
0000
0000
,  // measure 15
0100
0000
1000
0000
0001
0000
0010
0001
0000
0010
0001
0000
1000
0000
0000
0000
,  // measure 16
0001
0000
0100
0000
0010
0000
1000
0001
0000
1000
0001
0000
0010
0000
0000
0000
,  // measure 17
0100
0000
1000
0000
0010
0000
0100
0001
0000
0100
0001
0000
1000
0000
0000
0000
,  // measure 18
0001
0000
0000
0010
0000
0000
0200
0000
2000
0000
0000
0000
3300
0000
0000
0000
,  // measure 19
0001
0000
0000
0000
0100
0000
0001
1000
0000
0100
1000
0000
0010
0000
0000
0000
,  // measure 20
1000
0000
0000
0000
0100
0000
1000
0001
0000
0010
0001
0000
0100
0000
0000
0000
,  // measure 21
0010
0000
0000
0000
1000
0000
0010
0100
0000
0010
0100
0000
0001
0000
0000
0000
,  // measure 22
2000
0000
0000
3200
0000
0000
0302
0000
,  // measure 23
0000
2003
0000
0000
3020
0000
0032
0000
,  // measure 24
0203
0000
0000
2300
0000
0000
3002
0000
,  // measure 25
0000
0023
0000
0000
2030
0000
3002
0000
,  // measure 26
0103
0000
0000
1010
0000
0000
1001
0000
,  // measure 27
0000
0021
0000
0000
0100
0000
0130
0000
,  // measure 28
1001
0000
0000
0011
0000
0000
1100
0000
,  // measure 29
0000
2001
0000
0000
0010
0000
3010
0000
,  // measure 30
0100
0001
1000
0000
0010
1000
0100
0000
,  // measure 31
1000
0000
0100
0010
0001
0000
0100
0010
,  // measure 32
1000
0001
0010
0000
0100
0010
0001
0000
,  // measure 33
1000
0100
0010
0000
1000
0010
0001
0000
,  // measure 34
1000
0010
1000
0000
1000
0100
1000
0000
,  // measure 35
0001
0000
0000
0100
0000
0000
1000
0000
0100
0000
0000
0000
0010
0000
1000
0000
,  // measure 36
0002
2000
0000
0000
0000
3003
0000
0000
,  // measure 37
1100
0000
1001
0000
,  // measure 38
0022
0000
0030
0000
,  // measure 39
1000
0000
0000
0100
0000
0000
1000
0000
1000
0000
0000
0010
0000
0000
1000
0000
,  // measure 40
1003
0000
0100
0010
0100
0010
0100
0000
,  // measure 41
1000
0000
0010
0100
0010
0100
0010
0000
,  // measure 42
2020
0000
0030
0000
,  // measure 43
0001
0000
0000
0010
0000
0000
0100
0000
0100
0000
0000
0010
0000
0000
0001
0000
,  // measure 44
3001
0000
1000
0100
1000
0100
1000
0000
,  // measure 45
1001
0000
0110
0000
,  // measure 46
0004
0400
0000
0000
0000
0000
0000
0000
0303
0000
0000
0000
0M0M
0000
0000
0000
,  // measure 47
4000
0004
0000
0000
0000
0000
0000
0000
3003
0000
0000
0000
M00M
0000
0000
0000
,  // measure 48
0040
0400
0000
0000
0000
0000
0000
0000
0330
0000
0000
0000
0MM0
0000
0000
0000
,  // measure 49
0004
0400
0000
0000
0000
0000
0000
0000
0303
0000
0000
0000
0M0M
0000
0000
0000
,  // measure 50
4000
0004
0000
0000
0000
0000
0000
0000
0000
0000
0MM0
0000
0000
0000
0000
0000
,  // measure 51
0000
0000
0000
0000
0MM0
3003
0000
0000
0000
0000
MMMM
0000
0000
0000
0000
0000
,  // measure 52
0220
0000
0000
0000
,  // measure 53
0000
0000
0330
0000
,  // measure 54
1000
0100
0010
0001
0100
0001
1000
0000
,  // measure 55
0010
1000
0100
1000
0010
0100
0001
0000
,  // measure 56
1000
0010
0100
0001
0100
1000
0100
0000
,  // measure 57
0010
1000
0001
0010
1000
0010
0100
0000
,  // measure 58
1000
0010
0100
0001
1000
0100
0010
0000
,  // measure 59
0001
0100
0001
0100
0001
0100
0010
0000
,  // measure 60
0100
0001
0010
0100
1000
0010
1000
0000
,  // measure 61
1000
0100
0010
0001
0010
0100
1000
0000
,  // measure 62
2100
0000
0000
0001
0000
0000
3020
0000
,  // measure 63
0000
0001
0000
0000
0230
0000
1000
0000
,  // measure 64
0302
0000
0000
0010
0000
0000
2003
0000
,  // measure 65
0000
0100
0000
0000
0002
0000
3003
0000
,  // measure 66
0102
0000
0000
0023
0000
0000
1000
0000
,  // measure 67
0000
0230
0000
0000
0001
0000
0010
0000
,  // measure 68
2300
0000
0000
0010
0000
0000
0001
0000
,  // measure 69
0000
3200
0000
0000
0020
0000
0330
0000
,  // measure 70
0100
1000
0100
1000
0100
1000
0010
0100
,  // measure 71
0001
0010
0001
0010
0001
0010
0100
1000
,  // measure 72
0001
0100
0001
0100
0001
0100
0010
1000
,  // measure 73
0100
0010
0100
0010
0100
0010
0001
1000
,  // measure 74
0020
0000
0130
0001
1000
0100
0010
0001
,  // measure 75
2000
0000
3010
0100
0010
0001
0010
1000
,  // measure 76
0002
0000
0013
0100
0001
0100
0010
0001
,  // measure 77
0200
0000
0310
1000
0001
0010
0100
2000
,  // measure 78
0002
0000
3003
0000
;

//---------------dance-single - ----------------
#NOTES:
     dance-single:
     :
     Beginner:
     1:
     0.100652,0.185536,0.062628,0.093942,0.000000,90.000000,82.000000,8.000000,12.000000,0.000000,0.000000,0.100652,0.185536,0.062628,0.093942,0.000000,90.000000,82.000000,8.000000,12.000000,0.000000,0.000000:
0000
0000
0000
0000
,
0000
0000
0000
0000
,
0000
0000
0000
0000
,
0000
0000
0000
0000
,
1000
0000
0000
0000
,
0001
0000
0000
0000
,
0100
0000
0000
0000
,
0100
0000
0000
0000
,
0010
0000
0000
0000
,
0010
0000
0000
0000
,
2000
0000
0000
3000
,
0001
0000
0000
0000
,
2000
0000
0000
3000
,
0010
0000
0000
0000
,
0100
0000
0000
0000
,
0010
0000
0000
0000
,
0100
0000
0000
0000
,
0010
0000
0000
0000
,
1000
0000
0000
0000
,
0001
0000
0000
0000
,
1000
0000
0000
0000
,
0001
0000
0000
0000
,
0010
0000
0000
0000
,
0100
0000
0100
0000
,
0100
0000
0000
0000
,
1000
0000
0000
0000
,
0001
0000
0000
0000
,
1000
0000
1000
0000
,
1000
0000
0000
0000
,
0010
0000
0000
0000
,
0100
0000
0000
0000
,
0001
0000
0000
0000
,
0020
0000
0000
0000
,
0000
0000
0030
0000
,
0100
0000
0000
0000
,
1000
0000
0000
0000
,
0002
0000
0000
0000
,
0000
0000
0003
0000
,
1000
0000
0001
0000
,
1000
0000
0001
0000
,
1000
0000
0000
0000
,
0010
0000
0000
0000
,
0100
0000
0010
0000
,
0100
0000
0010
0000
,
0100
0000
0000
0000
,
0001
0000
0000
0000
,
1001
0000
0000
0000
,
1001
0000
0000
0000
,
1001
0000
0000
0000
,
0110
0000
0000
0000
,
0110
0000
0000
0000
,
0110
0000
0000
0000
,
2002
0000
0000
0000
,
0000
0000
3003
0000
,
1000
0000
0000
0000
,
0100
0000
0000
0000
,
0010
0000
0000
0000
,
0001
0000
0000
0000
,
0100
0000
0000
0000
,
0010
0000
0000
0000
,
1000
0000
0000
0000
,
0001
0000
0000
0000
,
1000
0000
0000
0001
,
0000
0000
0010
0000
,
0010
0000
0000
0001
,
0000
0000
0100
0000
,
0100
0000
0000
0010
,
0000
0000
1000
0000
,
1000
0000
0000
0001
,
0000
0000
0010
0000
,
0100
0000
0000
0000
,
1000
0000
0000
0000
,
0010
0000
0000
0000
,
0100
0000
0000
0000
,
0002
0000
0003
0000
,
0020
0000
0030
0000
,
0200
0000
0300
0000
,
2000
0000
3000
0000
,
2002
0000
0000
0000
,
3003
0000
0000
0000
;

//---------------dance-single - ----------------
#NOTES:
     dance-single:
     :
     Medium:
     6:
     0.323206,0.401995,0.093942,0.133085,0.046971,289.000000,277.000000,12.000000,17.000000,0.000000,0.000000,0.323206,0.401995,0.093942,0.133085,0.046971,289.000000,277.000000,12.000000,17.000000,0.000000,0.000000:
// measure 0
0000
0000
0000
0000
,  // measure 1
0000
0000
0000
0000
,  // measure 2
0000
0000
0000
0000
,  // measure 3
0000
0000
0000
0000
,  // measure 4
1001
0000
0000
0000
,  // measure 5
0010
0000
0101
1000
,  // measure 6
0010
0000
0010
0000
0010
1000
0100
0000
,  // measure 7
0010
0000
0000
0001
0000
0000
0100
0000
,  // measure 8
0001
0000
0001
0000
0001
0010
0100
0000
,  // measure 9
1000
0000
0001
1000
,  // measure 10
0020
0000
1000
0100
,  // measure 11
0100
0000
0000
1000
0000
0000
0031
0000
,  // measure 12
0100
0000
0001
0000
1000
0001
1000
0000
,  // measure 13
0001
0000
0010
0000
0100
0010
0100
0000
,  // measure 14
1000
0000
0000
0001
0000
0000
1000
0000
0002
0000
0000
0000
0003
0000
0000
0000
,  // measure 15
1000
0000
0100
0000
1000
0100
0010
0000
,  // measure 16
0001
0000
0010
0000
0001
0010
0100
0000
,  // measure 17
1000
0000
0001
0000
1000
0001
1000
0000
,  // measure 18
0010
0000
0000
0100
0000
0000
0010
0000
0200
0000
0000
0000
0300
0000
0000
0000
,  // measure 19
0010
0000
0100
0000
0010
1000
0001
0000
,  // measure 20
0100
0000
0010
0000
0100
0001
1000
0000
,  // measure 21
0100
0000
0010
0000
0100
1000
0001
0000
,  // measure 22
1000
0000
0000
0010
0000
0000
0001
0000
,  // measure 23
0000
0010
0000
0000
1000
0000
0100
0000
,  // measure 24
0010
0000
0000
0100
0000
0000
0010
0000
,  // measure 25
0000
0001
0000
0000
0010
0000
1000
0000
,  // measure 26
0010
0000
0000
0001
0000
0000
1000
0000
,  // measure 27
0000
0010
0000
0000
1000
0000
0100
0000
,  // measure 28
0010
0000
0000
0001
0000
0000
0100
0000
,  // measure 29
0000
1000
0000
0000
0100
0000
0001
0000
,  // measure 30
2000
0000
0100
0000
,  // measure 31
0010
0000
0000
0001
0001
0000
0000
0010
,  // measure 32
0020
0030
0001
0000
,  // measure 33
0010
0001
3100
0000
,  // measure 34
0002
0000
0100
0000
,  // measure 35
1000
0000
0000
0010
0010
0000
0100
0000
,  // measure 36
0100
0200
0000
0000
0303
0000
0000
0000
,  // measure 37
1001
0000
1001
0000
,  // measure 38
1000
0100
1000
0000
0001
0100
0001
0000
,  // measure 39
1000
0000
0000
0001
0000
0000
1000
0000
0001
0000
0000
1000
0000
0000
0001
0000
,  // measure 40
2000
0100
3100
1001
,  // measure 41
1000
0000
0001
0100
0001
0000
1000
0000
,  // measure 42
0001
0100
0010
0000
0100
0001
1000
0000
,  // measure 43
0100
0000
0000
0010
0000
0000
0100
0000
0010
0000
0000
0100
0000
0000
0010
0000
,  // measure 44
0200
1000
1300
1010
,  // measure 45
0001
0000
0001
0000
,  // measure 46
4000
0400
0000
0000
0000
0000
0000
0000
3300
0000
0000
0000
0000
0000
0000
0000
,  // measure 47
4000
0004
0000
0000
0000
0000
0000
0000
3003
0000
0000
0000
0000
0000
0000
0000
,  // measure 48
0001
0000
0000
0100
0000
0000
0010
0000
1000
0000
0000
0000
0000
0000
0000
0000
,  // measure 49
0040
4000
0000
0000
0000
0000
0000
0000
3030
0000
0000
0000
0000
0000
0000
0000
,  // measure 50
0004
4000
0000
0000
0000
0000
0000
0000
3003
0000
0000
0000
0000
0000
0000
0000
,  // measure 51
0400
0040
0000
0000
0000
0000
0000
0000
0330
0000
0000
0000
0000
0000
0000
0000
,  // measure 52
2002
0000
0000
0000
,  // measure 53
0000
3003
0000
0000
,  // measure 54
1000
0100
1000
0000
0001
0100
0001
0000
,  // measure 55
1000
0010
1000
0000
0001
0010
0001
0000
,  // measure 56
0010
0100
0010
0000
0100
0010
0100
0000
,  // measure 57
1000
0100
1000
0000
0100
1000
0100
0000
,  // measure 58
1000
0010
1000
0000
0010
0100
0010
0000
,  // measure 59
0100
0001
0100
0000
0001
0010
0001
0000
,  // measure 60
0010
0100
0010
0000
0100
1000
0100
0000
,  // measure 61
1000
0001
1000
0000
0001
0100
0001
0000
,  // measure 62
0100
0000
0000
0010
0000
0000
0100
0000
,  // measure 63
0000
0001
0000
0000
0010
0000
0100
0000
,  // measure 64
1100
0000
0000
0010
0000
0000
1000
0000
,  // measure 65
0000
0100
0000
0000
0220
0000
0330
0000
,  // measure 66
0001
0000
0000
0100
0000
0000
1000
0000
,  // measure 67
0000
0100
0000
0000
0001
0000
1000
0000
,  // measure 68
1100
0000
0000
0010
0000
0000
0001
0000
,  // measure 69
0000
0100
0000
0000
0220
0000
0330
0000
,  // measure 70
1000
0000
0001
0000
0100
0010
0100
0000
,  // measure 71
0001
1000
0001
0000
,  // measure 72
0010
0000
0100
0000
1000
0001
1000
0000
,  // measure 73
0010
0100
0010
0000
,  // measure 74
1000
0000
0100
0000
0010
0001
0010
0000
,  // measure 75
0100
1000
0100
0000
,  // measure 76
1000
0000
0010
0000
0100
0001
0100
0000
,  // measure 77
0010
1000
0100
0010
,  // measure 78
2002
0000
0000
0000
,  // measure 79
3003
0000
0000
0000
;
