#TITLE:Ascent;
#SUBTITLE:;
#ARTIST:Teminite;
#TITLETRANSLIT:;
#SUBTITLETRANSLIT:;
#ARTISTTRANSLIT:;
#GENRE:;
#CREDIT:;
#BANNER:;
#BACKGROUND:;
#LYRICSPATH:;
#CDTITLE:;
#MUSIC:Teminite - Ascent.mp3;
#OFFSET:-0.162000;
#SAMPLESTART:56.889000;
#SAMPLELENGTH:17.434999;
#SELECTABLE:YES;
#BPMS:0.000000=110.000000
;
#STOPS:
;
#BGCHANGES:;
#KEYSOUNDS:;
#ATTACKS:;

//---------------dance-single - ----------------
#NOTES:
     dance-single:
     :
     Beginner:
     1:
     0.075570,0.088166,0.000000,0.000000,0.000000,60.000000,60.000000,0.000000,0.000000,0.000000,0.000000,0.075570,0.088166,0.000000,0.000000,0.000000,60.000000,60.000000,0.000000,0.000000,0.000000,0.000000:
0000
0000
0000
0000
,
0000
0000
0000
0000
,
1000
0000
0000
0100
,
0000
0000
0000
0010
,
0000
0000
0000
0001
,
0000
0000
0000
0100
,
0000
0000
0000
0001
,
0000
0000
0000
0010
,
0000
0000
0000
0100
,
0000
0000
0000
0100
,
0100
0000
0000
1000
,
0000
0000
0000
0010
,
0000
0000
0000
0100
,
0000
0000
0000
0010
,
0000
0000
0000
1000
,
1000
0000
0000
0100
,
0000
0000
0000
0010
,
0000
0000
0000
0001
,
0001
0000
0000
0000
,
1000
0000
0000
0000
,
1000
0000
0000
0000
,
0001
0000
0000
0000
,
0010
0000
0000
0000
,
0100
0000
0000
0000
,
1000
0000
0000
0000
,
0001
0000
0000
0000
,
1000
0000
0100
0000
,
1000
0000
0000
0000
,
0100
0000
1000
0000
,
0100
0000
0000
0000
,
0010
0000
0000
0000
,
0001
0000
0000
0000
,
0100
0000
0000
0000
,
0010
0000
0000
0000
,
1000
0000
0001
0000
,
0001
0000
0000
0000
,
0001
0000
0000
0000
,
1000
0000
0000
0000
,
0001
0000
1000
0000
,
1000
0000
0000
0000
,
0010
0000
0000
0000
,
0010
0000
0100
0000
,
0010
0000
0000
1000
,
0000
0000
0000
0001
,
0000
0000
0000
0010
,
0000
0000
0000
0100
,
0100
0100
0000
0000
,
1000
0000
0000
0000
,
0010
0000
0000
0000
,
0100
0000
0000
0001
,
0001
0000
0000
0000
;

//---------------dance-single - ----------------
#NOTES:
     dance-single:
     :
     Medium:
     5:
     0.233009,0.267142,0.000000,0.123432,0.000000,185.000000,185.000000,0.000000,14.000000,0.000000,0.000000,0.233009,0.267142,0.000000,0.123432,0.000000,185.000000,185.000000,0.000000,14.000000,0.000000,0.000000:
// measure 0
0000
0000
0000
0000
,  // measure 1
0000
0000
0000
0000
,  // measure 2
1000
0000
0001
0000
0010
0100
0010
0000
,  // measure 3
0000
0001
0100
0001
,  // measure 4
0000
1000
0010
1000
,  // measure 5
0000
0100
0010
0100
,  // measure 6
0000
0000
1000
0000
0001
0010
0001
0000
,  // measure 7
0000
0100
0010
0010
,  // measure 8
0000
1000
0100
0100
,  // measure 9
0000
1000
0010
0010
,  // measure 10
0100
0000
0001
0000
1000
0001
1000
0000
,  // measure 11
0001
0010
0010
0010
,  // measure 12
0000
0100
0100
0100
,  // measure 13
0000
1000
0001
1000
,  // measure 14
0001
0000
0100
0000
0010
0100
0010
0000
,  // measure 15
0100
0001
0001
0001
,  // measure 16
0000
1000
1000
1000
,  // measure 17
0000
0100
0100
0100
,  // measure 18
0010
0000
0001
1000
0001
0000
0010
0000
,  // measure 19
0001
1000
0100
0100
,  // measure 20
1000
0000
0001
0100
0001
0000
1000
0000
,  // measure 21
0010
0010
0100
0000
,  // measure 22
0001
0000
1000
0100
1000
0000
0010
0000
,  // measure 23
0010
0000
0100
0000
0001
0100
0001
0000
,  // measure 24
1000
0100
0100
0010
,  // measure 25
0001
0000
1000
0000
,  // measure 26
0001
0000
0100
0000
0001
0100
0001
0000
,  // measure 27
0000
1000
0010
1000
,  // measure 28
0000
0001
0100
0001
,  // measure 29
0000
0010
0100
0010
,  // measure 30
0000
0000
0001
0000
1000
0100
0010
0000
,  // measure 31
0000
0001
0100
0002
,  // measure 32
0003
1000
0010
2000
,  // measure 33
3000
0100
0010
0002
,  // measure 34
0003
1000
0100
0100
,  // measure 35
1000
0100
1000
0000
0001
0000
0010
0000
,  // measure 36
0002
0203
2300
3200
,  // measure 37
0301
0000
1000
0001
1000
0000
0001
1000
,  // measure 38
0001
0010
0100
0100
,  // measure 39
1000
0100
1000
0000
0100
0000
0100
0000
,  // measure 40
0020
0032
0203
0302
,  // measure 41
0013
0000
0100
0010
0100
0000
0010
0100
,  // measure 42
0010
0000
0000
0000
0001
0100
0001
0000
,  // measure 43
0000
1000
0010
2000
,  // measure 44
3000
0001
0100
2000
,  // measure 45
3000
0100
0001
0010
,  // measure 46
0100
0000
1000
0000
0100
0010
0001
0000
,  // measure 47
0000
0000
1000
0000
0100
1000
0010
0000
,  // measure 48
0000
0000
0001
0000
0100
0010
0100
0000
,  // measure 49
0000
0000
0001
0000
1000
0100
1000
0000
,  // measure 50
0002
0000
0003
0000
;

//---------------dance-single - ----------------
#NOTES:
     dance-single:
     :
     Hard:
     7:
     0.352662,0.356189,0.052899,0.123432,0.105799,280.000000,274.000000,6.000000,14.000000,0.000000,0.000000,0.352662,0.356189,0.052899,0.123432,0.105799,280.000000,274.000000,6.000000,14.000000,0.000000,0.000000:
// measure 0
0000
0000
0000
0000
,  // measure 1
0000
0000
0000
0000
,  // measure 2
1000
0000
0100
0000
1000
0001
1000
0000
,  // measure 3
0000
0000
0000
0000
0001
0000
0000
0010
0001
0000
0000
0000
0010
0000
0000
0000
,  // measure 4
0000
0000
0000
0000
0100
0000
0000
1000
0100
0000
0000
0000
1000
0000
0000
0000
,  // measure 5
0000
0000
0000
0000
0010
0000
0000
0100
0010
0000
0000
0000
0100
0000
0010
0000
,  // measure 6
0100
0000
0001
0000
0010
0100
0010
0000
,  // measure 7
0000
0000
0000
0000
0100
0000
0000
1000
0001
0000
1000
0000
0010
0000
0000
0000
,  // measure 8
0000
0000
0000
0000
0001
0000
0000
1000
0010
0000
0100
0000
0100
0000
0000
0000
,  // measure 9
0000
0000
0000
0000
0001
0000
0000
1000
0100
0000
0010
0000
0100
0000
1000
0000
,  // measure 10
1000
0000
0001
0000
0100
0010
1000
0000
,  // measure 11
0001
0000
0000
0000
0010
0000
0000
0100
0010
0000
0000
0000
0100
0000
0000
0000
,  // measure 12
1000
0000
0000
0000
0010
0000
0000
0100
0010
0000
0000
0000
0100
0000
0000
0000
,  // measure 13
0001
0000
0000
0000
1000
0000
0000
0100
1000
0000
0000
0000
0001
0000
0010
0000
,  // measure 14
0001
0000
0100
0000
0010
1000
0001
0000
,  // measure 15
1000
0000
0000
0000
0100
0000
0000
0100
1000
0000
0000
0000
0010
0000
0000
0000
,  // measure 16
0100
0000
0000
0000
0001
0000
0000
0001
0010
0000
0000
0000
0002
0000
0000
0000
,  // measure 17
0003
0000
0000
0000
1000
0000
0000
1000
0010
0000
0000
0000
2000
0000
0000
0000
,  // measure 18
3001
0000
1000
0100
0010
0100
1000
0000
,  // measure 19
0001
0000
0010
1000
0010
0001
1000
0000
,  // measure 20
0001
0000
0100
0010
1000
0010
0100
0000
,  // measure 21
0001
0000
0010
0001
0100
1000
0100
0000
,  // measure 22
0001
0000
1000
0100
0010
0001
1000
0000
,  // measure 23
0001
0000
1000
0010
0001
1000
0100
0000
,  // measure 24
0001
0000
1000
0100
0001
1000
0010
0000
,  // measure 25
0001
0000
0100
0010
0200
0000
0310
0000
,  // measure 26
0100
0001
0100
0000
0010
1000
0100
0000
,  // measure 27
0010
0000
0000
0000
0001
0000
0000
0010
0001
0000
0010
0000
0001
0000
0000
0000
,  // measure 28
1000
0000
0000
0000
0100
0000
0000
1000
0100
0000
1000
0000
0100
0000
0000
0000
,  // measure 29
0010
0000
0000
0000
0001
0000
0000
0100
0010
0000
0100
0000
0001
0000
1000
0000
,  // measure 30
0010
1000
0001
0000
1000
0100
0010
0000
,  // measure 31
0001
0000
0000
0000
1000
0000
0000
0010
0100
0000
0010
0000
1000
0000
0000
0000
,  // measure 32
0001
0000
0000
0000
0010
0000
0000
0100
0010
0000
0100
0000
1000
0000
0000
0000
,  // measure 33
0001
0000
0000
0000
1000
0000
0000
0010
1000
0000
0001
0000
0100
0000
0001
0000
,  // measure 34
0010
0100
2000
0000
0010
0000
3010
0000
,  // measure 35
0100
0001
1000
0002
0000
0000
0013
0100
,  // measure 36
2000
0100
3002
0100
,  // measure 37
1003
0100
1000
0100
0001
0100
0001
0100
,  // measure 38
1000
0010
0002
0000
0010
0000
0013
0000
,  // measure 39
0100
0001
1000
0002
0000
0013
0100
1000
,  // measure 40
0020
0230
0320
0230
,  // measure 41
0301
1000
0001
1000
0010
0100
0010
0100
,  // measure 42
0001
0000
1000
0100
0010
0001
0001
0000
,  // measure 43
1000
0000
0000
0000
1010
0000
0000
1000
0001
0000
0100
0000
0001
0000
0000
0000
,  // measure 44
1000
0000
0000
0000
1001
0000
0000
0001
0010
0000
0001
0000
1000
0000
0000
0000
,  // measure 45
0100
0000
0000
0000
0110
0000
0000
0010
0001
0000
0010
0000
0100
0000
1000
0000
,  // measure 46
0010
0000
0100
0001
0010
0100
0100
0000
,  // measure 47
1000
0000
0000
0000
1010
0000
0000
0010
1000
0000
0100
0000
0010
0000
0000
0000
,  // measure 48
0001
0000
0000
0000
0101
0000
0000
0100
0001
0000
0010
0000
0100
0000
0000
0000
,  // measure 49
1000
0000
0000
0000
1010
0000
0000
0010
0001
0000
0010
0000
0100
0000
1000
0000
,  // measure 50
0200
0000
0300
0000
;

//---------------dance-single - ----------------
#NOTES:
     dance-single:
     :
     Easy:
     2:
     0.104539,0.132248,0.000000,0.017633,0.000000,83.000000,83.000000,0.000000,2.000000,0.000000,0.000000,0.104539,0.132248,0.000000,0.017633,0.000000,83.000000,83.000000,0.000000,2.000000,0.000000,0.000000:
0000
0000
0000
0000
,
0000
0000
0000
0000
,
1000
0000
0001
0000
,
1000
0000
0000
0000
,
0100
0000
0100
0000
,
0010
0000
0000
0000
,
0001
0000
0100
0000
,
0001
0000
0000
0000
,
1000
0000
1000
0000
,
0010
0000
0000
0000
,
1000
0000
0100
0000
,
0010
0000
0010
0000
,
0001
0000
1000
0000
,
0001
0000
0000
0000
,
0100
0000
0001
0000
,
0100
0000
0100
0000
,
0010
0010
0000
0000
,
0000
1000
0000
0000
,
0001
0000
0010
0000
,
0001
0000
1000
0000
,
0100
0000
0000
0000
,
1000
0000
0000
0000
,
0010
0000
1000
0000
,
0010
0000
0100
0000
,
0001
0000
0000
0000
,
1000
0000
0000
0000
,
0010
0010
0010
0000
,
1000
0000
1000
0000
,
0100
0000
0100
0000
,
0010
0000
0010
0000
,
0001
0001
0001
0000
,
1000
0000
1000
0000
,
0100
0000
0100
0000
,
1000
0000
1000
0000
,
0001
0000
0000
0000
,
0020
0000
0030
0000
,
0100
0000
1000
0000
,
0100
0100
0100
0000
,
1000
0000
0000
0000
,
0020
0000
0030
0000
,
0100
0000
0001
0000
,
0100
0100
0100
0000
,
0001
0000
0000
0000
,
0010
0000
0100
0000
,
0010
0000
0000
0000
,
0100
0000
0010
0000
,
0100
0000
0000
0000
,
1000
0000
0001
0000
,
1000
0000
0000
0000
,
0010
0000
0100
0000
,
0010
0000
0000
0000
;

//---------------dance-single - ----------------
#NOTES:
     dance-single:
     :
     Challenge:
     9:
     0.525215,0.556545,0.044083,0.202781,0.484910,417.000000,412.000000,5.000000,23.000000,0.000000,0.000000,0.525215,0.556545,0.044083,0.202781,0.484910,417.000000,412.000000,5.000000,23.000000,0.000000,0.000000:
// measure 0
0000
0000
0000
0000
,  // measure 1
0000
0000
0000
0000
,  // measure 2
1000
0000
0000
0000
0100
0000
0010
0001
0010
0000
0100
0000
0020
0000
0000
0000
,  // measure 3
0030
0000
0000
0000
0100
0000
0000
1000
0010
0000
1000
0000
0200
0000
0000
0000
,  // measure 4
0300
0000
0000
0000
1000
0000
0000
0001
0010
0000
0001
0000
0200
0000
0000
0000
,  // measure 5
0300
0000
0000
0000
0010
0000
0000
1000
0001
0000
0100
0000
0010
0000
0100
0001
,  // measure 6
0000
0000
1000
0000
0100
0000
1000
0100
0010
0000
0001
0000
0002
0000
0000
0000
,  // measure 7
0003
0000
0000
0000
0101
0000
0000
0010
1000
0000
0001
0000
0200
0000
0000
0000
,  // measure 8
0300
0000
0000
0000
0010
0000
0000
1000
0001
0000
0010
0000
0002
0000
0000
0000
,  // measure 9
0003
0000
0000
0000
1000
0000
0000
0100
1000
0000
0010
0000
0100
0000
0001
0100
,  // measure 10
0000
0000
0001
0000
1000
0000
0100
0010
0100
0000
1000
0000
0002
0000
1000
0000
,  // measure 11
1003
0000
0000
0000
0010
0000
0000
0100
0001
0000
0100
0000
0020
0000
0100
0000
,  // measure 12
0130
0000
0000
0000
0010
0000
0000
1000
0001
0000
1000
0000
0200
0000
1000
0000
,  // measure 13
1300
0000
0000
0000
1100
0000
0000
0010
0001
0000
0100
0000
0001
0000
0010
0001
,  // measure 14
0000
0000
0100
0000
0010
0000
1000
0001
0010
0000
0100
0000
0020
0000
0001
0000
,  // measure 15
0031
0000
0000
0000
1100
0000
0000
0100
1000
0000
0001
0000
0200
0000
0010
0000
,  // measure 16
0310
0000
0000
0000
0110
0000
0000
0100
0001
0000
0100
0000
0010
0000
0000
0000
,  // measure 17
0000
0000
0000
0000
0110
0000
0000
0010
1000
0000
0010
0000
0100
0000
0001
0100
,  // measure 18
0000
0000
0000
0000
0010
1000
0001
0100
0000
0010
0100
0001
1000
0000
0100
1000
,  // measure 19
0100
0000
0000
0000
0010
0001
1000
0100
0000
0010
0100
1000
0001
0000
0010
0001
,  // measure 20
0010
0000
0000
0000
0001
0100
0010
0100
0000
1000
0100
0010
0100
0000
0001
0100
,  // measure 21
0001
0000
0000
0000
1000
0010
1000
0001
0000
1000
0100
1000
0000
0001
0010
0001
,  // measure 22
0000
0000
0000
0000
1000
0100
0010
0100
0000
0001
0100
0010
0100
0000
1000
0100
,  // measure 23
1000
0000
0000
0000
0001
0010
0100
0010
0000
0001
0100
0010
0100
0000
0001
1000
,  // measure 24
0100
0000
0000
0000
0010
0001
1000
0010
0000
1000
0001
0100
0001
0000
1000
0100
,  // measure 25
0010
0000
0000
0000
0001
0010
0001
0020
0000
0000
0030
0000
0100
1000
0001
0010
,  // measure 26
0001
0000
0100
0000
0010
0000
0100
0010
1000
0000
0001
0000
1000
0000
0100
0000
,  // measure 27
0010
0000
0001
0000
0010
0000
0000
0100
1000
0000
0001
0000
0100
0000
0010
0000
,  // measure 28
0100
0000
1000
0000
0100
0000
0000
0001
0100
0000
0001
0000
0010
0000
0001
0000
,  // measure 29
1000
0000
0100
0000
0010
0000
0000
0100
0010
0000
1000
0000
0010
0000
0001
0010
,  // measure 30
0001
0000
1000
0000
0010
0000
0100
0010
0100
0000
1000
0000
0100
0000
0001
0000
,  // measure 31
1000
0000
0100
0000
1000
0000
0000
0100
0001
0000
0100
0000
0001
0000
0100
0000
,  // measure 32
1000
0000
0100
0000
1000
0000
0000
0010
1000
0000
0010
0000
0001
0000
0010
0000
,  // measure 33
0001
0000
0010
0000
1000
0000
0000
0001
1000
0000
0100
0000
0010
0000
0001
0010
,  // measure 34
0000
0000
0000
0000
0001
0100
0000
0010
0000
0010
1000
0001
1000
0000
0100
0000
,  // measure 35
0010
0001
0010
0100
1000
0100
0020
0000
0000
0000
0031
0000
1000
0000
0001
0100
,  // measure 36
0020
0100
2030
0100
3002
0010
0203
1000
,  // measure 37
0310
0000
1000
0001
1000
0000
0001
0010
0001
0000
1000
0100
1000
0000
0001
0100
,  // measure 38
0010
0000
1000
0000
0001
1000
0000
0100
0000
0100
0010
0001
1000
0000
0001
0000
,  // measure 39
1000
0010
0100
0001
0010
0001
2000
0000
0000
0000
3100
0000
0010
0000
0001
1000
,  // measure 40
0200
0010
0302
1000
0203
0010
2300
0010
,  // measure 41
3001
0000
1000
0100
0010
0000
0001
0010
0100
0000
1000
0010
0100
0000
0001
0100
,  // measure 42
0010
0000
1000
0000
0100
0000
1000
0100
0010
0000
0001
0000
0100
0000
0010
1000
,  // measure 43
0001
0000
0100
0000
0010
0000
0000
0100
0001
0000
0010
0000
0100
0000
1000
0100
,  // measure 44
0010
0000
0001
0000
0100
0000
0000
0010
1000
0000
0010
0000
0001
0000
0010
0100
,  // measure 45
0001
0000
0010
0000
0100
0000
0000
1000
0100
0000
0010
0000
0001
0000
0100
0001
,  // measure 46
0010
0000
0100
0000
0010
0000
1000
0010
0001
0000
1000
0000
0100
0000
1000
0100
,  // measure 47
0010
0000
0001
0000
0100
0000
0000
1000
0100
0000
0001
0000
1000
0000
0010
0100
,  // measure 48
0001
0000
0100
0000
0010
0000
0000
1000
0010
0000
0001
0000
0010
0000
0100
0001
,  // measure 49
1000
0000
0100
0000
1000
0000
0000
0001
0010
0000
0010
0000
0100
0000
0100
2000
,  // measure 50
0000
0000
3000
0000
;
