#TITLE:portal;
#SUBTITLE:;
#ARTIST:Nekomata Master+;
#CREDIT:;
#MUSIC:portal.ogg;
#SELECTABLE:YES;
#BACKGROUND:portal-bg.png;
#BANNER:portal.png;
#CDTITLE:cdtitle.png;
#DISPLAYBPM:130.000:130.000;
#OFFSET:-2.361;
#SAMPLESTART:17.976;
#SAMPLELENGTH:59.692;
#BPMS:0=130;
#STOPS:;

//---------------dance-single - ----------------
#NOTES:
     dance-single:
     :
     Challenge:
     9:
     0.000,0.000,0.000,0.000,0.000:
MMMM
0000
0000
0000
0000
0000
0000
0000
0000
0000
0000
0000
0000
0000
0000
0000
0000
0000
0000
0000
0000
000M
0000
0000
M000
0000
0000
0000
0000
0000
0000
0000
0M00
0000
0000
0000
0000
0000
0000
0000
0000
0000
0000
0000
0000
0000
0000
0000
0001
0000
0000
0000
0000
0000
1000
0000
0000
0000
0000
0000
0001
0000
0000
0000
0000
0000
1000
0000
0000
0000
0000
0000
001M
0000
0000
0000
0000
0000
000M
0000
0000
0000
0000
0000
000M
0000
0000
0000
0000
0000
000M
0000
0000
0000
0000
0000
,
01M0
00M0
00M0
00M0
0M01
0M00
0M00
0000
100M
000M
000M
000M
M100
M000
M000
M000
,
0M10
0M00
0M00
0M00
00M1
00M0
00M0
00M0
M001
M000
M000
M000
010M
000M
000M
000M
,
0M10
0M00
0M00
0M00
10M0
00M0
00M0
00M0
M001
M000
M000
M000
001M
000M
000M
000M
,
01M0
00M0
00M0
00M0
1M00
0M00
0M00
0M00
10M0
00M0
00M0
00M0
M002
0000
0M00
0000
,
M010
00M0
M100
0M00
10M0
0M00
M010
0M00
,
10M0
M000
01M0
M000
0M10
00M0
2MM0
0000
,
0010
0MM0
0010
0MM0
,
3013
0000
0000
0000
0000
0000
0000
0000
0000
0000
0000
0000
0001
0010
0100
1000
0000
0000
1001
0000
0000
0000
0000
0000
,
0010
0000
0000
0001
0000
0000
0000
0000
0000
0000
0000
0000
1100
0000
0000
0000
0000
0000
0000
0000
0000
0000
0000
0000
0010
0000
0000
0001
0000
0000
0000
0000
0000
0000
0000
0000
1000
0000
0100
0000
1000
0000
0000
0000
0000
0000
0000
0000
,
0000
0000
0001
0000
0000
0000
0100
0000
0000
0000
0010
0000
0000
0000
1000
0000
0000
0000
0000
0000
0000
0001
0000
0000
,
0010
0100
1000
0000
0000
0000
0000
0000
0100
0010
0001
0000
0000
0000
1000
0000
0000
0000
0000
0000
0000
0000
0001
0000
,
0000
0100
0010
0000
0000
0000
1000
0000
0000
0000
0001
0000
0000
0000
1000
0010
0100
0001
1000
0000
0000
0000
0000
0000
,
0001
0010
0100
1000
0000
0000
0011
0000
0000
0000
0000
0000
0001
0010
0100
1000
0000
0000
0000
0000
0000
0010
0000
0000
,
0001
0010
0100
1000
0000
0000
0001
0000
0000
0000
1000
0000
0000
0000
0010
0000
0000
0000
0000
0000
0000
1000
0000
0000
,
0100
0010
0001
0000
0000
0000
0000
0000
0010
0100
1000
0000
0000
0000
0001
0000
0000
0000
0000
0000
0000
0000
1000
0000
,
0010
0100
0001
0000
0000
0000
0002
0000
0000
0000
1003
0000
0000
0000
1000
0010
0100
0001
1000
0000
0000
0000
0000
0000
,
0010
0000
0000
1000
0000
0000
0000
0000
0000
0000
0000
0000
0101
0000
0000
0000
0000
0000
0000
0000
0000
0000
0000
0000
0010
0000
0000
1000
0000
0000
0000
0000
0000
0000
0000
0000
0001
0000
0100
0000
0001
0000
0000
0000
0000
0000
0000
0000
,
0001
0000
1000
0000
0000
0000
0100
0000
0000
0000
0010
0000
0000
0000
0001
0000
0000
0000
0000
0000
0000
1000
0000
0000
,
0010
0100
0001
0000
0000
0000
0000
0000
0100
0010
1000
0000
0000
0000
0001
0000
0000
0000
0000
0000
0000
0000
1000
0000
,
0100
0010
0001
0000
0000
0000
0001
0000
0000
0000
1000
0000
0000
0000
0001
0010
0100
1000
0001
0000
0000
0000
0000
0000
,
1000
0010
0100
0001
0000
0000
1010
0000
0000
0000
0000
0000
1000
0010
0100
0001
0000
0000
1010
0000
0000
0000
0000
0000
,
1000
0010
0100
0001
0000
0000
1000
0000
0000
0000
0001
0000
0000
0000
0010
0000
0000
0000
0000
0000
0000
0001
0000
0000
,
0100
0010
1000
0000
0000
0000
0000
0000
0010
0100
0001
0000
0000
0000
1000
0000
0000
0000
0000
0000
0000
0000
0001
0000
,
0010
0100
1000
0000
0000
0000
1000
0000
0000
0001
0000
0000
1000
0010
0100
0002
0000
0000
1003
0000
0010
0000
1000
0000
,
0002
0000
0000
0000
0000
0000
0013
0000
0100
0000
0020
0030
0200
0300
0000
0000
0000
0000
1000
0000
0001
0000
0200
0000
,
0302
0000
0003
0000
0000
0000
0001
0000
0000
1000
0000
0000
0001
0000
0000
0000
1000
0000
0000
0000
0010
0000
0000
0000
2000
0000
0000
0000
0000
0000
0000
0000
0000
0000
0000
0000
3010
0000
0000
0000
0100
0000
0000
0000
0001
0000
0000
0000
,
0200
0000
0000
0301
1000
0001
0020
0000
0000
0130
0100
1000
,
0002
0000
0000
0103
0010
2000
3002
0000
0000
0103
0000
0000
,
0020
0000
0000
0000
0000
0000
1030
0000
0100
0000
2000
3000
0002
0003
0000
0000
0000
0000
1000
0000
0100
0000
0010
0000
,
0002
0000
0000
0003
0000
0000
0001
0000
0010
0000
0100
0000
2000
0000
0000
0000
0000
0000
3001
0000
0010
0000
0001
0000
,
0200
0000
0000
0000
0000
0000
0000
0000
0000
0000
0000
0000
0301
0000
0000
0000
1000
0000
0000
0000
0001
0000
0000
0000
0010
0000
0000
0000
0000
0000
0010
0000
0000
0100
0000
0000
0010
0000
0000
0000
0001
0000
0000
0000
1000
0000
0000
0000
,
0001
0000
1000
0001
1000
0001
0010
0000
0010
0000
0M02
0000
2003
0000
0000
0000
0000
0000
3001
0000
0100
0000
0001
0000
,
2000
0000
0000
0000
0000
0000
0000
0000
0000
0000
0000
0000
3100
0000
0000
0000
0010
0000
0000
0000
0200
0000
0300
0000
0020
0000
0030
0000
0000
0000
0001
0000
0000
0010
0000
0000
0100
0000
0000
0000
1000
0000
0000
0000
0020
0000
0030
0000
,
2000
0000
0000
3001
0010
0001
0200
0000
0000
0300
0010
1000
,
0020
0000
0000
1030
0001
1000
0200
0000
0000
0310
0010
0001
,
1000
0000
0001
1000
0001
1000
0010
0000
0100
0000
00M2
0000
2003
0000
0000
0000
0000
0000
3100
0000
0100
0000
0010
0000
,
0002
0000
0000
0000
0000
0000
0003
0000
0010
0000
0002
0003
2000
3000
0000
0000
0000
0000
0001
0000
0010
0000
0100
0000
,
1000
0000
0000
0010
0000
0000
1000
0000
0000
0010
0000
0000
1000
0000
0000
0000
0100
0000
0000
0000
0010
0000
0000
0000
0002
0000
0000
0000
0000
0000
00M0
0000
0000
00M0
0000
0000
10M3
0000
0000
0000
0100
0000
0000
0000
1000
0000
0000
0000
,
0020
0000
0000
0000
0000
0000
MM0M
0000
0000
0000
0000
0000
1030
0000
0000
0000
0001
0000
0000
0000
1000
0000
0000
0000
0100
0000
0000
0000
0020
0030
0000
0000
0020
0030
0000
0000
0100
0000
0000
0000
1000
0000
0000
0000
0001
0000
0000
0000
,
0001
1000
0010
0010
1000
01MM
0100
0010
MM01
2001
0000
0000
,
0200
0000
0000
3300
0100
0010
0002
0000
0000
0003
1000
0100
,
0010
0000
0001
0100
0001
0000
1000
0000
0000
0000
0010
0000
0200
0000
M000
00M0
0000
M000
0302
0000
0000
0000
0000
0000
,
0020
0000
0000
0033
0010
0100
2000
0000
0000
3000
0001
0010
,
0100
0000
1000
0010
1000
0000
0001
0000
0000
0000
1000
0000
0002
0000
0000
0000
0000
0000
0103
0000
0000
0000
0000
0000
,
1010
0000
0000
1000
0001
0010
0011
0000
0000
1000
0100
0010
,
0011
0000
1000
0100
0000
0010
0011
0000
0000
0010
0000
0000
,
0101
0000
0000
0010
1000
0001
0101
0000
0000
0000
0010
1000
,
0001
0000
1000
0010
1000
0000
0001
0000
0000
0000
0001
0000
0101
0000
0000
0000
0000
0000
2001
0000
0000
0000
0000
0000
,
0200
0000
0000
3000
0000
0000
1300
0000
0001
0000
0010
0000
0200
0000
0000
0000
0000
0000
1300
0000
0100
0000
0010
0000
,
0001
0000
1000
0001
1000
0000
0010
0000
0000
0000
0100
0000
0020
0000
0000
0000
0000
0000
2030
0000
0000
0000
0000
0000
,
0200
0000
0000
3000
0000
0000
1300
0000
0001
0000
0010
0000
0200
0000
0000
0000
0000
0000
1300
0000
0010
0000
0001
0000
,
0010
0000
1000
0001
1000
0000
0010
0000
0000
0000
1000
0000
0020
0000
0000
0000
0000
0000
0230
0000
0000
0000
0000
0000
,
0302
0000
0000
1003
0100
0010
0002
0000
0000
1003
0100
0010
,
0001
1000
0001
0010
0000
0100
2000
0000
0000
3020
0000
0000
,
2030
0000
0000
3001
0010
0100
2000
0000
0000
3001
0010
1000
,
0010
0000
0001
1000
0100
0010
0001
0000
0000
0000
1000
0000
0002
0000
0000
0000
0000
0000
0003
0000
1000
0000
0100
0000
,
0010
0000
0001
1000
0001
0000
0020
0000
0000
0000
0100
0000
0130
0000
0000
0000
0000
0000
0000
0000
0001
0000
0100
0000
,
0010
0000
1000
0001
1000
0000
0200
0000
0000
0000
0010
0000
0310
0000
0000
0000
0000
0000
0000
0000
0001
0000
0010
0000
,
1000
0010
0010
0002
0000
1000
0203
0000
0300
0000
1000
0100
,
0001
0100
0100
2000
0000
3001
2002
3003
0000
0000
0000
0000
,
0000
0000
0000
0000
,
0000
0000
0000
0000
,
0000
0000
0000
0000
;
