#TITLE:Neonlights;
#SUBTITLE:;
#ARTIST:DJ Noriken;
#CREDIT:;
#MUSIC:Neonlights.ogg;
#SELECTABLE:YES;
#BACKGROUND:Neonlights-bg.png;
#BANNER:Neonlights.png;
#CDTITLE:cdtitle.png;
#DISPLAYBPM:145.000:145.000;
#OFFSET:-1.70649;
#SAMPLESTART:29.844;
#SAMPLELENGTH:56.276;
#BPMS:0=145;
#STOPS:;

//---------------dance-single - ----------------
#NOTES:
     dance-single:
     :
     Challenge:
     12:
     0.000,0.000,0.000,0.000,0.000:
0000
0000
0000
0000
,
1000
0000
0001
0010
0001
0010
0100
1000
0001
0000
0001
1000
0020
0000
0130
0000
,
0001
0000
1000
0100
1000
0100
0010
0001
0100
0000
0100
0001
1000
0000
0010
0000
,
0100
0000
0001
0010
0001
0010
0001
1000
0100
0000
0100
1000
0002
0000
0013
0000
,
0100
0000
1000
0010
1000
0010
1000
0001
0100
0000
0100
0001
1000
0000
0010
0000
,
0100
0000
0001
0010
0001
1000
0100
1000
0010
0000
0010
1000
0002
0000
0103
0000
,
0010
0000
1000
0100
1000
0001
0010
0001
0100
0000
0100
0001
1000
0000
0010
0000
,
0100
0000
0001
0010
0001
1000
0100
1000
0010
0000
0010
1000
0MM1
0000
0MM0
0000
,
1MM0
0001
1000
0001
1000
0001
1000
0001
0010
0M00
0M00
0M10
0M00
0000
0010
0000
,
0100
1000
0100
1000
0001
0010
0001
0010
0100
0000
00M0
0100
0000
00M0
0100
0000
,
1000
0010
1000
0010
0100
0001
0100
0001
0010
0000
0M00
0010
0000
0M00
0010
0000
,
0100
1000
0100
1000
0001
0100
0001
0100
0010
0000
0M00
0010
0000
0M00
0010
0000
,
1000
0000
0000
0010
0000
0000
1000
0000
0000
0010
0000
0000
0100
0000
0001
0000
0100
0000
0001
0000
0000
1000
0000
0000
0100
0000
0000
00M0
0000
0000
00M0
0000
0000
0100
0000
0000
1000
0000
0000
0001
0000
0000
0010
0000
0000
0100
0000
0000
,
1000
0001
0100
0001
1000
0010
1000
0001
0010
0000
0100
0010
0000
0001
0010
0000
,
0001
1000
0010
1000
0001
0100
0001
1000
0100
0000
0010
0100
0000
1000
0100
0000
,
0001
0010
0001
0010
0000
MMMM
0000
0000
1100
0000
0000
1100
0000
0000
MMMM
0000
,
M001
01M0
0000
01M0
M001
0M00
00M0
000M
1M00
001M
1M00
0000
01M0
0000
0000
0000
,
0001
0000
1000
0010
1000
0010
0100
0001
1000
0000
1000
0001
0020
0000
0130
0000
,
1000
0000
0001
0100
0001
0100
0010
1000
0100
0000
0100
1000
0001
0000
0010
0000
,
0100
0000
1000
0010
1000
0010
1000
0001
0100
0000
0100
0001
2000
0000
3010
0000
,
0100
0000
0001
0010
0001
0010
0001
1000
0100
0000
0100
1000
0001
0000
0020
0000
,
0130
0000
1000
0010
1000
0001
0100
0001
0010
0000
0010
0001
2000
0000
3100
0000
,
0010
0000
0001
0100
0001
1000
0010
1000
0100
0000
0100
1000
0001
0000
0010
0000
,
0100
0000
0000
0000
0000
0000
1000
0000
0000
0010
0000
0000
1000
0000
0000
0001
0000
0000
0100
0000
0000
0001
0000
0000
0010
0000
0000
0000
0000
0000
0010
0000
0000
0001
0000
0000
1000
0000
0100
0000
0010
0000
0001
0000
0000
1000
0000
0000
,
0001
0000
M000
00M0
0M00
000M
M000
00M0
M000
0000
000M
00M0
0M00
0000
M00M
0000
,
0110
0000
0000
0000
0000
0001
0010
0100
,
0000
1000
0000
0010
0000
1000
0010
0100
,
0000
0000
1000
0000
0001
0000
0010
0100
,
0000
0010
0000
0001
0000
1000
0100
0000
,
1000
0000
0010
0000
0100
0000
0001
0010
,
0000
0100
0000
0001
0010
0000
0100
0000
,
1000
0000
0000
0000
0000
0001
0000
0100
,
0000
0010
0000
1000
0000
0000
0000
0000
,
0M00
00M0
0M00
00M0
0M00
00M0
0M00
00M0
0M00
00M0
0M00
00M0
0M00
00M0
0M00
00M0
,
0M00
00M0
0M00
00M0
0M00
00M0
0M00
00M0
0M00
00M0
0M00
00M0
0M00
00M0
0M00
00M0
,
0M01
0010
0001
0010
0001
0010
0001
0010
0001
0010
0001
0100
0001
0100
0001
0100
,
0001
0100
0010
0100
0010
0100
0010
0100
0010
1000
0010
1000
0010
1000
0100
0010
,
0001
0100
0001
0100
0001
0100
0001
0100
0001
0100
0001
0010
0001
0010
0001
0010
,
0001
0010
0100
0010
0100
0010
0100
0010
0100
1000
0100
1000
0100
1000
0010
0100
,
0001
0000
0000
1000
0001
0000
1000
0000
1001
0000
0000
0100
0001
0000
0100
0000
,
0101
0000
0000
0010
0001
0000
0010
0000
0011
0000
0000
0100
0001
0000
1000
0000
,
0001
0000
0000
0010
0000
0000
0001
0000
0000
1000
0000
0000
0100
0000
0000
1000
0000
0000
0001
0000
0000
0100
0000
0000
0001
0000
0000
1000
0000
0000
0010
0000
0000
1000
0000
0000
0001
0000
0010
0000
0001
0000
0010
0000
0000
0100
0000
0000
,
1000
0000
0000
0000
0000
0000
2002
0000
0000
0000
0000
0000
0000
0000
0000
0000
0000
0000
0000
0000
0000
0000
0000
0000
3003
0000
0000
M00M
0000
0000
0MM0
0000
0000
M00M
0000
0000
0MM0
0000
M000
0000
0M00
0000
00M0
0000
0000
000M
0000
0000
,
1000
0001
1000
0010
1000
0001
1000
0010
1000
0001
0100
0010
0100
0001
0100
0010
,
0100
0001
0010
0100
0010
0001
0010
0001
0100
0010
0100
0010
0100
0001
0010
0100
,
1000
0010
1000
0001
1000
0010
1000
0001
1000
0010
0100
0001
0100
0010
0100
0001
,
0100
0001
0010
0100
0010
0100
0010
0001
0100
0010
0100
0001
0100
0001
0010
0100
,
1000
0001
1000
0010
1000
0001
1000
0010
1000
0001
0100
0010
0100
0001
0100
0010
,
0100
0001
0010
0100
0010
0001
0010
0001
0100
0010
0100
0010
0100
0001
0010
0100
,
1000
0000
0001
1000
00M0
0M00
00M0
0M00
00M1
0000
1000
0001
00M0
0M00
00M0
0M00
,
100M
0000
0000
01M0
0000
0000
0000
0000
0000
01M0
0000
0000
100M
0000
0000
00M0
0000
0000
0M00
0000
0000
M000
0000
0000
00M1
0000
0000
M100
0000
0000
00M1
0000
0000
0000
0000
0000
M01M
0000
0100
0000
1000
0000
0001
0000
0000
0100
0000
0000
,
M0M2
0000
1003
0100
0010
0001
0100
0010
1000
0000
1000
0010
0200
0000
0301
0000
,
1000
0000
0001
0010
0100
1000
0010
0100
0001
0000
0001
0010
0200
0000
1300
0000
,
0001
0000
1000
0100
0010
0100
0010
0001
1000
0000
1000
0010
0200
0000
0301
0000
,
1000
0000
0001
0010
0100
0010
0100
1000
0001
0000
0001
0010
0200
0000
1300
0000
,
1001
0000
0100
0001
1000
0001
1000
0010
0100
0000
0001
1000
0200
0000
0310
0000
,
1001
0000
0010
1000
0001
1000
0001
0100
0010
0000
1000
0001
0020
0000
0130
0000
,
1000
0000
0000
0010
0000
0000
1000
0000
0000
0010
0000
0000
0100
0000
0000
0001
0000
0000
0100
0000
0000
0001
0000
0000
1000
0000
0100
0000
0010
0000
0001
0000
0000
1000
0000
0000
0001
0000
0000
0010
0000
0000
0100
0000
0000
1000
0000
0000
,
0001
0100
0001
0100
0010
1000
0010
1000
0001
0010
0001
0010
0001
0000
0200
0000
,
13M1
00M0
0000
0000
0000
0001
0010
010M
,
000M
100M
0000
0010
0000
0100
0001
0010
,
M000
M000
0100
0000
1000
0000
0001
0M10
,
0M00
1M00
0000
0001
0000
1000
0100
0000
,
100M
000M
0010
0000
0100
0000
0001
M010
,
M000
M100
0000
0001
0010
0000
0100
0000
,
10M0
00M0
0000
0000
0000
0001
0000
M10M
,
M00M
M01M
0000
1000
0000
0000
0000
0000
,
0000
0000
0000
0000
,
0000
0000
0000
0000
,
0000
0000
0000
0000
;
