#TITLE:Howling;
#SUBTITLE:;
#ARTIST:PON;
#CREDIT:;
#MUSIC:Howling.ogg;
#SELECTABLE:YES;
#BACKGROUND:Howling-bg.png;
#BANNER:Howling.png;
#CDTITLE:cdtitle.png;
#DISPLAYBPM:155.000:155.000;
#OFFSET:-1.59898;
#SAMPLESTART:7.793;
#SAMPLELENGTH:102.194;
#BPMS:0=155;
#STOPS:;

//---------------dance-single - ----------------
#NOTES:
     dance-single:
     :
     Challenge:
     11:
     0.000,0.000,0.000,0.000,0.000:
0011
0000
0000
0000
,
0000
0000
0000
0000
0000
0000
0000
1000
,
1100
0000
0101
0000
,
1010
0000
0110
0000
0101
0000
0011
0000
1100
0000
0001
1000
0001
1000
0010
0000
,
0020
0000
0000
0000
1030
0000
0001
0100
0001
0000
1000
0000
0010
0000
1000
0001
,
1000
0000
0000
0000
0101
0000
0000
0000
1100
0000
0000
0000
0100
0000
1000
0100
,
0010
0001
0100
0010
1010
1000
0001
0010
,
0002
0000
0000
0100
0000
0000
0100
0000
0000
1000
0000
1000
0000
0000
1000
0000
,
0000
0000
0000
0010
0000
0000
0010
0000
0000
1000
0000
1000
0000
0000
1003
0000
,
1000
0010
0100
0001
0000
1000
0100
0000
1000
0010
0100
0001
0000
1000
0010
0000
,
1000
0010
0100
0001
0000
1000
0001
0000
0011
0000
0110
0000
1100
0000
1001
0000
,
0201
0000
0000
0000
0310
0000
1000
0001
0020
0000
0000
0000
0130
0000
0010
0100
,
2000
0000
0000
0000
3001
0000
0100
0001
0020
0000
0000
0000
0031
0000
1000
0010
,
0200
0000
0000
0000
0301
0000
0010
0001
1000
0000
0100
0000
0010
0000
0001
0000
,
0011
0000
1001
0000
1100
0000
1001
0000
0110
0000
0100
0001
0100
0010
1000
0000
,
0002
0000
0000
0013
0100
0000
0100
1000
0001
0000
0100
0001
0010
0000
0100
1000
,
0002
0000
0000
0103
0010
0000
1000
0010
0100
0000
0001
0000
0010
0000
0100
1000
,
0001
0000
1000
0000
0010
0000
0100
0001
2000
0000
0000
0000
3010
0000
0100
0000
,
1001
0000
0010
0000
0100
0000
1000
0000
0001
0100
0001
0010
0100
1000
0001
0100
,
0001
1000
0010
1000
0001
0010
0100
1000
0001
1000
0100
1000
0001
0100
0010
1000
,
0001
0100
0010
0100
0001
0010
0100
1000
0001
1000
0010
1000
0001
0100
0010
1000
,
0001
0010
0100
1000
0001
1000
0100
1000
0001
0010
0100
1000
0001
0100
0010
1000
,
0001
0000
0011
0000
1100
0000
0101
0000
1000
0010
1000
0010
0100
0001
0100
0001
,
1000
0001
0100
0001
1000
0100
0010
0001
1000
0001
0010
0001
1000
0010
0100
0001
,
1000
0010
0100
0010
1000
0100
0010
0001
1000
0001
0100
0001
1000
0010
0100
0001
,
1000
0100
0010
0001
1000
0001
0010
0001
1000
0100
0010
0001
1000
0010
0100
0001
,
1000
0000
0010
0000
0100
0000
0001
0000
1001
0000
1100
0000
1000
0100
0010
0001
,
1000
0010
1000
0000
0001
0000
0010
0100
0010
0000
0100
1000
0000
1000
0001
0000
,
0001
0100
0001
0000
1000
0000
0100
0010
0100
0000
0010
0001
0000
0001
1000
0000
,
1000
0100
1000
0000
0001
0000
0100
0010
0100
0000
0010
1000
0000
1000
0001
0000
,
0001
0010
0001
0000
1000
0000
0010
0100
0010
1000
0001
0010
0000
0000
0010
0100
,
1000
0001
0010
0000
0011
0000
1000
0100
0010
0000
1000
0001
0000
0100
0001
0010
,
0001
1000
0100
0000
1100
0000
0001
0010
0100
0000
0001
1000
0000
0010
1000
0100
,
1000
0001
0100
0000
0101
0000
1000
0010
0100
0000
1000
0001
0000
0010
0001
0100
,
0001
1000
0010
0000
1010
0000
0100
0001
0010
0000
0011
0000
1100
0000
0001
0000
,
0010
0010
1000
0001
0100
0100
1000
0001
,
0010
0000
0010
0000
1000
0000
0001
0000
0100
0000
0100
0000
1000
0010
0100
0001
,
0010
0010
0001
1000
0100
0100
0001
1000
,
0010
0000
0010
0000
0001
0000
1000
0000
0010
0100
0001
1000
0100
0000
0010
0000
,
0001
0000
1000
0001
0010
0100
1000
0000
0001
0000
1000
0100
0010
0001
1000
0000
,
0001
0000
1000
0010
0100
0001
1000
0000
0001
0000
1000
0001
0100
0010
1000
0001
,
0010
0100
0100
1000
1000
0001
0001
0100
,
0100
0010
0010
1000
2000
0000
3000
0001
,
1001
1001
0011
0011
1100
1100
0101
0101
,
1101
0000
1101
0000
1101
0000
1101
0000
1101
0000
0001
1000
0001
0000
M00M
0000
,
1002
0000
0000
0000
0003
0000
0010
0100
2100
0000
0000
0000
3000
0000
0010
0100
,
0101
0000
0000
0000
0001
0000
0000
0000
0001
0000
0000
0000
0011
0000
0000
0000
0000
0000
0100
0000
0000
1000
0000
0000
0002
0000
0000
0000
0000
0000
1003
0000
0000
0010
0000
0000
1000
0000
0000
0000
0000
0000
0001
0000
0000
1000
0000
0000
,
0400
0000
0010
0000
1300
0000
0001
0010
0100
1000
0001
0000
0100
0000
0001
0000
,
1000
0000
0010
0000
0100
0000
0001
0000
1001
0000
1000
0100
0010
0001
0010
0100
,
2000
0000
0000
3100
0010
0000
0010
0001
1000
0000
0010
1000
0100
0000
0010
0001
,
1001
0000
0000
0000
1100
0000
0000
0000
0101
0000
0000
0000
1000
0000
0001
0010
,
0200
0000
1000
0000
0300
0000
0010
0001
2000
0000
0010
0000
3000
0000
0100
0000
,
2002
0000
0000
0000
0000
0000
3003
0000
0110
0000
0000
0110
0000
0000
0110
0000
,
0001
0000
0100
0001
1000
0000
0001
0010
0001
0100
0010
0100
0001
0000
1000
0001
,
0100
0010
0100
0010
1000
0000
0001
0010
0100
1000
0000
0001
0100
0000
0010
1000
,
0001
0010
0001
0010
0001
0000
0100
1000
0001
0100
0001
0100
0001
0000
1000
0000
,
0011
0000
1010
0000
1100
0000
0101
0000
1001
0000
1000
0100
0010
0001
0010
0100
,
2000
0000
3001
0010
0001
0000
1000
0100
0010
0100
1000
0001
0100
0000
0010
1000
,
0001
0010
0100
1000
0001
1000
0001
0010
0100
1000
0001
1000
0100
0000
0010
0001
,
1000
0100
0000
0010
0001
0000
0100
0001
1000
0010
0000
0100
0001
0000
1000
0000
,
0011
0000
0100
0000
1000
0000
0001
0000
1001
0000
0000
0010
1000
0100
0010
0001
,
1000
0001
0100
0001
1000
0100
0010
0001
1000
0001
0010
0001
1000
0010
0100
0001
,
1000
0010
0100
0010
1000
0100
0010
0001
1000
0001
0100
0001
1000
0010
0100
0001
,
2000
0000
3200
0000
0320
0000
0032
0000
1003
0000
0020
0000
1030
0000
0002
0003
,
1001
0000
1100
0000
0011
0000
1010
0000
0001
0100
0001
0100
0010
1000
0010
1000
,
0001
1000
0010
1000
0001
0010
0100
1000
0001
1000
0100
1000
0001
0100
0010
1000
,
0001
0100
0010
0100
0001
0010
0100
1000
0001
1000
0010
1000
0001
0100
0010
1000
,
0001
0010
0100
1000
0001
1000
0100
1000
0001
0010
0100
1000
0001
0100
0010
1000
,
0001
0010
0001
1000
0010
0100
0010
1000
0001
0010
0100
0010
0100
1000
0001
1000
,
0200
0000
0000
0000
,
0300
0000
0000
0000
,
0000
0000
0000
0000
;
