#TITLE:Confiserie;
#SUBTITLE:;
#ARTIST:L.E.D vs. S-C-U;
#CREDIT:;
#MUSIC:Confiserie.ogg;
#SELECTABLE:YES;
#BACKGROUND:Confiserie-bg.png;
#BANNER:Confiserie.png;
#CDTITLE:cdtitle.png;
#OFFSET:-1.86918;
#SAMPLESTART:54.000;
#SAMPLELENGTH:12.000;
#BPMS:0=185;
#STOPS:;

//---------------dance-single - ----------------
#NOTES:
     dance-single:
     :
     Challenge:
     14:
     0.000,0.000,0.000,0.000,0.000:
1000
0000
0000
0010
0000
0000
1000
0000
0000
0001
0000
0000
0100
0000
0000
0001
0000
0000
1000
0000
0000
0100
0000
0000
0010
0000
0000
0001
0000
0000
1000
0000
0000
0010
0000
0000
0100
0000
0001
0000
0100
0000
0001
0000
0100
0000
0001
0000
,
1000
0000
0010
0100
0000
0001
0020
0000
0100
0000
0130
0000
1000
0000
0001
0000
,
1000
0000
0010
0100
0000
0001
0020
0000
0100
0000
0130
0000
1000
0000
0001
0000
,
0100
0000
0010
1000
0000
0001
0100
0000
0001
1000
0000
0001
0100
0001
1000
0010
,
1000
0000
0000
0100
0000
0000
0010
0000
0000
0001
0000
0000
1000
0000
0000
0010
0000
0000
0100
0000
0000
0001
0000
0000
1000
0000
0000
0100
0000
0000
1000
0000
0010
0000
0100
0000
0001
0000
0000
1000
0000
0000
0001
0000
0010
0000
0100
0000
,
1000
0000
0000
0010
0000
0000
0100
0000
0000
0001
0000
0000
1001
0000
0000
1000
0000
0000
0010
0000
0000
0100
0001
0100
,
0001
0000
0000
0000
0000
0000
1000
0000
0000
0000
0000
0000
1000
0000
0000
0000
0000
0000
0001
0000
0000
0000
0000
0000
1000
0000
0000
0100
0000
0000
0010
0000
0000
0001
0000
0000
1000
0000
0000
0000
0000
0000
0001
0000
1000
0000
0001
0000
,
1000
0000
0000
0010
0000
0000
0100
0000
0000
0010
0000
0000
0100
0000
0000
0001
0000
0000
1000
0000
0000
0100
0000
0000
0010
0000
0000
0100
0000
0000
0010
0000
0000
0001
0000
0000
1000
0000
0000
0001
0000
0000
0010
0000
0100
0000
1000
0000
,
0001
0000
0000
0000
0000
0000
1000
0000
0000
0100
0000
0000
0000
0000
0000
0001
0000
0000
0010
0000
0000
0000
0000
0000
1001
0000
0000
0000
0000
0000
0000
0000
0000
0000
0000
0000
0000
0000
0000
0000
0000
0000
1000
0000
0001
0000
1000
0000
,
0001
0000
1000
0010
1000
0000
0001
0000
1000
0000
0100
0000
0010
0000
0002
0000
,
0000
1003
0010
0200
0300
0001
0000
0001
,
1000
0000
0001
0100
0001
0000
1000
0000
0001
0000
0010
0000
0100
0000
1000
0000
,
0001
0000
0000
1000
0010
1000
0001
0000
0000
0020
0000
0000
0030
0000
0000
0010
0000
0000
0100
0000
0000
2000
0000
0000
,
3000
1000
0010
1000
0001
0100
0000
0020
,
0000
0000
0000
1030
0000
0000
0100
0000
0000
0010
0000
0000
0100
0000
0000
1000
0010
1000
0001
0000
0000
0100
0000
0000
,
0001
0020
0030
0100
0000
0100
2000
0000
,
3001
0000
0000
0100
0000
0000
0001
0000
0000
1000
0000
0000
0001
0000
0000
0010
0000
0000
0001
0000
0000
1000
0100
0010
,
0001
0000
1000
0000
0010
0000
0100
0001
1000
0000
0001
0000
1000
0100
1000
0000
,
0001
0000
0100
0001
1000
0000
0001
0100
0001
1000
0001
0000
1000
0100
0010
0001
,
1000
0000
0001
0000
0100
0000
0010
1000
0001
0000
1000
0000
0001
0010
0001
0000
,
1000
0000
0010
1000
0001
0000
1000
0010
1000
0001
1000
0000
0001
0010
0100
1000
,
0001
0000
1000
0000
0010
0000
0100
0001
1000
0000
0001
0000
1000
0100
1000
0000
,
0001
0000
0100
0001
1000
0000
0001
0100
0001
1000
0001
0000
1000
0100
0010
0001
,
1000
0000
0001
0000
0100
0000
0010
1000
0001
0000
1000
0000
0001
0010
0001
0000
,
1000
0000
0010
1000
0001
0000
1000
0010
1000
0100
0010
0100
0010
0001
1000
0001
,
0100
0000
0010
1000
0000
0001
0100
0000
0001
0010
0100
0010
0001
0010
0100
1000
,
0001
0000
1000
0010
0000
0100
0001
0000
1000
0100
0010
0100
1000
0001
1000
0010
,
0100
0000
0001
0010
0000
0100
1000
0000
0001
0000
0100
0000
0010
0000
2000
0000
,
0001
0000
0000
0000
3100
0010
0001
1000
0100
0010
0001
1000
0001
0010
0100
1000
,
0001
0000
1000
0100
0000
0010
0001
0000
1000
0010
1000
0001
1000
0100
1000
0001
,
0100
0000
0010
1000
0000
0001
0100
0000
0001
0010
0100
1000
0100
0010
0001
1000
,
0001
0000
0010
0001
0000
0100
0001
0000
1000
0000
0010
0000
0100
0000
0020
0000
,
1000
0000
0000
0000
0130
0001
0010
0100
1000
0001
1000
0100
0010
0001
1000
0010
,
0100
0000
0010
1000
0000
0001
0100
0000
0001
0010
0100
0010
0001
0010
0100
1000
,
0001
0000
1000
0010
0000
0100
0001
0000
1000
0100
0010
0100
1000
0001
1000
0010
,
0100
0000
0001
0010
0000
0100
1000
0000
0001
0000
0100
0000
0010
0000
2000
0000
,
0001
0000
0000
0000
3100
0010
0001
1000
0100
0010
0001
1000
0001
0010
0100
1000
,
0001
0000
0001
0100
0001
0000
0001
0000
0001
0010
0100
1000
0010
0100
0001
1000
,
0010
0000
0010
0100
0010
0000
0010
0000
0010
1000
0100
0010
0001
1000
0001
0010
,
0100
0000
1100
0000
1001
0000
0101
0000
0110
0000
1001
0000
,
0000
0000
0000
0000
0000
0000
0000
0000
0000
0000
0000
0000
0000
0000
1000
0010
,
0100
0000
0001
0010
0000
0100
1000
0010
0100
0000
0001
0010
0000
0100
1000
0010
,
0100
0001
0010
0001
0100
0001
1000
0100
1000
0000
0001
0010
0100
0010
0100
1000
,
0001
0010
0001
0010
0100
1000
0100
1000
0010
0100
0001
1000
0100
0010
0001
1000
,
0001
0000
0010
0000
0100
0000
1000
0000
0001
0100
0001
1000
0010
1000
0001
0010
,
0100
0000
0000
0000
0000
0000
0010
0000
0000
0001
0000
0000
0000
0000
0000
1000
0000
0000
0100
0000
0000
1000
0000
0000
0001
0000
0000
0010
0000
0000
0100
0000
0000
0010
0000
0000
0001
0000
0000
1000
0000
0000
0010
0000
1000
0000
0001
0000
,
0100
0000
0000
0000
0000
0000
0010
0000
0000
1000
0000
0000
0000
0000
0000
0001
0000
0000
0100
0000
0000
0000
0000
0000
2002
0000
0000
0000
3003
0000
0000
0000
0000
0000
0000
0000
1000
0000
0000
0000
0000
0000
0100
0000
0010
0000
0001
0000
,
1000
0010
0100
0001
0100
0010
1000
0001
0010
0100
1000
0001
0100
0010
0100
0001
,
1000
0000
0000
0000
0000
0000
0100
0000
0000
0010
0000
0000
0000
0000
0000
0010
0000
0000
0001
0000
1000
0000
0001
0000
1000
0000
0000
0010
0000
0000
0100
0000
0000
0001
0000
0000
1000
0000
0000
0100
0000
0000
0010
0000
0001
0000
1000
0000
,
0001
0010
0100
0010
0001
0100
0001
1000
0010
1000
0001
0100
0010
1000
0100
0010
,
0100
1000
0010
1000
0001
0100
0010
1000
0001
1000
0100
0010
0001
0100
0010
1000
,
0001
0010
0100
0010
0100
1000
0001
0100
0010
1000
0001
1000
0100
0010
0001
1000
,
0001
0000
0000
0000
0000
0000
0010
0000
0000
0000
0000
0000
0100
0000
0000
1000
0000
0000
0010
0000
0000
0100
0000
0000
0010
0000
0000
1000
0000
0000
0001
0000
0000
0010
0000
0000
0100
0000
0000
1000
0000
0000
0100
0000
0001
0000
1000
0000
,
0001
0000
0000
0000
0000
0000
1000
0000
0000
0100
0000
0000
0000
0000
0000
0010
0000
0000
0001
0000
0000
0000
0000
0000
1000
0000
0000
0010
0000
0000
1000
0000
0000
0010
0000
0000
0100
0000
0000
0001
0000
0000
1000
0000
0100
0000
0010
0000
,
0001
0000
0000
1000
0000
0000
0010
0000
0000
0100
0000
0000
0001
0000
0000
1000
0000
0000
0100
0000
0000
0010
0000
0000
0002
0000
0000
0000
0000
0000
0000
0000
0000
0000
0000
0000
0013
0000
0100
0000
1000
0000
0001
0000
0010
0000
0100
0000
,
1000
0000
0010
0100
0000
0100
0001
0000
1000
0000
0100
0010
0000
0010
0001
0000
,
1000
0100
1000
0010
0100
0010
1000
0001
1000
0001
0010
0100
1000
0100
0010
0001
,
1000
0000
0000
0100
0000
0000
1000
0000
0000
0100
0000
0000
1000
0000
0000
0100
0000
0000
1000
0000
0000
0100
0000
0000
1000
0000
0000
0000
0000
0000
0001
0000
0010
0000
0001
0000
0010
0000
0000
0000
0000
0000
0001
0000
0100
0000
0001
0000
,
0200
0000
0000
0000
0300
0010
1000
0001
,
0010
0000
0000
0100
0000
0000
1000
0000
0000
0000
0010
0000
1000
0000
0001
0000
,
0100
0000
0000
0010
0000
0000
0001
0000
0000
0000
0010
0000
1000
0000
0001
0000
,
0010
0000
0000
0100
0000
0000
1000
0000
0000
0000
0001
0000
0100
0000
2000
0000
,
0000
0000
3000
1000
0100
1000
0100
0001
,
1000
1000
0010
1000
1000
0010
1000
0010
,
0100
0000
0000
0100
0000
0000
0001
0000
0000
0100
0000
0000
0100
0000
0000
0001
1000
0010
1000
0000
0000
0001
1000
0100
,
1000
0000
1010
0000
1001
0000
0101
0000
0011
0000
1001
0000
,
0000
0000
0000
0000
,
0011
0000
0101
0000
1001
0000
1010
0000
1100
0000
1001
0000
,
0000
0000
0000
0000
0000
0000
0000
0000
0000
0000
0000
0000
1000
0000
0000
1000
0000
0000
0001
0010
0001
0010
0001
0010
,
0001
0000
1000
0100
0000
0010
0001
0100
0010
0000
1000
0100
0000
0010
0001
0100
,
0010
1000
0100
1000
0010
1000
0001
0010
0001
0000
1000
0100
0010
0100
0010
0001
,
1000
0100
1000
0100
0010
0001
0010
0001
0100
0010
1000
0001
0010
0100
1000
0001
,
1000
0000
0000
0000
0000
0000
0100
0000
0000
0000
0000
0000
0010
0000
0000
0000
0000
0000
0001
0000
0000
0000
0000
0000
1000
0000
0000
0010
0000
0000
1000
0000
0000
0001
0000
0000
0100
0000
0000
0001
0000
0000
1000
0000
0100
0000
0010
0000
,
0001
0000
0000
0000
0000
0000
0001
0000
0000
1000
0000
0000
0000
0000
0000
0001
0000
0000
0010
0000
0000
0001
0000
0000
1000
0000
0000
0100
0000
0000
0010
0000
0000
0100
0000
0000
1000
0000
0000
0001
0000
0000
0100
0000
0001
0000
1000
0000
,
0010
0000
0000
0000
0000
0000
0100
0000
0000
0001
0000
0000
0000
0000
0000
1000
0000
0000
0010
0000
0000
0000
0000
0000
2002
0000
0000
0000
3003
0000
0000
0000
0000
0000
0000
0000
0001
0000
0000
0000
0000
0000
0010
0000
0100
0000
1000
0000
,
0001
0000
0001
0100
0000
1000
0100
0000
1001
0000
1000
0100
0000
0001
0100
0000
,
0010
1000
0100
0010
0001
0100
0010
1000
0001
0010
0100
1000
0001
0010
0001
1000
,
0100
0100
0100
0100
0010
0010
0010
0001
,
1000
0000
0000
0100
0000
0000
0010
0000
0000
0001
0000
0000
1000
0000
0000
0100
0000
0000
0010
0000
0000
0001
0000
0000
1000
0000
0000
0000
0000
0000
1000
0000
0010
0000
0100
0000
0001
0000
0000
0000
0000
0000
1000
0000
0010
0000
0100
0000
,
0001
0000
0000
0000
0000
0000
1001
0000
0000
0000
0000
0000
1000
0001
1000
1001
0000
0000
0000
0000
0000
0001
0010
0100
,
1001
1001
1001
0110
0000
0000
0000
0000
,
0000
0000
0000
0000
,
0000
0000
0000
0000
,
0000
0000
0000
0000
,
0000
0000
0000
0000
;
