#TITLE:Yume to Tsuki;
#SUBTITLE:;
#ARTIST:Kicco;
#TITLETRANSLIT:;
#SUBTITLETRANSLIT:;
#ARTISTTRANSLIT:;
#GENRE:;
#CREDIT:Ace Of Arrows;
#BANNER:Yume to Tsuki - Bn.png;
#BACKGROUND:Yume to Tsuki - Bg.jpg;
#LYRICSPATH:;
#CDTITLE:Ace Of Arrows.png;
#MUSIC:Yume to Tsuki.ogg;
#OFFSET:0.830;
#SAMPLESTART:55.860;
#SAMPLELENGTH:12.000;
#SELECTABLE:YES;
#BPMS:0.000=157.000,517.000=78.500,532.000=157.000;
#STOPS:;
#BGCHANGES:;
#KEYSOUNDS:;

//---------------dance-single - Ace Of Arrows (2019)----------------
#NOTES:
     dance-single:
     Ace Of Arrows (2019):
     Hard:
     10:
     0.751,0.555,0.054,0.723,0.370: // measure 1
0000
0000
0000
0000
,  // measure 2
0000
0000
0000
0000
0001
0000
0010
0100
0010
0000
0001
0000
1000
0000
0100
0000
,  // measure 3
0010
0000
0001
0000
1000
0000
0001
0000
0010
0000
0100
0000
1000
0100
0010
0100
,  // measure 4
1000
0001
0100
0010
1000
0001
0010
0100
,  // measure 5
0010
0000
0001
0000
1000
0000
0010
0000
0100
0000
0001
0000
1000
0010
0100
0010
,  // measure 6
1000
0000
0001
0000
0010
0000
0100
1000
0100
0000
0010
0000
0001
0000
1000
0000
,  // measure 7
0001
0000
0100
0000
0010
0000
0100
0001
0100
0000
0010
0000
1000
0001
0100
0001
,  // measure 8
1000
0000
0100
0000
0010
0000
0001
0010
0001
0000
1000
0000
0010
0000
0100
0000
,  // measure 9
0001
0000
1000
0000
0004
0400
0000
0000
0000
0000
0000
0000
0000
0000
0000
0000
,  // measure 10
0000
0000
0303
0000
0002
0000
0000
1003
0100
0000
0010
0000
0100
0000
1000
0000
,  // measure 11
0001
0000
0100
0000
0040
0000
0000
0000
0030
0000
1000
0001
1000
0000
0100
0000
,  // measure 12
0010
0001
4000
0000
3000
0010
0100
0001
,  // measure 13
1000
0000
0100
0000
0020
0000
0000
0000
0230
0000
0000
0000
1300
0100
1000
0000
,  // measure 14
0001
0000
0100
0000
0020
0000
0000
1030
0001
0000
0010
0000
0100
0000
0010
0000
,  // measure 15
0001
0000
1000
0000
0400
0000
0000
0000
0300
0000
0010
0001
0010
0000
0100
0000
,  // measure 16
1000
0001
0400
0000
0300
0010
0100
0001
,  // measure 17
1000
0000
0100
0000
0040
0004
0000
0000
0000
0000
0000
0000
0000
0000
0000
0000
,  // measure 18
0033
0000
0000
0000
0001
0000
1000
0010
1000
0000
0001
0000
0010
0000
0100
1000
,  // measure 19
0100
0000
0010
0000
0001
0000
1000
0000
0010
0000
0100
0000
0001
1000
0100
1000
,  // measure 20
0001
0000
0100
0000
0010
0000
1000
0001
1000
0000
0100
0000
0010
0000
0001
1000
,  // measure 21
0001
0000
1000
0000
0040
4000
0000
0000
0000
0000
0000
0000
0000
0000
0000
0000
,  // measure 22
3030
0000
0000
0000
0020
0000
0000
0130
0001
0000
1000
0000
0100
0000
0010
0000
,  // measure 23
0100
0000
1000
0000
0004
0000
0000
0000
0003
0000
1000
0010
1000
0000
0001
0000
,  // measure 24
0010
0100
4000
0000
3000
0001
0100
0010
,  // measure 25
0100
0000
0001
0000
2000
0000
3001
0010
0001
0000
1000
0000
0010
0100
0010
0000
,  // measure 26
1000
0000
0001
0000
0020
0000
0000
0130
1000
0000
0001
0000
0100
0000
0001
0000
,  // measure 27
1000
0000
0100
0000
0040
0000
0000
0000
0030
0000
0001
1000
0001
0000
0100
0000
,  // measure 28
0010
1000
0004
0000
0003
0010
0100
1000
,  // measure 29
0001
0000
0100
0000
0040
0400
0000
0000
0000
0000
0000
0000
0000
0000
0000
0000
,  // measure 30
0330
0000
0020
0000
1030
0001
0200
0000
,  // measure 31
0301
1000
0004
0000
0003
0010
0100
0010
,  // measure 32
0001
1000
0020
0000
0130
0001
2000
0000
,  // measure 33
3100
1000
0002
0000
0023
0000
0430
0000
,  // measure 34
2300
0000
3002
0000
0103
0010
2000
0000
,  // measure 35
3001
0100
0040
0000
0030
1000
0001
0010
,  // measure 36
0100
0010
0002
0000
2003
0000
3020
0000
,  // measure 37
0230
0000
0301
1000
0100
1000
0002
0000
,  // measure 38
2003
0000
0000
0000
3040
0000
0000
0000
0030
0000
1000
0000
0002
0000
0013
0100
,  // measure 39
0010
0000
0001
0000
4000
0000
0000
0000
3000
0000
0001
0000
0200
0000
0310
1000
,  // measure 40
0010
0000
0100
0000
0004
0000
0000
0000
0003
0000
1000
0000
0200
0000
0310
0100
,  // measure 41
0010
0001
2000
0000
3020
0000
0230
0000
,  // measure 42
0302
0000
0000
0000
4003
0000
0000
0000
3000
0000
0100
0000
0020
0000
0130
1000
,  // measure 43
0100
0000
0010
0000
0004
0000
0000
0000
0003
0000
1000
0000
0002
0000
0103
0010
,  // measure 44
0100
0000
0001
0000
2000
0000
3001
0010
0002
0000
1003
0001
2000
0000
3100
0000
,  // measure 45
0010
0000
0001
0000
2001
0000
0000
0000
3020
0000
0000
0030
0210
0000
0000
0000
,  // measure 46
0301
1000
0100
1000
0004
0000
0000
0000
0003
0000
1000
0000
0020
0000
0130
0010
,  // measure 47
0100
0000
0001
0000
4000
0000
0000
0000
3000
0000
0001
0000
0020
0000
0130
1000
,  // measure 48
0100
0000
0010
0000
0004
0000
0000
0000
0003
0000
1000
0000
0020
0000
0130
0001
,  // measure 49
0100
0010
2000
0000
3002
0000
0023
0000
,  // measure 50
0230
0000
0000
0000
4300
0000
0000
0000
3000
0000
0001
0000
0200
0000
0301
1000
,  // measure 51
0001
0000
0010
0000
0400
0000
0000
0000
0300
0000
1000
0000
0002
0000
1003
0010
,  // measure 52
1000
0000
0001
0000
0020
0000
0031
1000
0002
0000
1003
0010
2000
0000
3001
0000
,  // measure 53
0010
0000
0100
0000
2100
0000
0000
0000
3002
0000
0000
0003
0201
0000
0000
0000
,  // measure 54
0310
1000
0001
1000
0010
0000
0100
0001
0100
0000
0010
0000
1000
0000
0001
0010
,  // measure 55
0001
0000
1000
0000
0100
0000
0010
0100
0010
0000
0001
0000
1000
0100
0010
0100
,  // measure 56
1000
0000
0001
0000
0100
0000
0010
0100
0010
0000
1000
0000
0001
0000
1000
0100
,  // measure 57
1000
0000
0001
0000
0010
0000
0100
0000
1000
0000
0001
0000
0010
0100
1000
0100
,  // measure 58
0010
0000
0001
0000
1000
0000
0001
0100
0001
0000
1000
0000
0001
0000
0010
0100
,  // measure 59
0010
0000
0001
0000
1000
0000
0010
0100
0010
0000
1000
0000
0001
0100
0010
0100
,  // measure 60
0001
0000
1000
0000
0100
0000
0010
0001
0010
0000
0100
0000
1000
0000
0001
0010
,  // measure 61
0001
0000
0010
0000
0400
4000
0000
0000
0000
0000
0000
0000
0000
0000
0000
0000
,  // measure 62
3300
0000
0000
0000
2000
0000
0000
3001
0100
0000
0010
0000
0100
0000
0001
0000
,  // measure 63
1000
0000
0100
0000
0040
0000
0000
0000
0030
0000
0001
0010
0001
0000
1000
0000
,  // measure 64
0010
0100
0004
0000
0003
1000
0100
0010
,  // measure 65
0100
0000
1000
0000
0002
0000
0000
0000
2003
0000
0000
0000
3010
0100
0010
0000
,  // measure 66
1000
0000
0001
0010
0002
0000
0000
1003
0010
0000
0100
0000
0001
0000
1000
0000
,  // measure 67
0100
0010
0400
0000
0300
1000
0001
0100
,  // measure 68
0010
1000
0004
0000
0003
1000
0100
0010
,  // measure 69
0100
0000
1000
0000
0004
4000
0000
0000
0000
0000
0000
0000
0000
0000
0000
0000
,  // measure 70
3003
0000
0000
0000
0001
0000
0100
0010
0100
0000
0001
0000
1000
0000
0001
0010
,  // measure 71
0001
0000
1000
0000
0100
0000
0010
0100
0010
0000
0001
0000
1000
0001
0010
0001
,  // measure 72
1000
0000
0010
0000
0100
0000
0001
1000
0001
0000
0010
0000
0100
0000
1000
0100
,  // measure 73
1000
0000
0001
0000
0100
0000
0010
0000
1000
0000
0001
0000
1000
0010
0100
0010
,  // measure 74
1000
0000
0001
0000
0020
0000
0000
0031
1000
0000
0010
0000
0100
0000
0010
0000
,  // measure 75
1000
0000
0001
0000
0040
0000
0000
0000
0030
0000
0001
0010
0001
0000
1000
0000
,  // measure 76
0010
1000
0004
0000
0003
0010
0100
1000
,  // measure 77
0001
0000
0100
0000
0020
0000
1030
0010
1000
0000
0001
0000
0010
0100
0010
0000
,  // measure 78
0001
0000
1000
0010
2000
0000
0000
3001
0010
0000
0100
0000
1000
0000
0001
0000
,  // measure 79
0100
0000
0010
0000
4000
0000
0000
0000
3000
0000
0001
0100
0001
0000
1000
0000
,  // measure 80
0100
0010
0400
0000
0300
1000
0001
0100
,  // measure 81
0010
0000
1000
0000
0004
0400
0000
0000
0000
0000
0000
0000
0000
0000
0000
0000
,  // measure 82
0303
0000
0002
0000
1003
0100
0020
0000
,  // measure 83
0130
1000
0004
0000
0003
1000
0010
0100
,  // measure 84
0001
1000
0002
0000
0013
0100
2000
0000
,  // measure 85
3001
0100
0020
0000
0230
0000
0302
0000
,  // measure 86
2003
0000
3200
0000
0310
0100
2000
0000
,  // measure 87
3001
0100
0040
0000
0030
1000
0001
0100
,  // measure 88
0001
1000
0200
0000
0340
0000
0032
0000
,  // measure 89
2003
0000
3010
0100
0001
1000
0200
0000
,  // measure 90
0320
0000
0000
0000
0034
0000
0000
0000
0003
0000
1000
0000
0002
0000
0103
0010
,  // measure 91
0100
0000
0001
0000
4000
0000
0000
0000
3000
0000
0001
0000
0020
0000
0130
1000
,  // measure 92
0100
0000
0010
0000
0004
0000
0000
0000
0003
0000
1000
0000
0200
0000
1300
0001
,  // measure 93
1000
0000
0010
0000
0200
0000
0301
1000
0001
0000
0010
0000
0100
1000
0100
0000
,  // measure 94
0010
0000
0001
1000
0004
0000
0000
0000
0003
0000
1000
0000
0020
0000
0130
0001
,  // measure 95
0100
0000
0010
0000
4000
0000
0000
0000
3000
0000
0001
0000
0020
0000
0031
1000
,  // measure 96
0001
0000
0100
0000
0020
0000
1030
0001
2000
0000
3001
0010
0002
0000
1003
0000
,  // measure 97
0010
0000
0100
0000
0102
0000
0000
0000
2003
0000
0000
3000
1400
0000
0000
0000
,  // measure 98
0310
0100
1000
0100
0040
0000
0000
0000
0030
0000
0001
0000
2000
0000
3010
0100
,  // measure 99
0010
0000
1000
0000
0004
0000
0000
0000
0003
0000
1000
0000
0200
0000
0310
0001
,  // measure 100
0010
0000
0100
0000
4000
0000
0000
0000
3000
0000
0001
0000
0200
0000
0310
0100
,  // measure 101
0010
0000
1000
0000
0002
0000
0013
0100
0010
0000
0001
0000
1000
0010
1000
0000
,  // measure 102
0001
0000
0100
0010
0400
0000
0000
0000
0300
0000
0001
0000
2000
0000
3100
0010
,  // measure 103
0100
0000
1000
0000
0004
0000
0000
0000
0003
0000
0100
0000
0020
0000
1030
0010
,  // measure 104
1000
0000
0001
0000
0020
0000
0130
0010
0200
0000
1300
0100
2000
0000
3001
0000
,  // measure 105
0100
0010
2010
0000
3002
0000
0203
0000
,  // measure 106
0320
0000
0000
0030
2010
0000
0000
0000
3001
0000
0010
0000
0200
0000
0000
0000
,  // measure 107
0320
0032
2003
3002
,  // measure 108
0203
0000
0320
0000
1030
0001
2000
0000
,  // measure 109
3200
0000
0320
0000
0031
1000
0010
1000
,  // measure 110
0001
0010
0200
0000
1300
0001
2000
0000
,  // measure 111
3020
0000
0230
0000
0301
1000
0020
0000
,  // measure 112
2030
0000
3002
0000
0013
0100
2000
0000
,  // measure 113
3002
0000
0000
0000
2003
0000
3010
0100
0010
0000
1000
0000
0001
0010
0100
0010
,  // measure 114
0001
1000
0001
0100
0010
1000
0002
0000
,  // measure 115
0013
0100
1000
0001
0200
0000
0300
0010
,  // measure 116
1000
0001
0020
0000
0130
1000
0002
0000
,  // measure 117
0103
0010
2000
0000
3002
0000
4003
0000
,  // measure 118
3000
0000
0100
0010
0100
1000
0002
0000
,  // measure 119
0103
0010
0100
0001
2000
0000
3000
0100
,  // measure 120
0010
0001
0020
0000
0130
1000
0002
0000
,  // measure 121
1003
0000
0100
0000
0040
0400
0000
0000
0000
0000
0000
0000
0000
0000
0000
0000
,  // measure 122
0330
0000
0020
0000
0031
1000
0002
0000
,  // measure 123
0103
0010
4000
0000
3000
0001
1000
0010
,  // measure 124
0100
0001
2000
0000
3200
0000
0320
0000
,  // measure 125
0130
1000
0002
0000
0203
0000
0340
0000
,  // measure 126
2030
0000
3002
0000
0013
0100
0020
0000
,  // measure 127
0032
0000
4003
0000
3000
0010
0100
0001
,  // measure 128
1000
0100
0020
0000
0032
0000
2003
0000
,  // measure 129
3020
0000
0130
0001
1000
0100
0020
0000
,  // measure 130
0230
0000
0000
0000
0000
0000
0000
0000
4300
0000
0000
0000
3000
0000
0001
0000
2000
0000
3001
0010
0001
0000
1000
0000
0040
0000
0000
0000
0030
0000
1000
0000
,  // measure 131
0002
0000
0013
0100
0010
0000
0001
0000
4000
0000
0000
0000
3000
0000
0100
0000
0020
0000
0031
0010
0001
0000
1000
0000
0020
0000
0000
0000
0230
0000
0000
0000
,  // measure 132
0302
0000
0000
0000
2003
0000
0000
0000
3400
0000
0000
0000
0300
0000
0010
0000
0002
0000
1003
0100
1000
0000
0001
0000
0040
0000
0000
0000
0030
0000
0001
0000
,  // measure 133
2000
0000
3010
0100
0010
0000
1000
0000
0002
0000
0013
0001
0020
0000
0130
0010
0200
0000
1300
0000
0001
0000
0100
0000
0120
0000
0000
0000
2030
0000
0000
3000
,  // measure 134
1002
0000
0000
0000
0013
0100
1000
0100
0040
0000
0000
0000
0030
0000
0100
0000
,  // measure 135
2000
0000
3001
0100
0001
0000
1000
0000
0400
0000
0000
0000
0300
0000
0010
0000
,  // measure 136
0200
0000
1300
0001
1000
0000
0010
0000
4000
0000
0000
0000
3000
0000
0001
0000
,  // measure 137
0200
0000
0310
0100
0010
0000
1000
0000
0002
0000
0013
0100
0010
0000
0001
0000
,  // measure 138
1000
0010
1000
0000
0001
0000
0100
0010
0400
0000
0000
0000
0300
0000
0001
0000
,  // measure 139
2000
0000
3001
0010
0001
0000
1000
0000
0040
0000
0000
0000
0030
0000
0100
0000
,  // measure 140
0002
0000
1003
0001
1000
0000
0100
0000
0020
0000
0031
0010
0002
0000
1003
0010
,  // measure 141
2000
0000
3001
0000
0010
0000
0001
0000
2001
0000
0000
0000
3020
0000
0000
0030
,  // measure 142
0410
0000
0000
0000
0301
0100
0010
0100
0004
0000
0000
0000
0003
0000
1000
0000
,  // measure 143
0200
0000
0310
0100
0010
0000
0001
0000
4000
0000
0000
0000
3000
0000
0001
0000
,  // measure 144
0200
0000
0301
1000
0001
0000
0010
0000
0400
0000
0000
0000
0300
0000
1000
0000
,  // measure 145
0002
0000
1003
0010
1000
0000
0001
0000
0020
0000
0031
1000
0001
0000
0100
0000
,  // measure 146
0010
1000
0010
0000
0100
0000
0001
0100
0004
0000
0000
0000
0003
0000
1000
0000
,  // measure 147
0200
0000
0310
0001
0010
0000
0100
0000
4000
0000
0000
0000
3000
0000
0001
0000
,  // measure 148
2000
0000
3010
0100
0010
0000
1000
0000
0002
0000
1003
0100
2000
0000
3001
0100
,  // measure 149
0002
0000
1003
0000
0100
0000
0010
0000
0012
0000
0000
0000
2003
0000
0000
3000
,  // measure 150
1020
0000
0000
0000
0130
0001
1000
0001
0200
0000
0310
0100
0010
0000
1000
0000
,  // measure 151
0001
0000
1000
0100
1000
0000
0001
0000
0100
0000
0010
0100
0010
0000
1000
0000
,  // measure 152
0001
0010
0100
0010
0001
0000
1000
0000
0010
0000
1000
0001
1000
0000
0100
0000
,  // measure 153
0010
0000
0100
1000
0100
0000
0010
0000
0001
0010
0001
0000
1000
0000
0001
0000
,  // measure 154
1000
0100
0010
0100
1000
0000
0001
0000
0100
0000
0010
0100
0010
0000
1000
0000
,  // measure 155
0001
0000
1000
0100
1000
0000
0001
0000
0100
0000
0010
0100
0010
0000
1000
0000
,  // measure 156
0001
0010
0100
0010
0001
0000
1000
0000
0010
0000
0100
0001
0100
0000
0010
0000
,  // measure 157
1000
0000
0001
0010
0001
0000
1000
0000
0001
0100
0010
0100
0001
0000
1000
0000
,  // measure 158
0001
0010
0001
0010
0100
1000
0100
1000
0002
0000
0000
0000
0000
0000
0000
0000
,  // measure 159
0000
0000
0003
0000
;

//---------------dance-single - Ace Of Arrows (2019)----------------
#NOTES:
     dance-single:
     Ace Of Arrows (2019):
     Challenge:
     12:
     1.000,0.832,0.716,1.000,0.823: // measure 1
0000
0000
0000
0000
,  // measure 2
0000
0000
0000
0000
2001
0000
3010
0100
0020
0000
1030
0000
0001
0000
0100
0010
,  // measure 3
0100
0000
0010
0000
2010
0000
3001
0010
0001
0000
1000
0000
0001
0010
0100
1000
,  // measure 4
0001
1000
0100
0010
0001
0000
1000
0010
1000
0000
0001
0000
0201
0000
0310
1000
,  // measure 5
0010
0000
0100
0000
0102
0000
1003
0100
1000
0000
0001
0000
1000
0010
0100
0001
,  // measure 6
1000
0001
0100
0010
2000
0000
3001
0010
0001
0000
1000
0000
1020
0000
0130
0001
,  // measure 7
0100
0000
0001
0000
2001
0000
3100
0010
0100
0000
1000
0000
0100
0010
0001
0010
,  // measure 8
0100
1000
0100
0010
0002
0000
1003
0001
1000
0000
0010
0000
0210
0000
0301
1000
,  // measure 9
0001
0000
0010
0000
0100
1000
0001
0100
0001
1000
0010
0100
0001
1000
0100
0010
,  // measure 10
0001
0010
0100
1000
0002
0000
0000
0103
0010
0000
1000
0000
0001
0000
0010
0000
,  // measure 11
0100
0000
0010
0000
0012
0000
1003
0010
1000
0000
0001
0100
0002
0000
1003
0000
,  // measure 12
0100
0000
0010
0000
0012
0000
1003
0001
1000
0000
0100
0000
0020
0000
0031
0000
,  // measure 13
1000
0000
0010
0000
0210
0000
0000
0301
1000
0000
0100
0000
0010
0100
0010
0000
,  // measure 14
0001
0000
1000
0100
2000
0000
0000
3001
0100
0000
0010
0000
1000
0000
0001
0000
,  // measure 15
0010
0000
0100
0000
2100
0000
3001
0100
0001
0000
1000
0001
2000
0000
3010
0000
,  // measure 16
0100
0000
0001
0000
2001
0000
3100
0010
0100
0000
1000
0000
0001
0000
0100
0000
,  // measure 17
0010
0000
1000
0000
1002
0000
0013
0100
1000
0001
0100
0010
1000
0001
1000
0100
,  // measure 18
0020
0000
0030
0000
0012
0000
1003
0010
1000
0000
0001
0000
0201
0000
0310
1000
,  // measure 19
0010
0000
0100
0000
0102
0000
1003
0100
1000
0000
0001
0100
0010
1000
0010
0100
,  // measure 20
0001
1000
0001
0010
0200
0000
1300
0001
1000
0000
0010
0000
0110
0000
0100
0000
,  // measure 21
0001
0000
1000
0000
0001
0010
0100
1000
0100
0010
0001
0010
0100
1000
0100
0010
,  // measure 22
0001
1000
0001
0100
0002
0000
0000
1003
0100
0000
0010
0000
0100
0000
1000
0000
,  // measure 23
0001
0000
0100
0000
0120
0000
1030
0001
1000
0000
0100
0010
0100
0000
1000
0000
,  // measure 24
0001
0000
0100
0000
0120
0000
1030
0001
1000
0000
0100
0000
0010
0000
0001
0000
,  // measure 25
1000
0000
0010
0000
0210
0000
0000
0301
1000
0000
0100
0000
0010
0100
0010
0000
,  // measure 26
0001
0000
1000
0010
2000
0000
0000
3001
0010
0000
0100
0000
1000
0000
0001
0000
,  // measure 27
0100
0000
0010
0000
2010
0000
3001
0010
0001
0000
1000
0000
0010
0000
0100
0000
,  // measure 28
0001
0000
1000
0000
1200
0000
0310
0100
0010
0000
0001
0000
1000
0000
0010
0000
,  // measure 29
0100
0000
0001
0000
2001
0000
3010
0100
0001
0100
0010
1000
0010
0100
0001
1000
,  // measure 30
0001
0010
0100
1000
0200
0000
0310
0001
0010
0000
0100
0000
1000
0001
1000
0000
,  // measure 31
0010
0000
0100
0000
0102
0000
1003
0100
1000
0000
0001
0000
0100
0010
0100
0000
,  // measure 32
0001
0000
1000
0000
1200
0000
0310
0001
0010
0000
0001
0000
1000
0010
1000
0000
,  // measure 33
0001
0000
0010
0000
0210
0000
1300
0100
1000
0000
0001
0000
0100
0010
0100
0000
,  // measure 34
0001
0000
1000
0000
1200
0000
0310
0100
0010
0000
0001
0000
1000
0010
1000
0000
,  // measure 35
0001
0000
0100
0000
0120
0000
1030
0001
1000
0000
0100
0000
0010
0001
0010
0000
,  // measure 36
0100
0000
1000
0000
1002
0000
0103
0010
0100
0000
0001
0000
1000
0100
1000
0000
,  // measure 37
0001
1000
1100
0100
0110
0010
0011
0000
,  // measure 38
0002
0000
0003
0000
2001
0000
3010
0100
0010
0000
1000
0000
1002
0000
0013
0100
,  // measure 39
0010
0000
0100
0000
2100
0000
3001
0000
0100
0000
0010
0000
2010
0000
3001
0010
,  // measure 40
0001
0000
1000
0000
1200
0000
0310
0001
0010
0000
0100
0000
2100
0000
3001
0100
,  // measure 41
0001
0000
1000
0000
1200
0000
0310
0100
0010
0000
0001
0000
1000
0001
0100
0001
,  // measure 42
2000
0000
3100
0010
0200
0000
1300
0001
1000
0000
0010
0000
0210
0000
0301
1000
,  // measure 43
0001
0000
0100
0000
0120
0000
1030
0001
1000
0000
0100
0000
0120
0000
0031
0010
,  // measure 44
0001
0000
1000
0000
1200
0000
0310
0100
0020
0000
0031
1000
0002
0000
0103
0000
,  // measure 45
0020
0000
1030
0000
2002
0000
3003
0000
0202
0000
0303
0000
0120
0000
1030
0001
,  // measure 46
0010
0001
1000
0010
0200
0000
0301
1000
0001
0000
0010
0000
0210
0000
1300
0001
,  // measure 47
1000
0000
0010
0000
0210
0000
0301
1000
0001
0000
0010
0000
0210
0000
1300
0001
,  // measure 48
1000
0000
0001
0000
0201
0000
0310
1000
0010
0000
0100
0000
0102
0000
1003
0100
,  // measure 49
1000
0000
0001
0000
0021
0000
0130
1000
0100
0000
0010
0000
0001
1000
0001
0000
,  // measure 50
0010
0100
1000
0100
0020
0000
0031
1000
0001
0000
0100
0000
0120
0000
1030
0010
,  // measure 51
1000
0000
0001
0000
0021
0000
0130
0010
0100
0000
1000
0000
1002
0000
0103
0001
,  // measure 52
0100
0000
0010
0000
2010
0000
3001
0010
0002
0000
1003
0001
2000
0000
3100
0000
,  // measure 53
0010
0000
0001
0000
2001
0000
3010
0100
0010
0000
1000
0001
0010
0100
0010
0001
,  // measure 54
1000
0001
0100
0010
0200
0000
0301
1000
0001
0000
0010
0000
0210
0000
1300
0001
,  // measure 55
1000
0000
0010
0000
0210
0000
0301
1000
0001
0000
0010
0000
0100
1000
0001
0100
,  // measure 56
0010
0100
0001
1000
0200
0000
0310
0001
0010
0000
0100
0000
2100
0000
3001
0100
,  // measure 57
0001
0000
0100
0000
0120
0000
1030
0001
1000
0000
0100
0010
0001
1000
0010
0100
,  // measure 58
0010
1000
0001
0010
0200
0000
1300
0100
1000
0000
0001
0000
0201
0000
0310
1000
,  // measure 59
0010
0000
0100
0000
0102
0000
1003
0100
1000
0000
0100
0000
0010
0001
1000
0100
,  // measure 60
0010
0100
1000
0001
0020
0000
0031
1000
0001
0000
0100
0000
0120
0000
1030
0001
,  // measure 61
1000
0000
0100
0000
0010
0001
1000
0010
1000
0001
0010
0001
1000
0100
1000
0001
,  // measure 62
0100
0001
1000
0100
2000
0000
0000
3001
0100
0000
0010
0000
0100
0000
0001
0000
,  // measure 63
1000
0000
0100
0000
0120
0000
0000
0000
0000
0000
0031
1000
0100
0000
0010
0000
,  // measure 64
0001
1000
0010
0000
0210
0000
0301
1000
0100
0000
0010
0000
0012
0000
1003
0010
,  // measure 65
0100
0000
0001
0000
2001
0000
3100
0010
0001
0000
1000
0000
0010
1000
0001
0000
,  // measure 66
0010
0000
0100
1000
0002
0000
0000
0103
0010
0000
1000
0000
0001
0000
0010
0000
,  // measure 67
0100
0000
1000
0000
1002
0000
0103
0010
1000
0000
0001
0010
0100
0000
0010
0000
,  // measure 68
0001
0000
1000
0000
1020
0000
0130
0001
1000
0000
0001
0000
0010
0000
0100
0000
,  // measure 69
1000
0000
0001
0000
0201
0000
0310
1000
0001
0010
0100
0010
0001
1000
0010
0100
,  // measure 70
0010
1000
0001
0010
0200
0000
1300
0001
0100
0000
0010
0000
2010
0000
3001
0010
,  // measure 71
0100
0000
0010
0000
0012
0000
1003
0010
0100
0000
0010
0000
1000
0001
0010
0100
,  // measure 72
1000
0100
0010
0001
2000
0000
3010
0100
0001
0000
1000
0000
1200
0000
0310
0001
,  // measure 73
1000
0000
0001
0000
0100
0010
1000
0001
0100
0001
1000
0010
0100
0001
1000
0001
,  // measure 74
0100
0001
1000
0100
0020
0000
0000
0130
1000
0000
0001
0000
0100
0000
0010
0000
,  // measure 75
1000
0000
0001
0000
0021
0000
0130
0010
0001
0000
1000
0010
0100
0000
0001
0000
,  // measure 76
1000
0000
0100
0000
0120
0000
0031
1000
0010
0000
0100
0000
0001
0000
1000
0000
,  // measure 77
0100
0000
0010
0000
0012
0000
1003
0010
0100
0000
0001
0000
1000
0100
0010
0000
,  // measure 78
0100
0000
1000
0001
0200
0000
0000
0310
1000
0000
0001
0000
0010
0000
0001
0000
,  // measure 79
1000
0000
0010
0000
0210
0000
0301
1000
0100
0000
0010
0100
1000
0000
0001
0000
,  // measure 80
0100
0000
0010
0000
2010
0000
3001
0010
0100
0000
1000
0000
0001
0000
0100
0000
,  // measure 81
0010
0000
1000
0000
0001
0010
0100
1000
0100
0010
0001
1000
0010
0100
0001
0100
,  // measure 82
0010
1000
0010
0100
0002
0000
1003
0100
0010
0000
0100
0000
1000
0001
0100
0000
,  // measure 83
0010
0000
1000
0000
1002
0000
0013
0100
1000
0000
0100
0000
0010
0001
1000
0000
,  // measure 84
0010
0000
0100
0000
0102
0000
1003
0100
0010
0000
0100
0000
1000
0001
0100
0000
,  // measure 85
0010
0000
1000
0000
1002
0000
0103
0010
1000
0000
0001
0000
0022
0000
0033
0000
,  // measure 86
0220
0000
0330
0000
2100
0000
3001
0100
0010
0000
1000
0000
0001
0010
0100
0000
,  // measure 87
0010
0000
0001
0000
2001
0000
3010
0100
0001
0000
1000
0000
0001
0010
0100
0000
,  // measure 88
1000
0000
0001
0000
0201
0000
0310
1000
0001
0000
1000
0000
0100
0010
0001
0000
,  // measure 89
1000
0010
0110
0100
0101
0001
1001
0000
,  // measure 90
1000
0000
0000
0000
1200
0000
0310
0001
1000
0000
0001
0000
0201
0000
0310
1000
,  // measure 91
0001
0000
1000
0000
1200
0000
0310
0001
1000
0000
0010
0000
0210
0000
0301
1000
,  // measure 92
0100
0000
0010
0000
0012
0000
1003
0100
0010
0000
0001
0000
2001
0000
3010
0100
,  // measure 93
0001
0000
1000
0000
1200
0000
0310
0001
1000
0000
0001
0000
0100
0010
1000
0010
,  // measure 94
0100
0000
0001
1000
0200
0000
0310
0001
1000
0000
0001
0000
0201
0000
0310
1000
,  // measure 95
0001
0000
0010
0000
0210
0000
1300
0001
0100
0000
0010
0000
2010
0000
3001
0010
,  // measure 96
0100
0000
0010
0000
0012
0000
1003
0010
0100
0000
0001
1000
0100
0000
0010
0000
,  // measure 97
0001
0000
1000
0000
2020
0000
3030
0000
0220
0000
0330
0000
0102
0000
1003
0100
,  // measure 98
0010
0001
0010
0100
2000
0000
3001
0100
0010
0000
1000
0000
1002
0000
0013
0100
,  // measure 99
1000
0000
0001
0000
0201
0000
0310
1000
0001
0000
1000
0000
1200
0000
0310
0001
,  // measure 100
1000
0000
0001
0000
0201
0000
0310
1000
0001
0000
0010
0000
0210
0000
1300
0001
,  // measure 101
0100
0000
0010
0000
2010
0000
3001
0010
0100
0000
0010
0000
0001
1000
0010
1000
,  // measure 102
0001
0010
0100
0010
0002
0000
1003
0010
0100
0000
0010
0000
2010
0000
3001
0010
,  // measure 103
0100
0000
1000
0000
1002
0000
0103
0010
1000
0000
0001
0000
0021
0000
0130
1000
,  // measure 104
0001
0000
0100
0000
0120
0000
1030
0001
0010
0000
0001
1000
0100
0000
1000
0000
,  // measure 105
0001
0000
0100
0000
0120
0000
1030
0001
0100
0000
0001
1000
0100
0000
0010
0100
,  // measure 106
1000
0100
0010
0001
2000
0000
0000
0000
3010
0000
0100
0000
0002
0000
0000
0000
,  // measure 107
2003
0000
0000
0000
3200
0000
0000
0000
0320
0000
0000
0030
0012
0000
0000
0000
,  // measure 108
2003
0000
0000
3000
1020
0000
0000
0000
0130
0000
0001
0000
2000
0000
0000
0000
,  // measure 109
3200
0000
0000
0300
0120
0000
0000
0000
0031
0000
1000
0000
0001
0000
0100
0000
,  // measure 110
0010
1000
1002
0000
0013
0100
2000
0000
,  // measure 111
3002
0000
0000
0003
0201
0000
0000
0000
0310
0000
1000
0000
0002
0000
0000
0000
,  // measure 112
2003
0000
0000
3000
1200
0000
0000
0000
0310
0000
0001
0000
2000
0000
0000
0000
,  // measure 113
3020
0000
0000
0030
0210
0000
0301
1000
0200
0000
0310
0001
1000
0001
0100
0010
,  // measure 114
1000
0010
0100
0001
2000
0000
3001
0010
0001
0000
1000
0000
1020
0000
0130
0001
,  // measure 115
0100
0000
0010
0000
2010
0000
3001
0010
0002
0000
1003
0001
1000
0000
0010
1000
,  // measure 116
0010
0000
0100
0000
0102
0000
1003
0001
1000
0000
0100
0000
0120
0000
0031
1000
,  // measure 117
0001
0000
0100
0000
0120
0000
1030
0001
1000
0000
0100
0000
0010
0000
0001
1000
,  // measure 118
0100
1000
0001
0100
0020
0000
1030
0010
1000
0000
0001
0000
0021
0000
0130
1000
,  // measure 119
0100
0000
0010
0000
0012
0000
1003
0010
1000
0000
0001
0010
0001
0000
1000
0010
,  // measure 120
1000
0000
0001
0000
0201
0000
0310
1000
0010
0000
1000
0000
1002
0000
0013
0100
,  // measure 121
0010
0000
0001
0000
1000
0010
0100
0001
0100
0010
1000
0010
0100
0001
1000
0001
,  // measure 122
0010
0100
0010
0001
2000
0000
3010
0100
0001
0000
1000
0000
0001
0010
0100
0000
,  // measure 123
1000
0000
0001
0000
0201
0000
0310
1000
0001
0000
1000
0000
0100
0010
0001
0000
,  // measure 124
1000
0000
0010
0000
0210
0000
0301
1000
0100
0000
0010
0000
0100
1000
0001
0000
,  // measure 125
1000
0000
0100
0000
0120
0000
0031
1000
0010
0000
1000
0000
2002
0000
3003
0000
,  // measure 126
0202
0000
0303
0000
0120
0000
1030
0001
0100
0000
0010
0000
1000
0001
0010
0000
,  // measure 127
0100
0000
1000
0000
1002
0000
0103
0010
1000
0000
0001
0000
0010
0100
1000
0000
,  // measure 128
0001
0000
1000
0000
1020
0000
0130
0001
1000
0000
0100
0000
0120
0000
0031
1000
,  // measure 129
0010
0100
0101
0001
1001
1000
1100
0000
,  // measure 130
0200
0000
0000
0000
0000
0000
0300
0000
0120
0000
0000
0000
0000
0000
0031
0000
2000
0000
3001
0010
0100
0000
0010
0000
0014
0000
0000
0000
0003
0000
1000
0000
,  // measure 131
0200
0000
0310
0100
0010
0000
0001
0000
4001
0000
0000
0000
3000
0000
0010
0000
0200
0000
0301
1000
0001
0000
0010
0000
0210
0000
0000
0000
2300
0000
0000
0000
,  // measure 132
3002
0000
0000
0000
2003
0000
0000
3000
1040
0000
0000
0000
0030
0000
0100
0000
0002
0000
1003
0100
0010
0000
0001
0000
4001
0000
0000
0000
3000
0000
0010
0000
,  // measure 133
0200
0000
0301
1000
0100
0000
0010
0000
0012
0000
1003
0100
0020
0000
0130
0000
1000
0000
0001
0000
0100
0000
0010
0000
2020
0000
3030
0000
2002
0000
3003
0000
,  // measure 134
0021
0000
0130
1000
0001
0100
0001
1000
0200
0000
0310
0100
1000
0000
0001
0000
,  // measure 135
0201
0000
0310
1000
0001
0000
0010
0000
0210
0000
1300
0001
0100
0000
0010
0000
,  // measure 136
2010
0000
3001
0100
0010
0000
1000
0000
1002
0000
0013
0100
1000
0000
0100
0000
,  // measure 137
0120
0000
0031
1000
0010
0000
0100
0000
0102
0000
1003
0100
0010
0000
0100
0000
,  // measure 138
1000
0001
0100
0001
2000
0000
3100
0010
0002
0000
1003
0010
0100
0000
0001
0000
,  // measure 139
2001
0000
3100
0010
0001
0000
1000
0000
1020
0000
0130
0001
1000
0000
0001
0000
,  // measure 140
0021
0000
0130
0010
0001
0000
1000
0000
1020
0000
0130
0001
1000
0000
0001
0010
,  // measure 141
0100
0010
0001
1000
2020
3030
0220
0330
,  // measure 142
0102
0000
1003
0010
0100
0010
1000
0001
0020
0000
0130
0010
0001
0000
1000
0000
,  // measure 143
1020
0000
0130
0001
1000
0000
0001
0000
0021
0000
0130
1000
0001
0000
0100
0000
,  // measure 144
0120
0000
1030
0010
0100
0000
0001
0000
2001
0000
3100
0010
0001
0000
1000
0000
,  // measure 145
1200
0000
0310
0100
1000
0000
0001
0000
0201
0000
0310
1000
0001
0000
1000
0000
,  // measure 146
0100
0010
0001
0010
0100
1000
0100
0010
0002
0000
1003
0010
0100
0000
0001
0000
,  // measure 147
2001
0000
3100
0010
0001
0000
0010
0000
0210
0000
1300
0001
0100
0000
0010
0000
,  // measure 148
2010
0000
3001
0100
0010
0000
1000
0000
1002
0000
0013
0100
1000
0000
0001
0100
,  // measure 149
0010
0000
1000
0000
0001
0000
0010
0000
0210
0000
1300
0001
0100
0000
0001
1000
,  // measure 150
0100
0010
0100
1000
0001
0100
0010
0100
0002
0000
1003
0100
0010
0000
0100
0000
,  // measure 151
2100
0000
3001
0100
0010
0000
1000
0000
1002
0000
0013
0100
1000
0000
0001
0000
,  // measure 152
0100
0010
1000
0001
0010
0100
0010
0001
2000
0000
3001
0100
0010
0000
1000
0000
,  // measure 153
1002
0000
0013
0100
1000
0000
0001
0000
0201
0000
0310
1000
0001
0000
1000
0010
,  // measure 154
0100
0001
0100
0010
1000
0001
0010
0100
0020
0000
0031
1000
0010
0000
0100
0000
,  // measure 155
0102
0000
1003
0100
0010
0000
0001
0000
2001
0000
3010
0100
0001
0000
0100
0000
,  // measure 156
0010
1000
0001
0010
0001
1000
0010
1000
0002
0000
0013
0100
1000
0000
0001
0000
,  // measure 157
0201
0000
0310
1000
0001
0000
1000
0000
0100
0010
0001
1000
0010
1000
0001
0010
,  // measure 158
0001
1000
0010
1000
0001
0010
0001
2000
0020
0000
0000
0000
0000
0000
0000
0000
,  // measure 159
0000
0000
3030
0000
;

//---------------dance-single - Ace Of Arrows (2019)----------------
#NOTES:
     dance-single:
     Ace Of Arrows (2019):
     Medium:
     8:
     0.610,0.401,0.000,0.720,0.111: // measure 1
0000
0000
0000
0000
,  // measure 2
0000
0000
1000
0100
0010
0001
0010
0100
,  // measure 3
1000
0001
0100
0010
1000
0001
0040
0000
,  // measure 4
0000
0000
0130
1000
0001
0100
0010
1000
,  // measure 5
0010
0100
0001
1000
0100
0010
0400
0000
,  // measure 6
0000
0000
1300
0001
0010
0001
1000
0010
,  // measure 7
0100
0010
1000
0001
0010
0100
4000
0000
,  // measure 8
0000
0000
3001
0100
0010
1000
0010
0100
,  // measure 9
0001
1000
0004
0000
0000
0000
0043
0000
,  // measure 10
0000
0000
0000
0000
0230
0000
0000
1300
0001
0000
0100
0000
0001
0000
1000
0000
,  // measure 11
0100
0010
0400
0000
0300
1000
0001
0100
,  // measure 12
0010
0100
0004
0000
0003
1000
0100
0010
,  // measure 13
0001
0010
0200
0000
2300
0000
3004
0000
,  // measure 14
0003
0000
0000
0000
2000
0000
0000
3010
0100
0000
0001
0000
1000
0000
0100
0000
,  // measure 15
0010
0100
4000
0000
3000
0001
0010
0100
,  // measure 16
0010
0001
0040
0000
0030
0100
1000
0001
,  // measure 17
1000
0010
0200
0000
0302
0000
2003
0000
,  // measure 18
3200
0000
0310
0001
1000
0001
0100
0010
,  // measure 19
1000
0001
0010
0100
1000
0001
0400
0000
,  // measure 20
0000
0000
0310
1000
0001
1000
0100
0010
,  // measure 21
0001
1000
0040
0000
0000
0000
0430
0000
,  // measure 22
0000
0000
0000
0000
0302
0000
0000
1003
0100
0000
0010
0000
0100
0000
1000
0000
,  // measure 23
0001
0100
0040
0000
0030
1000
0001
0010
,  // measure 24
0100
0010
0004
0000
0003
1000
0010
0100
,  // measure 25
0001
1000
0002
0000
0023
0000
0430
0000
,  // measure 26
0300
0000
0000
0000
2000
0000
0000
3001
0010
0000
0100
0000
0010
0000
0001
0000
,  // measure 27
1000
0010
0400
0000
0300
0001
1000
0100
,  // measure 28
0010
0100
4000
0000
3000
0001
0100
0010
,  // measure 29
1000
0010
0200
0000
0302
0000
4003
0000
,  // measure 30
3000
0000
0200
0000
0310
0001
2000
0000
,  // measure 31
3001
0100
0040
0000
0030
1000
0001
0010
,  // measure 32
0100
0010
0002
0000
1003
0010
0200
0000
,  // measure 33
0301
1000
0002
0000
0023
0000
0430
0000
,  // measure 34
0300
0000
2000
0000
3001
0100
0020
0000
,  // measure 35
0130
0001
4000
0000
3000
0001
0010
0100
,  // measure 36
1000
0100
0020
0000
0032
0000
2003
0000
,  // measure 37
3020
0000
0130
0001
1000
0001
0020
0000
,  // measure 38
0230
0000
0000
0000
4300
0000
0000
0000
3000
0000
0001
0000
0200
0000
0000
0310
,  // measure 39
1000
0000
0001
0000
0040
0000
0000
0000
0030
0000
0100
0000
2000
0000
0000
3001
,  // measure 40
0100
0000
0010
0000
0400
0000
0000
0000
0300
0000
0001
0000
2000
0000
0000
3100
,  // measure 41
0010
0001
2000
0000
3020
0000
0230
0000
,  // measure 42
0302
0000
0000
0000
0403
0000
0000
0000
0300
0000
0010
0000
2000
0000
0000
3001
,  // measure 43
0010
0000
0100
0000
4000
0000
0000
0000
3000
0000
0001
0000
0200
0000
0000
0310
,  // measure 44
1000
0001
0010
0100
0010
0001
1000
0001
,  // measure 45
0100
0010
2000
0000
3002
0000
0043
0000
,  // measure 46
0030
0000
0100
0000
4000
0000
0000
0000
3000
0000
0001
0000
0200
0000
0000
0310
,  // measure 47
1000
0000
0001
0000
0040
0000
0000
0000
0030
0000
0001
0000
2000
0000
0000
3010
,  // measure 48
0100
0000
0001
0000
4000
0000
0000
0000
3000
0000
0100
0000
0020
0000
0000
0031
,  // measure 49
1000
0010
0200
0000
0302
0000
2003
0000
,  // measure 50
3200
0000
0000
0000
0340
0000
0000
0000
0030
0000
0001
0000
2000
0000
0000
3001
,  // measure 51
0100
0000
0010
0000
0400
0000
0000
0000
0300
0000
0001
0000
2000
0000
0000
3100
,  // measure 52
0010
0001
1000
0010
0100
0010
1000
0001
,  // measure 53
0010
0100
2000
0000
3002
0000
0203
0000
,  // measure 54
0320
0000
1030
0001
0010
0100
0010
0001
,  // measure 55
1000
0010
0100
0001
1000
0100
0040
0000
,  // measure 56
0000
0000
0130
1000
0001
0100
0010
0100
,  // measure 57
0001
1000
0001
0010
0100
1000
0004
0000
,  // measure 58
0000
0000
0103
0010
1000
0010
0100
0001
,  // measure 59
1000
0001
0010
0100
1000
0001
0400
0000
,  // measure 60
0000
0000
0310
1000
0001
1000
0100
0010
,  // measure 61
0100
1000
0004
0000
0000
0000
0403
0000
,  // measure 62
0000
0000
0000
0000
0320
0000
0000
1030
0001
0000
0010
0000
0100
0000
0010
0000
,  // measure 63
0001
1000
0004
0000
0003
1000
0010
0100
,  // measure 64
0001
1000
0400
0000
0300
0010
0100
1000
,  // measure 65
0001
0100
0020
0000
2030
0000
3004
0000
,  // measure 66
0003
0000
0000
0000
0020
0000
0000
0130
1000
0000
0001
0000
0100
0000
0001
0000
,  // measure 67
1000
0100
0040
0000
0030
0001
1000
0010
,  // measure 68
1000
0001
0400
0000
0300
0010
1000
0001
,  // measure 69
0010
0100
2000
0000
3002
0000
0403
0000
,  // measure 70
0320
0000
1030
0010
0100
0001
1000
0001
,  // measure 71
0010
0100
1000
0001
0100
0010
4000
0000
,  // measure 72
0000
0000
3001
0010
0100
1000
0100
0010
,  // measure 73
0001
1000
0004
0000
0000
0000
0043
0000
,  // measure 74
0000
0000
0000
0000
0230
0000
0000
1300
0001
0000
0100
0000
0001
0000
1000
0000
,  // measure 75
0100
0010
0004
0000
0003
1000
0010
0100
,  // measure 76
0001
1000
0400
0000
0300
0010
0001
1000
,  // measure 77
0001
0100
0020
0000
0230
0000
0304
0000
,  // measure 78
0003
0000
0000
0000
2000
0000
0000
3100
0010
0000
0100
0000
1000
0000
0001
0000
,  // measure 79
0100
0010
0400
0000
0300
0001
1000
0100
,  // measure 80
0010
0100
4000
0000
3000
0001
0100
0010
,  // measure 81
1000
0001
0020
0000
0230
0000
4300
0000
,  // measure 82
3000
0000
0002
0000
1003
0010
0200
0000
,  // measure 83
0301
1000
0040
0000
0030
1000
0001
0010
,  // measure 84
0100
0010
0002
0000
1003
0010
0200
0000
,  // measure 85
0310
1000
0002
0000
0023
0000
0230
0000
,  // measure 86
2300
0000
3002
0000
0103
0010
2000
0000
,  // measure 87
3001
0010
0400
0000
0300
0010
0001
1000
,  // measure 88
0001
0100
0020
0000
4030
0000
3002
0000
,  // measure 89
0023
0000
0130
0010
0001
1000
0002
0000
,  // measure 90
0203
0000
0000
0000
0340
0000
0000
0000
0030
0000
1000
0000
0002
0000
0000
0013
,  // measure 91
0100
0000
1000
0000
0004
0000
0000
0000
0003
0000
0100
0000
0020
0000
0000
1030
,  // measure 92
0001
0000
1000
0000
0400
0000
0000
0000
0300
0000
0010
0000
0200
0000
0000
1300
,  // measure 93
0001
0100
0020
0000
2030
0000
3002
0000
,  // measure 94
0023
0000
0000
0000
0034
0000
0000
0000
0003
0000
1000
0000
0020
0000
0000
0130
,  // measure 95
0001
0000
1000
0000
0040
0000
0000
0000
0030
0000
1000
0000
0002
0000
0000
0013
,  // measure 96
0100
1000
0100
0010
0100
1000
0001
0100
,  // measure 97
0010
0100
0002
0000
2003
0000
3400
0000
,  // measure 98
0300
0000
0010
0000
0004
0000
0000
0000
0003
0000
1000
0000
0020
0000
0000
0130
,  // measure 99
0001
0000
1000
0000
0400
0000
0000
0000
0300
0000
0010
0000
0200
0000
0000
1300
,  // measure 100
0001
0000
0100
0000
0004
0000
0000
0000
0003
0000
1000
0000
0200
0000
0000
0310
,  // measure 101
0001
1000
0020
0000
0230
0000
0302
0000
,  // measure 102
2003
0000
0000
0000
3400
0000
0000
0000
0300
0000
0010
0000
0200
0000
0000
0310
,  // measure 103
0001
0000
1000
0000
0040
0000
0000
0000
0030
0000
0100
0000
0002
0000
0000
1003
,  // measure 104
0100
0010
0001
1000
0010
0100
0010
1000
,  // measure 105
0001
0010
0200
0000
2300
0000
3002
0000
,  // measure 106
0203
0320
2030
3002
,  // measure 107
0023
0230
2300
3002
,  // measure 108
0203
0000
0320
0000
1030
0001
2000
0000
,  // measure 109
3200
0000
0320
0000
0130
1000
0001
0100
,  // measure 110
0001
1000
0200
0000
0310
0100
0020
0000
,  // measure 111
0032
0000
2003
0000
3010
0100
0020
0000
,  // measure 112
2030
0000
3002
0000
1003
0100
2000
0000
,  // measure 113
3002
0000
0013
0400
0000
0000
0000
0000
,  // measure 114
0000
0000
1300
0001
0100
0001
2000
0000
,  // measure 115
3001
0010
0100
0010
0002
0000
0003
1000
,  // measure 116
0010
0100
0020
0000
1030
0001
0200
0000
,  // measure 117
0301
1000
0002
0000
0023
0000
0430
0000
,  // measure 118
0300
0000
1000
0001
0010
0001
2000
0000
,  // measure 119
3001
0100
0001
1000
0200
0000
0300
0010
,  // measure 120
0001
1000
0020
0000
0130
0001
2000
0000
,  // measure 121
3100
0010
0002
0000
2003
0000
3400
0000
,  // measure 122
0300
0000
0020
0000
0130
1000
0002
0000
,  // measure 123
1003
0001
4000
0000
3000
0100
0010
0001
,  // measure 124
0010
0100
2000
0000
3002
0000
0203
0000
,  // measure 125
0310
1000
0002
0000
0023
0000
0430
0000
,  // measure 126
2300
0000
3002
0000
0103
0010
2000
0000
,  // measure 127
3002
0000
0043
0000
0030
0100
1000
0001
,  // measure 128
0100
0010
0200
0000
0302
0000
2003
0000
,  // measure 129
3200
0000
0310
0001
1000
0001
0200
0000
,  // measure 130
0320
0000
0000
0000
4030
0000
3000
0001
0010
0100
1000
0100
0040
0000
0030
0001
,  // measure 131
1000
0100
1000
0001
0400
0000
0300
0010
0100
0010
1000
0001
0020
0000
0230
0000
,  // measure 132
2300
0000
3002
0000
0043
0000
0030
0001
1000
0010
1000
0001
0400
0000
0300
0010
,  // measure 133
0100
0001
1000
0100
0010
0001
0010
0100
1000
0100
0010
0001
2000
0000
3200
0000
,  // measure 134
0340
0000
0030
0001
4000
0000
3000
0010
,  // measure 135
0200
0000
0000
0301
1000
0000
0100
0000
4000
0000
0000
0000
3000
0000
0001
0000
,  // measure 136
0200
0000
0000
0310
1000
0000
0001
0000
0040
0000
0000
0000
0030
0000
0100
0000
,  // measure 137
2000
0000
0000
3001
0100
0000
0010
0000
0200
0000
0000
0000
0302
0000
0000
0000
,  // measure 138
2003
0000
3002
0000
0403
0000
0300
0010
,  // measure 139
2000
0000
0000
3001
0010
0000
0100
0000
0040
0000
0000
0000
0030
0000
0001
0000
,  // measure 140
2000
0000
0000
3001
0010
0000
0100
0000
1000
0000
0001
0000
0100
0000
0010
0000
,  // measure 141
1000
0010
0100
0001
2000
0000
3200
0000
,  // measure 142
0340
0000
0030
0001
4000
0000
3000
0010
,  // measure 143
0200
0000
0000
0301
1000
0000
0100
0000
0040
0000
0000
0000
0030
0000
0100
0000
,  // measure 144
2000
0000
0000
3001
0100
0000
0010
0000
0400
0000
0000
0000
0300
0000
0001
0000
,  // measure 145
2000
0000
0000
3100
0010
0000
0001
0000
0020
0000
0000
0000
0230
0000
0000
0000
,  // measure 146
2300
0000
3002
0000
4003
0000
3000
0010
,  // measure 147
0200
0000
0000
0301
1000
0000
0100
0000
0040
0000
0000
0000
0030
0000
0100
0000
,  // measure 148
2000
0000
0000
3001
0100
0000
0010
0000
0100
0000
0001
0000
1000
0000
0100
0000
,  // measure 149
0010
0001
0010
0100
2000
0000
3002
0000
,  // measure 150
0203
0000
0320
0000
1030
0001
0010
0001
,  // measure 151
1000
0010
0100
0010
1000
0001
0010
0100
,  // measure 152
4000
0000
0000
0000
3001
0100
0010
1000
,  // measure 153
0010
0100
0001
1000
0001
0010
0100
1000
,  // measure 154
0004
0000
0000
0000
0103
0010
1000
0001
,  // measure 155
0010
0100
0010
0001
1000
0010
0100
0001
,  // measure 156
0400
0000
0000
0000
0310
1000
0001
0010
,  // measure 157
0100
1000
0100
0010
0400
0000
0000
0000
,  // measure 158
4300
0000
3002
0000
,  // measure 159
0000
0000
0003
0000
;

//---------------dance-single - Ace Of Arrows (2019)----------------
#NOTES:
     dance-single:
     Ace Of Arrows (2019):
     Easy:
     6:
     0.454,0.308,0.000,0.560,0.000: // measure 1
0000
0000
0000
0000
,  // measure 2
0000
0000
0001
0010
0001
0000
1000
0001
,  // measure 3
1000
0000
0001
0100
0001
0000
4000
0000
,  // measure 4
3000
0000
0001
0010
0001
0000
1000
0001
,  // measure 5
1000
0000
0010
0100
0010
0000
0400
0000
,  // measure 6
0300
0000
0001
0100
0001
0000
1000
0100
,  // measure 7
1000
0000
0001
0010
0001
0000
0040
0000
,  // measure 8
0030
0000
0100
1000
0100
0000
1000
0001
,  // measure 9
1000
0004
0000
0000
,  // measure 10
0003
0000
2000
0000
3010
0000
1000
0001
,  // measure 11
1000
0000
0400
0000
0300
0000
1000
0001
,  // measure 12
1000
0000
0040
0000
0030
0000
0100
0010
,  // measure 13
0100
0002
2003
3400
,  // measure 14
0300
0000
0020
0000
0031
0000
1000
0010
,  // measure 15
1000
0000
0004
0000
0003
0000
0100
0010
,  // measure 16
0100
0000
0040
0000
0030
0000
1000
0001
,  // measure 17
1000
0002
0023
0230
,  // measure 18
2300
0000
3001
0010
0001
0000
1000
0001
,  // measure 19
1000
0000
0010
0100
0010
0000
4000
0000
,  // measure 20
3000
0000
0001
1000
0001
0000
0010
0100
,  // measure 21
0010
0004
0000
0000
,  // measure 22
0003
0000
2000
0000
3010
0000
0100
0010
,  // measure 23
0100
0000
0004
0000
0003
0000
1000
0001
,  // measure 24
1000
0000
0400
0000
0300
0000
0010
0100
,  // measure 25
0010
0002
2003
3040
,  // measure 26
0030
0000
0200
0000
0301
0000
1000
0001
,  // measure 27
1000
0000
0040
0000
0030
0000
1000
0010
,  // measure 28
1000
0000
0004
0000
0003
0000
0010
0100
,  // measure 29
0010
0002
2003
3040
,  // measure 30
0030
0000
2000
0000
3001
0010
0002
0000
,  // measure 31
1003
0001
4000
0000
3000
0000
0010
0100
,  // measure 32
0010
0000
2000
0000
3001
0010
0002
0000
,  // measure 33
1003
0100
2000
0000
3002
0000
0403
0000
,  // measure 34
0300
0000
0020
0000
1030
0001
2000
0000
,  // measure 35
3001
0010
0004
0000
0003
0000
0010
0100
,  // measure 36
0010
0002
2003
3020
,  // measure 37
0230
0302
0000
0003
,  // measure 38
2000
0000
3400
0000
0300
0000
0010
0001
,  // measure 39
0010
0000
0004
0000
0003
0000
1000
0001
,  // measure 40
1000
0000
0040
0000
0030
0000
0100
0010
,  // measure 41
0100
0002
2003
3002
,  // measure 42
0023
0000
0430
0000
0300
0000
1000
0100
,  // measure 43
1000
0000
0004
0000
0003
0000
1000
0001
,  // measure 44
1000
0000
0010
0100
0010
0000
1000
0001
,  // measure 45
1000
0002
0203
0340
,  // measure 46
0030
0000
4000
0000
3000
0000
0001
0010
,  // measure 47
0001
0000
0040
0000
0030
0000
0100
1000
,  // measure 48
0100
0000
4000
0000
3000
0000
0001
0100
,  // measure 49
0001
2000
3200
0320
,  // measure 50
0032
0000
4003
0000
3000
0000
0010
0100
,  // measure 51
0010
0000
0400
0000
0300
0000
0001
1000
,  // measure 52
0001
0000
1000
0100
1000
0000
0001
0010
,  // measure 53
0001
2000
3020
0230
,  // measure 54
0302
0000
1003
0100
1000
0000
0001
1000
,  // measure 55
0001
0000
0100
0001
0100
0000
0040
0000
,  // measure 56
0030
0000
1000
0010
1000
0000
0001
0010
,  // measure 57
0001
0000
1000
0100
1000
0000
0004
0000
,  // measure 58
0003
0000
0010
0100
0010
0000
0001
0010
,  // measure 59
0001
0000
1000
0010
1000
0000
0040
0000
,  // measure 60
0030
0000
0100
0001
0100
0000
0001
1000
,  // measure 61
0001
4000
0000
0000
,  // measure 62
3000
0000
0020
0000
1030
0000
0001
0010
,  // measure 63
0001
0000
4000
0000
3000
0000
0001
1000
,  // measure 64
0001
0000
0400
0000
0300
0000
0010
0100
,  // measure 65
0010
2000
3002
0043
,  // measure 66
0030
0000
0200
0000
1300
0000
0001
0100
,  // measure 67
0001
0000
0400
0000
0300
0000
0010
1000
,  // measure 68
0010
0000
4000
0000
3000
0000
0001
0010
,  // measure 69
0001
2000
3200
0340
,  // measure 70
0032
0000
1003
0010
1000
0000
0001
1000
,  // measure 71
0001
0000
0100
0010
0100
0000
0004
0000
,  // measure 72
0003
0000
1000
0010
1000
0000
0001
1000
,  // measure 73
0001
0040
0000
0000
,  // measure 74
0030
0000
0200
0000
1300
0000
0001
0100
,  // measure 75
0001
0000
4000
0000
3000
0000
0001
0010
,  // measure 76
0001
0000
0040
0000
0030
0000
0001
1000
,  // measure 77
0001
0200
0320
4030
,  // measure 78
3000
0000
0002
0000
0013
0000
0001
1000
,  // measure 79
0001
0000
0400
0000
0300
0000
0010
1000
,  // measure 80
0010
0000
4000
0000
3000
0000
0001
0010
,  // measure 81
0001
2000
3020
0430
,  // measure 82
0300
0000
0002
0000
1003
0001
2000
0000
,  // measure 83
3100
0010
0400
0000
0300
0000
1000
0001
,  // measure 84
1000
0000
0010
0000
0100
0001
0200
0000
,  // measure 85
0310
1000
0020
0000
0230
0000
0304
0000
,  // measure 86
0003
0000
2000
0000
3001
0010
0002
0000
,  // measure 87
1003
0001
4000
0000
3000
0000
0010
0100
,  // measure 88
0010
2000
3002
0023
,  // measure 89
0230
2300
0000
3000
,  // measure 90
0002
0000
0403
0000
0300
0000
0010
0100
,  // measure 91
0010
0000
4000
0000
3000
0000
0001
0010
,  // measure 92
0001
0000
0040
0000
0030
0000
0001
1000
,  // measure 93
0001
0200
0320
2030
,  // measure 94
3002
0000
0403
0000
0300
0000
0010
0100
,  // measure 95
0010
0000
4000
0000
3000
0000
0001
0010
,  // measure 96
0001
0000
0010
0100
0010
0000
0001
0010
,  // measure 97
0001
2000
3020
0430
,  // measure 98
0300
0000
0004
0000
0003
0000
1000
0001
,  // measure 99
1000
0000
0400
0000
0300
0000
0010
0001
,  // measure 100
0010
0000
0004
0000
0003
0000
1000
0001
,  // measure 101
1000
0020
0230
0302
,  // measure 102
2003
0000
3004
0000
0003
0000
0010
0100
,  // measure 103
0010
0000
0400
0000
0300
0000
1000
0100
,  // measure 104
1000
0000
0001
1000
0001
0000
0100
0010
,  // measure 105
0100
0002
2003
3200
,  // measure 106
0320
0032
1003
0010
,  // measure 107
1000
0001
1000
0001
,  // measure 108
0010
0000
0200
0000
1300
0001
1000
0000
,  // measure 109
0002
0000
2003
0000
3010
0100
0020
0000
,  // measure 110
1030
0001
2000
0000
3001
0010
0002
0000
,  // measure 111
0023
0000
0230
0000
1300
0001
2000
0000
,  // measure 112
3020
0000
0230
0000
0301
0100
0002
0000
,  // measure 113
2003
3400
0000
0000
,  // measure 114
0300
0000
0010
0000
0001
1000
0002
0000
,  // measure 115
0103
0000
0010
0100
0020
0000
0030
0000
,  // measure 116
1000
0000
0002
0000
0013
0100
0020
0000
,  // measure 117
0031
0010
0002
0000
2003
0000
3400
0000
,  // measure 118
0300
0000
2000
0000
3001
0100
0002
0000
,  // measure 119
1003
0000
0100
0010
0200
0000
0300
0000
,  // measure 120
1000
0001
2000
0000
3001
0100
0002
0000
,  // measure 121
1003
0010
2000
0000
3002
0000
0043
0000
,  // measure 122
0030
0000
0002
0000
1003
0100
2000
0000
,  // measure 123
3001
1000
0004
0000
0003
0000
1000
0010
,  // measure 124
1000
0002
0023
0230
,  // measure 125
1300
0001
2000
0000
3020
0000
0430
0000
,  // measure 126
0300
0000
0002
0000
1003
0001
2000
0000
,  // measure 127
3002
0043
0030
0200
,  // measure 128
1300
0001
2000
0000
3002
0000
0203
0000
,  // measure 129
0320
2030
0000
3000
,  // measure 130
0020
0000
4030
3000
0001
0001
0004
0003
,  // measure 131
1000
1000
4000
3000
0010
0010
0020
0000
,  // measure 132
0030
0000
0400
0300
0001
0001
0004
0003
,  // measure 133
2000
3000
0010
0010
0020
0030
0100
0100
,  // measure 134
0400
0300
0004
0003
,  // measure 135
1000
0100
1000
0000
0400
0000
0300
0000
,  // measure 136
0010
0001
0010
0000
0004
0000
0003
0000
,  // measure 137
1000
0010
1000
0000
0002
0000
0023
0000
,  // measure 138
0032
2003
3040
0030
,  // measure 139
0100
0010
0100
0000
0004
0000
0003
0000
,  // measure 140
1000
0001
1000
0000
0001
0010
0001
0000
,  // measure 141
1000
0001
1000
0000
0020
0000
0230
0000
,  // measure 142
0304
0003
4000
3000
,  // measure 143
0001
0010
0001
0000
0040
0000
0030
0000
,  // measure 144
0100
1000
0100
0000
4000
0000
3000
0000
,  // measure 145
0001
1000
0001
0000
0200
0000
0320
0000
,  // measure 146
2030
3002
0403
0300
,  // measure 147
0001
1000
0001
0000
0040
0000
0030
0000
,  // measure 148
0100
1000
0100
0000
1000
0001
1000
0000
,  // measure 149
0010
1000
0010
0000
0200
0000
0302
0000
,  // measure 150
2003
0000
3002
0000
0013
0100
0010
0000
,  // measure 151
0001
1000
0001
0000
0100
0010
0100
0000
,  // measure 152
0004
0000
0003
0000
1000
0100
1000
0000
,  // measure 153
0001
1000
0001
0000
0100
0010
0100
0000
,  // measure 154
0040
0000
0030
0000
1000
0001
1000
0000
,  // measure 155
0001
0010
0001
0000
1000
0100
1000
0000
,  // measure 156
0004
0000
0003
0000
0010
0100
0010
0000
,  // measure 157
0001
0010
0001
0000
4000
0000
0000
0000
,  // measure 158
0000
3000
0020
0000
,  // measure 159
0000
0000
0030
0000
;

//---------------dance-single - Ace Of Arrows (2019)----------------
#NOTES:
     dance-single:
     Ace Of Arrows (2019):
     Beginner:
     3:
     0.168,0.123,0.000,0.319,0.000: // measure 1
0000
0000
0000
0000
,  // measure 2
0000
1000
0000
1000
,  // measure 3
0000
2000
0000
3000
,  // measure 4
0000
0010
0000
0010
,  // measure 5
0000
0020
0000
0030
,  // measure 6
0000
0100
0000
0100
,  // measure 7
0000
0200
0000
0300
,  // measure 8
0000
0001
0000
0001
,  // measure 9
0000
0004
0000
0003
,  // measure 10
0000
1000
0000
2000
,  // measure 11
0000
3000
0000
0020
,  // measure 12
0000
0030
0000
0100
,  // measure 13
0000
0200
0000
0300
,  // measure 14
0000
0001
0000
0002
,  // measure 15
0000
0003
0000
2000
,  // measure 16
0000
3000
0000
0100
,  // measure 17
0000
0200
0000
0300
,  // measure 18
0000
0010
0000
0010
,  // measure 19
0000
0020
0000
0030
,  // measure 20
0000
0001
0000
0001
,  // measure 21
0000
0004
0000
0003
,  // measure 22
0000
1000
0000
2000
,  // measure 23
0000
3000
0000
0002
,  // measure 24
0000
0003
0000
0100
,  // measure 25
0000
0200
0000
0300
,  // measure 26
0000
0010
0000
0020
,  // measure 27
0000
0030
0000
2000
,  // measure 28
0000
3000
0000
0001
,  // measure 29
0000
0002
0000
0003
,  // measure 30
0000
0010
0000
0010
,  // measure 31
0000
0040
0000
0030
,  // measure 32
0000
0100
0000
0100
,  // measure 33
0000
0200
0000
0300
,  // measure 34
0000
1000
0000
1000
,  // measure 35
0000
4000
0000
3000
,  // measure 36
0000
0010
0000
0010
,  // measure 37
0000
0020
0000
0030
,  // measure 38
0000
0100
0000
0200
,  // measure 39
0000
0300
0000
0002
,  // measure 40
0000
0003
0000
1000
,  // measure 41
0000
2000
0000
3000
,  // measure 42
0000
0100
0000
0200
,  // measure 43
0000
0300
0000
0010
,  // measure 44
0000
0040
0000
0030
,  // measure 45
0000
0002
0000
0003
,  // measure 46
0000
1000
0000
2000
,  // measure 47
0000
3000
0000
0020
,  // measure 48
0000
0030
0000
0100
,  // measure 49
0000
0200
0000
0300
,  // measure 50
0000
0001
0000
0002
,  // measure 51
0000
0003
0000
1000
,  // measure 52
0000
4000
0000
3000
,  // measure 53
0000
0200
0000
0300
,  // measure 54
0000
0010
0000
0010
,  // measure 55
0000
0020
0000
0030
,  // measure 56
0000
0001
0000
0001
,  // measure 57
0000
0002
0000
0003
,  // measure 58
0000
1000
0000
1000
,  // measure 59
0000
2000
0000
3000
,  // measure 60
0000
0010
0000
0010
,  // measure 61
0000
0040
0000
0030
,  // measure 62
0000
0100
0000
0200
,  // measure 63
0000
0300
0000
0002
,  // measure 64
0000
0003
0000
1000
,  // measure 65
0000
2000
0000
3000
,  // measure 66
0000
0001
0000
0002
,  // measure 67
0000
0003
0000
0020
,  // measure 68
0000
0030
0000
0100
,  // measure 69
0000
0200
0000
0300
,  // measure 70
0000
1000
0000
1000
,  // measure 71
0000
2000
0000
3000
,  // measure 72
0000
0001
0000
0001
,  // measure 73
0000
0004
0000
0003
,  // measure 74
0000
0100
0000
0200
,  // measure 75
0000
0300
0000
0020
,  // measure 76
0000
0030
0000
1000
,  // measure 77
0000
2000
0000
3000
,  // measure 78
0000
0001
0000
0002
,  // measure 79
0000
0003
0000
0020
,  // measure 80
0000
0030
0000
0100
,  // measure 81
0000
0200
0000
0300
,  // measure 82
0000
1000
0000
1000
,  // measure 83
0000
4000
0000
3000
,  // measure 84
0000
0001
0000
0001
,  // measure 85
0000
0002
0000
0003
,  // measure 86
0000
0100
0000
0100
,  // measure 87
0000
0400
0000
0300
,  // measure 88
0000
0010
0000
0010
,  // measure 89
0000
0020
0000
0030
,  // measure 90
0000
1000
0000
2000
,  // measure 91
0000
3000
0000
0002
,  // measure 92
0000
0003
0000
0010
,  // measure 93
0000
0020
0000
0030
,  // measure 94
0000
0100
0000
0200
,  // measure 95
0000
0300
0000
1000
,  // measure 96
0000
4000
0000
3000
,  // measure 97
0000
0002
0000
0003
,  // measure 98
0000
0100
0000
0200
,  // measure 99
0000
0300
0000
0020
,  // measure 100
0000
0030
0000
1000
,  // measure 101
0000
2000
0000
3000
,  // measure 102
0000
0001
0000
0001
,  // measure 103
0000
0004
0000
0003
,  // measure 104
0000
0010
0000
0010
,  // measure 105
0000
0020
0000
0030
,  // measure 106
0000
0100
0000
0100
,  // measure 107
0000
0200
0000
0300
,  // measure 108
0000
1000
0000
1000
,  // measure 109
0000
2000
0000
3000
,  // measure 110
0000
0001
0000
0001
,  // measure 111
0000
0002
0000
0003
,  // measure 112
0000
0100
0000
0100
,  // measure 113
0000
0400
0000
0300
,  // measure 114
0000
0010
0000
0010
,  // measure 115
0000
0020
0000
0030
,  // measure 116
0000
1000
0000
1000
,  // measure 117
0000
2000
0000
3000
,  // measure 118
0000
0001
0000
0001
,  // measure 119
0000
0002
0000
0003
,  // measure 120
0000
0010
0000
0010
,  // measure 121
0000
0040
0000
0030
,  // measure 122
0000
0100
0000
0100
,  // measure 123
0000
0400
0000
0300
,  // measure 124
0000
1000
0000
1000
,  // measure 125
0000
2000
0000
3000
,  // measure 126
0000
0001
0000
0001
,  // measure 127
0000
0004
0000
0003
,  // measure 128
0000
0100
0000
0100
,  // measure 129
0000
0200
0000
0300
,  // measure 130
0000
0010
0020
0030
,  // measure 131
2000
3000
0001
0002
,  // measure 132
0003
0010
0020
0030
,  // measure 133
0100
0400
0300
2000
,  // measure 134
3000
0000
0001
0000
,  // measure 135
0002
0000
0003
0000
,  // measure 136
0200
0000
0300
0000
,  // measure 137
0010
0000
0020
0000
,  // measure 138
0030
0000
1000
0000
,  // measure 139
2000
0000
3000
0000
,  // measure 140
0001
0000
0004
0000
,  // measure 141
0003
0000
0020
0000
,  // measure 142
0030
0000
0100
0000
,  // measure 143
0200
0000
0300
0000
,  // measure 144
2000
0000
3000
0000
,  // measure 145
0001
0000
0002
0000
,  // measure 146
0003
0000
0100
0000
,  // measure 147
0200
0000
0300
0000
,  // measure 148
0010
0000
0040
0000
,  // measure 149
0030
0000
2000
0000
,  // measure 150
3000
0000
0001
0000
,  // measure 151
0001
0000
0002
0000
,  // measure 152
0003
0000
0010
0000
,  // measure 153
0010
0000
0020
0000
,  // measure 154
0030
0000
0100
0000
,  // measure 155
0100
0000
0200
0000
,  // measure 156
0300
0000
1000
0000
,  // measure 157
1000
0000
4000
0000
,  // measure 158
3000
0000
0002
0000
,  // measure 159
0000
0000
0003
0000
;
