#TITLE:Wing of Sprint;
#SUBTITLE:;
#ARTIST:Hakase K. feat. Kuripurin;
#TITLETRANSLIT:;
#SUBTITLETRANSLIT:;
#ARTISTTRANSLIT:;
#GENRE:;
#CREDIT:Ace Of Arrows;
#BANNER:Wing of Sprint - Bn.png;
#BACKGROUND:Wing of Sprint - Bg.jpg;
#LYRICSPATH:;
#CDTITLE:Ace Of Arrows.png;
#MUSIC:Wing of Sprint.ogg;
#OFFSET:1.668;
#SAMPLESTART:80.800;
#SAMPLELENGTH:12.000;
#SELECTABLE:YES;
#BPMS:0.000=86.400,25.000=171.300,78.000=86.300,105.000=170.000,115.000=86.500,123.000=171.300,155.000=86.400,163.000=172.000,235.000=86.400,243.000=172.000;
#STOPS:;
#BGCHANGES:;
#KEYSOUNDS:;

//---------------dance-single - AceOfArrows (2019)----------------
#NOTES:
     dance-single:
     AceOfArrows (2019):
     Hard:
     8:
     0.572,0.402,0.084,1.000,0.230: // measure 1
0000
0000
0000
0000
,  // measure 2
0002
0000
0023
0000
0032
0000
2003
0000
3001
0020
0000
0031
1000
0004
0000
0000
,  // measure 3
0013
0200
0000
2300
0000
3002
0000
0000
0403
0000
0300
0010
0100
0020
0000
2030
,  // measure 4
0000
3004
0000
0003
1000
0100
2000
0000
3001
0400
0000
0000
0000
0000
0000
0000
,  // measure 5
0000
0300
0020
4030
0000
3000
0002
0023
,  // measure 6
0000
0000
0000
0000
0000
0000
0000
0000
0230
0000
0000
0000
0000
0000
0000
0000
0000
0000
0000
0000
0000
0000
0000
0000
2300
0000
0000
0000
0000
0000
0000
0000
0000
0000
0000
0000
0000
0000
0000
0000
0000
0000
0000
0000
0000
0000
0000
0000
0000
0000
0000
0000
0000
0000
0000
0000
0000
0000
0000
0000
0000
0000
0000
3000
,  // measure 7
4000
0000
3000
0000
,  // measure 8
0000
0000
0004
0400
0000
0000
0000
0303
0110
0000
0000
0000
0000
0000
0010
0000
,  // measure 9
0000
0000
1000
0000
0000
0001
0000
0000
,  // measure 10
0011
0000
0010
0000
0110
0000
0000
0100
,  // measure 11
0000
0000
1000
0100
0010
0100
2000
0000
,  // measure 12
3001
0100
0010
0200
0000
0000
0000
0000
,  // measure 13
0000
0301
1000
0002
0000
0000
2003
0000
,  // measure 14
3200
0000
0320
0000
0034
0000
1003
0020
,  // measure 15
0000
0430
0000
0302
0000
1003
0010
4000
,  // measure 16
0000
0000
3001
0010
0100
1000
0100
0020
,  // measure 17
0000
0031
1000
0040
0000
0130
0001
4000
,  // measure 18
0000
0000
3100
0000
0010
0000
0001
0000
4000
0040
0000
0000
0000
0000
0000
0000
,  // measure 19
0000
0000
3030
0020
0000
0000
0000
0000
,  // measure 20
0430
0000
0000
0000
0000
0000
0000
0000
0302
0000
0000
0000
0000
0000
1003
0100
,  // measure 21
2000
0000
3001
0200
0000
0320
0000
4030
0000
0000
3000
0000
0000
0000
0001
1000
,  // measure 22
0002
0000
0013
0200
0000
2300
0000
3004
0000
0000
0003
0000
0000
0000
2000
0000
,  // measure 23
3020
0000
0130
0002
0000
2003
0000
0000
3020
0000
0000
0230
0000
0301
0000
2000
,  // measure 24
0000
3001
0400
0000
0000
0000
0300
0000
0040
0000
0000
0000
0000
0000
1030
0001
,  // measure 25
2000
0000
3100
0020
0000
0130
0000
4000
0000
0000
3000
0000
0000
0000
0001
0010
,  // measure 26
0002
0000
1003
0020
0000
0130
0000
0004
0000
0000
0000
0000
0003
0000
1000
0000
,  // measure 27
0200
0000
0310
0002
0000
0000
1003
0000
0010
0000
0000
0000
0200
0000
0000
0000
,  // measure 28
0301
2000
0000
3001
0000
0202
0003
0310
,  // measure 29
1000
0002
0000
1003
0100
0010
0400
0000
,  // measure 30
0300
1000
0100
0010
0004
0000
0000
0000
0000
1003
0100
0010
0400
0000
0000
0000
,  // measure 31
0300
0000
2000
0000
3002
0000
0203
0000
0310
0100
0001
2000
0000
0000
0000
0000
,  // measure 32
3001
0020
0000
0000
0130
2000
0000
3001
,  // measure 33
0000
0201
0000
0310
1000
0001
0022
0000
,  // measure 34
0003
0000
0000
0130
1000
0004
0000
1003
,  // measure 35
0010
0000
1000
0001
0010
0200
0000
4300
,  // measure 36
0000
3000
0001
0100
0010
0200
0000
0301
,  // measure 37
1000
0200
0000
0320
0000
0034
0000
0003
,  // measure 38
0000
1000
0010
0100
0020
0000
1030
0001
,  // measure 39
0010
0400
0000
0300
1000
0001
0020
0230
,  // measure 40
1300
0100
2000
0000
3002
0000
0203
0000
0310
1000
0010
0400
0000
0000
0000
0000
,  // measure 41
0000
0000
0000
0000
0300
0000
0000
0000
0002
0000
1003
0100
0010
0000
0001
0000
,  // measure 42
0010
0200
0000
1300
0001
0100
0010
1000
,  // measure 43
0002
0000
0023
0000
0230
0300
2100
0000
,  // measure 44
3001
0200
0000
0310
1000
0002
0000
0023
,  // measure 45
0000
0230
0000
2300
3000
1002
0000
0013
,  // measure 46
0400
0000
0300
1000
0001
0200
0000
0320
,  // measure 47
0000
2030
0000
0000
3001
0010
0100
0010
,  // measure 48
0001
1000
0000
0001
0010
0100
0020
0000
,  // measure 49
0000
0430
0300
2100
,  // measure 50
3002
0000
0203
0000
0320
0030
2010
0000
,  // measure 51
3001
0020
0000
0030
0001
1000
0200
0000
,  // measure 52
0310
0002
0000
1003
0010
0200
0000
0000
,  // measure 53
0301
2000
0000
3002
0003
0021
0000
0130
,  // measure 54
2000
0000
3000
0001
0100
0020
0000
0230
,  // measure 55
0000
0302
0000
0000
1003
0200
0000
0310
,  // measure 56
0001
2000
0000
3010
0100
0001
2000
0000
,  // measure 57
0000
0000
3400
0000
0300
0010
0200
0000
,  // measure 58
1300
0002
0000
2003
0000
3020
0000
0130
,  // measure 59
0001
4000
0000
3000
0001
0010
0002
0000
,  // measure 60
1003
0010
0000
0200
0000
0302
0000
1003
0100
0010
0200
0000
2300
0000
3001
0200
,  // measure 61
0000
0310
1000
0004
0000
0000
0000
0000
0003
0000
1000
0100
0020
0000
0000
0000
,  // measure 62
0130
2000
0000
3002
0000
0403
0000
0000
,  // measure 63
0000
0000
0300
0000
0010
1000
0002
0000
,  // measure 64
0013
0200
0000
1300
0002
0000
0203
0000
,  // measure 65
0300
0000
0000
0001
0000
0000
1000
0000
0000
0000
0100
0000
0000
0000
0010
0000
0000
0000
0004
0000
0000
0000
0000
0000
,  // measure 66
0000
0000
0000
0000
,  // measure 67
0000
0003
0000
0000
1000
0010
0200
0000
,  // measure 68
0301
2000
0000
3001
0020
0000
0130
1000
,  // measure 69
0000
0000
0000
0001
0000
0000
1000
0000
0000
0000
0100
0000
0000
0000
0010
0000
0000
0000
0002
0000
0000
0000
0000
0000
,  // measure 70
0000
0000
1003
0020
0000
0130
0002
0000
,  // measure 71
0003
1000
0002
0000
0103
0020
1030
1000
,  // measure 72
0001
0010
0010
0100
1000
1000
0001
0100
,  // measure 73
0100
0010
1000
0001
0020
0000
0032
0000
,  // measure 74
0000
0000
0000
2003
0000
3200
0000
0310
,  // measure 75
0100
2000
0000
0000
0000
0000
3000
0000
;

//---------------dance-single - Ace Of Arrows (2019)----------------
#NOTES:
     dance-single:
     Ace Of Arrows (2019):
     Challenge:
     10:
     0.899,0.459,0.699,1.000,0.453:
0000
0000
0000
0000
,
2000
0000
3020
0000
0230
0300
0102
0000
1003
0200
0000
0310
0001
2000
0000
0000
,
3010
0200
0000
0302
0003
2001
0000
0000
3400
0000
0300
0010
0001
2001
0000
3020
,
0000
0430
0000
0300
0001
1000
1020
0000
0230
0304
0000
1003
0100
0010
0200
0000
,
0300
2100
0000
0000
3001
0000
0400
0000
0000
0000
0300
0000
0020
0000
2030
0000
,
0000
0000
0000
0000
3002
0000
0000
0000
0000
0000
0003
0000
0022
0000
0000
0000
0000
0000
0000
0000
0000
0000
0000
0000
0000
0000
0000
0000
0000
0000
0000
0030
,
0040
0000
0003
0000
0230
0300
0200
0300
,
2000
0000
3001
0100
0001
0100
0010
1000
0002
0000
0013
0000
0100
0000
2100
0000
,
3001
0100
0120
1030
0001
0021
0130
1000
,
1002
0103
0120
0030
2010
3001
0010
0210
,
1300
0001
0201
0310
1010
1000
1002
0000
,
0013
0100
1000
1002
0000
0103
0020
0000
,
1030
0001
0010
0200
0000
1300
0002
0000
,
0203
0000
0000
0000
0320
0000
0030
0000
2010
0000
3001
0010
0001
0000
2000
0000
,
0000
0000
3001
0100
0001
0000
2001
0000
0000
0000
3001
0000
0010
0000
0410
0000
,
0000
0000
0000
0000
1300
0000
0001
0100
0002
0000
1003
0000
0100
0000
0120
0000
,
0000
0031
1000
1020
0000
0130
0001
2001
,
0000
0000
3100
0000
0010
0000
0001
0000
1000
0010
1000
0010
0100
0001
0100
0001
,
1000
0100
0010
0001
0010
0100
2000
0000
0000
0000
0000
0000
0000
0000
0000
0000
,
3004
0000
0000
0000
0000
0000
0000
0000
0203
0000
0000
0000
0000
0000
0310
1000
,
1002
0000
0013
0200
0000
2300
3000
2004
0000
0000
3003
0000
0000
0000
0001
0100
,
0120
0000
1030
0002
0000
0023
0030
0420
0000
0000
0330
0000
0000
0000
0200
0300
,
2100
0000
3001
0200
0000
0320
0000
0030
1020
0000
0000
0230
0000
0302
0003
2001
,
0000
3100
0040
0000
0000
0032
0003
0000
4002
0000
0000
0000
0003
0000
3010
0100
,
0002
0000
1003
0200
0000
0320
0030
0011
0002
0000
0000
0000
0000
0000
1003
0010
,
0200
0000
0310
2000
0000
3002
0003
0101
0200
0000
0000
0320
0000
0000
2030
0000
,
3002
0000
0013
0200
0000
0000
1300
0000
0001
0100
0001
0000
2001
0000
3100
0010
,
0100
0000
2100
0000
0000
3000
2002
0000
3003
0000
0201
0000
0000
0000
0310
0000
,
1000
0001
2000
0000
0000
0000
3100
0000
0010
0001
0010
0000
0410
0000
0000
0000
,
1300
0001
0100
0010
2000
3001
0010
0001
1000
0010
0100
0001
4000
0000
3001
0000
,
0011
0000
0010
0100
2000
3000
1001
0000
0001
0100
0010
2010
0000
0000
0000
0000
,
3001
0020
0000
0130
1000
1002
0000
0203
,
0300
0120
0000
1030
0001
0010
0210
0000
,
1000
0000
0310
0001
1000
1040
0000
0130
,
0001
0000
1000
0100
1000
0000
0001
0000
0010
0000
0210
0000
0000
0000
1300
0000
,
1001
0001
0100
0010
1000
1002
0000
0013
,
0100
0000
1000
0001
2000
0000
3010
0000
0100
0000
0104
0000
0000
0000
1003
0000
,
1100
0100
0010
0001
2000
3000
1020
0130
,
0001
0000
2001
0000
3100
0000
0010
0100
1000
0100
0010
0001
2000
0000
3020
0000
,
0130
0001
2000
3000
1200
0310
0002
0000
1003
0010
0100
0001
2000
3100
0010
0001
,
0010
0000
0100
0000
1000
0000
0001
0010
0001
0000
1000
0000
0010
0000
0100
0000
0010
0000
1000
0000
0001
0000
0010
0100
0020
0000
0000
0000
0031
0000
1000
0000
,
0001
0000
0201
0000
0000
0000
0310
1000
0010
0000
0100
0000
0101
0000
0001
0000
,
2001
0000
0000
0000
3020
0000
1030
0001
0100
0001
1000
0000
1200
0000
0000
0000
,
0310
0002
0000
1003
0010
0210
0000
0301
,
1000
0200
0000
0310
0001
2001
0000
3010
,
0400
0000
0301
1000
0100
0120
0000
0031
,
1000
0000
0020
0000
0130
0001
0100
0000
0010
0000
1000
0001
2000
0000
3100
0000
,
0010
0002
0000
1003
0010
0100
0102
1003
,
0200
0300
0120
0031
2000
3000
1020
0130
,
0002
0000
1003
0100
1000
0000
0001
0000
0200
0000
0310
1000
0020
0000
1030
0001
,
1000
0000
0200
0000
0000
0000
0310
0001
0010
0000
0001
1000
0002
0000
0000
0000
,
0103
0010
1000
0001
0010
0210
0000
1300
,
0001
0100
0010
1000
0001
0021
0000
0130
,
2000
0000
3001
0100
0010
2010
0000
3001
,
0010
0200
0000
1300
0001
0100
0120
1030
,
0001
0021
0000
0130
1000
0001
0201
0000
,
0310
0000
1000
0000
0004
0000
0000
0000
0013
0000
0100
1000
0200
0000
0000
0000
,
0310
0002
0000
1003
0010
0210
0000
0301
,
1000
1200
0310
0001
1000
0010
0210
0000
,
0301
2000
3000
1200
0000
0320
0000
0031
1000
0001
0200
0300
0120
0000
1030
0002
,
0000
0000
0013
0000
0100
0000
2000
0000
3001
0000
0100
0000
0001
0000
0000
0000
1000
0000
0100
0000
0010
0000
0001
0010
0002
0000
0000
0000
0000
0000
0000
0000
,
1003
0020
0000
0130
0001
1000
1200
0000
,
0310
0000
0001
0000
1000
0000
0010
0000
0100
0000
0010
1000
0020
0000
0000
0000
,
0130
0000
0002
0000
0000
0000
1003
0000
0100
0010
0100
0000
1100
0000
1000
0000
,
0000
0000
0001
0000
0201
0000
0000
0320
0000
0000
1030
0000
1002
0000
0000
0000
,
0013
0000
0100
0010
0100
0000
1000
0000
0001
0000
0401
0000
0000
0000
0000
0000
,
0000
0300
0000
0000
0010
1000
1002
0000
,
0013
0000
0200
0000
0000
0000
1300
0000
0001
0010
0001
0000
1001
0000
1000
0000
,
0000
0000
0010
0000
0210
0000
0000
0302
0000
0000
1003
0000
1200
0000
0000
0000
,
0310
0100
1000
0002
0000
0103
0120
1030
,
0001
0000
0010
0000
0100
0000
1000
0000
0001
0010
0001
0000
2001
0000
3010
0000
,
0100
0102
1003
0100
0120
0031
1000
1020
,
0130
0001
2001
3100
0120
0000
0032
1000
,
1000
0000
0100
0000
0203
0000
0320
0000
1030
0010
2000
0000
0000
0000
3001
0010
,
0001
2002
0000
0000
0000
0000
3003
0000
;

//---------------dance-single - Ace Of Arrows (2019)----------------
#NOTES:
     dance-single:
     Ace Of Arrows (2019):
     Medium:
     6:
     0.443,0.230,0.000,0.960,0.127:
0000
0000
0000
0000
,
0000
0000
1000
0000
0100
0000
2000
0000
0000
0001
3000
0010
0000
0002
0000
0000
,
0000
2003
0000
0000
0000
3002
0000
0000
0043
0000
0030
0000
0000
0002
0000
2003
,
0000
3004
0000
0000
1003
0000
0200
0000
0000
0340
0000
0000
0000
0000
0000
0000
,
0000
0030
0002
4003
0000
3000
0001
0020
,
0000
0000
0032
0000
0000
0000
2003
0000
0000
0000
0000
0000
0000
0000
0000
3000
,
4000
0000
3000
0000
,
0000
0004
0000
0000
1003
0000
0000
0100
,
0000
0000
1000
0000
0000
0001
0000
0000
,
0010
0000
0100
0000
0010
0000
0000
0001
,
0000
0000
1000
0000
0001
0010
0002
0000
,
2003
0000
3100
0020
0000
0000
0000
0000
,
0000
0031
1000
0002
0000
0000
0203
0000
,
0320
0000
0230
0000
0302
0000
1003
0020
,
0000
4030
0000
3002
0000
1003
0100
4000
,
0000
0000
3001
0000
0200
0000
0301
2000
,
0000
0000
3001
0400
0000
0000
0310
2000
,
0000
0000
3001
1000
0004
0000
0000
0000
,
0000
0000
0000
0023
0000
0000
0000
0000
,
0430
0000
0000
0000
2300
0000
0000
3001
,
0020
0000
0000
0031
0000
1000
0000
0004
0000
0000
0003
0000
0000
0000
1000
0000
,
0200
0000
0000
0310
0000
0100
0000
0040
0000
0000
0030
0000
0000
0000
0001
0000
,
2000
0000
0000
3002
0000
0000
0000
0000
0023
0000
0000
0130
0000
1000
0000
0100
,
0000
0040
0000
0030
0004
0000
0003
0000
,
2000
0000
0000
3010
0000
0100
0000
0040
0000
0000
0030
0000
0000
0000
0100
0000
,
0002
0000
0000
1003
0000
0001
0000
4000
0000
0000
0000
0000
3000
0000
0001
0000
,
0020
0000
0000
0032
0000
0000
0000
0000
0003
0000
0000
0000
2000
0000
0000
0000
,
3001
0000
0000
0000
0010
0000
0000
0000
0000
0000
0000
0000
0001
0000
0000
0000
0000
0000
0000
0000
2000
0000
0000
0000
0000
0000
0000
3000
4000
0000
0000
0000
,
0000
0000
3000
0001
0010
0000
0004
0000
,
0000
1003
0400
0000
0000
0310
0004
0000
,
0003
0000
0000
0000
1000
0000
0010
0000
2000
0000
0000
3002
0000
0000
0000
0000
,
0000
2003
0000
0000
3100
0020
0000
0230
,
0000
2300
0000
0000
3001
0100
0002
0000
,
0000
0000
0000
0000
0000
4003
0000
0000
,
3000
0000
0010
0000
0100
0002
0000
0403
,
0000
0300
0010
0000
1000
0002
0000
1003
,
0100
2000
0000
3002
0000
0043
0000
0030
,
0000
0000
0001
1000
0002
0000
2003
0000
,
3010
4000
0000
3000
0001
0000
0020
0230
,
0320
0000
0032
0000
2003
0000
3002
0000
0203
0000
0000
0340
0000
0000
0000
0000
,
0000
0000
0000
0000
0030
0000
0000
0000
2000
0000
3001
0020
0000
0000
0000
0000
,
0000
0230
0000
0000
0000
1300
0002
0000
,
2003
3020
2030
3002
,
0000
0023
0000
0031
1000
0002
0000
0203
,
0000
0302
0000
2003
0000
3002
0000
0013
,
0400
0000
0300
1000
0001
2000
0000
3002
,
0000
0203
0000
0000
0310
1000
0020
0000
,
0000
0130
0000
0000
0001
1000
0002
0000
,
0000
0043
0030
0002
,
2003
3002
0203
0320
,
0130
0002
0000
0003
1000
0100
2000
0000
,
3001
0200
0000
0302
0000
2003
0000
0000
,
3001
0020
0000
0032
0000
2003
0000
3001
,
0200
0000
0300
0010
1000
0020
0000
0230
,
0000
0302
0000
0000
1003
0200
0000
0000
,
0000
0310
0000
0000
0001
0010
0002
0000
,
0000
0000
4003
0000
3000
0001
0200
0000
,
0301
2000
0000
3002
0000
0023
0000
0000
,
0130
4000
0000
3000
0001
0010
0002
0000
,
1003
0000
0000
0020
0000
2030
0000
0000
3001
0000
0010
0000
0002
0000
0000
2003
,
0000
0000
0000
3004
0000
0000
0000
0000
0003
0000
0010
0000
0200
0000
0000
0000
,
0000
1300
0000
0001
0000
4000
0000
0000
,
0000
0000
3000
0000
0001
0100
0002
0000
,
0000
2003
0000
3100
0020
0000
0230
0000
,
0000
1300
0002
0000
0000
1003
0400
0000
,
0000
0000
0000
0000
,
0000
0300
0000
0000
1000
0000
0002
0000
,
1003
0020
0000
1030
0002
0000
0013
0000
,
0000
0001
2000
0000
0000
3100
0040
0000
,
0000
0000
0000
0000
,
0030
0000
0002
0000
1003
0020
0000
0000
,
1030
0002
0000
0013
0200
0000
1300
0002
,
0000
1003
0020
0000
2030
0000
3002
0000
,
0000
0000
0000
2003
0000
3020
0000
0130
,
0010
0200
0000
0000
0000
0000
0300
0000
;

//---------------dance-single - Ace Of Arrows (2019)----------------
#NOTES:
     dance-single:
     Ace Of Arrows (2019):
     Easy:
     4:
     0.215,0.115,0.000,0.307,0.000:
0000
0000
0000
0000
,
0000
0000
0000
0001
0000
0001
0000
0002
,
0000
0003
0000
2000
0000
3000
0000
0010
,
0000
0010
0000
0010
0000
0040
0000
0000
,
0000
0030
0000
4000
0000
3000
0000
0001
,
0000
0001
0000
0004
0000
0000
0000
0000
,
0000
0000
0003
0000
,
0000
0000
0000
0000
1000
0000
0000
1000
,
0000
0000
2000
0000
0000
3000
0000
0000
,
0020
0000
0030
0000
0100
0000
0000
0100
,
0000
0200
0000
0300
,
0001
0000
0000
0002
0000
0000
0000
0000
,
0003
0000
0000
1000
0000
0000
1000
0000
,
2000
0000
3000
0000
0100
0000
0000
0100
,
0000
0100
0000
0400
0000
0000
0000
0000
,
0300
0000
0000
0000
1000
0000
0000
2000
,
0000
0000
3000
0001
0000
0000
0000
0002
,
0000
0003
0040
0000
,
0030
0000
0000
0020
0000
0000
0000
0000
,
0030
0000
0002
0003
,
1000
1000
4000
3000
,
0010
0010
0040
0030
,
0200
0300
0001
0001
,
0004
0000
0003
0000
,
1000
1000
4000
3000
,
0100
0100
0400
0300
,
2000
3000
0000
0001
,
0000
0001
0000
0001
0000
0004
0000
0000
,
0000
0003
0000
4000
,
3000
0400
0300
0040
,
0030
0002
0003
1000
,
0000
2000
0000
3000
0000
0010
0000
0010
,
0000
0010
0000
0000
0000
0000
0200
0000
,
0000
0000
0000
0300
0000
0400
0000
0000
,
0300
0000
0001
0000
0000
0001
0000
0004
,
0000
0003
1000
0000
0000
2000
0000
0000
,
3000
0100
0000
0100
0000
0400
0000
0000
,
0300
0010
0010
0010
,
0000
0040
0000
0000
0030
0000
0001
0000
,
0001
0002
0003
4000
,
0000
3000
0010
0020
,
0000
0030
0000
0100
,
0100
0200
0300
0002
,
0003
1000
0000
1000
0000
2000
0000
0000
,
3000
0100
0000
0100
0000
0200
0000
0000
,
0300
0000
0000
0000
0000
0010
0000
0010
,
0000
0020
0000
0000
0030
0000
0001
0000
,
0000
0001
0000
0000
0000
0000
2000
0000
,
3000
4000
3000
0010
,
0010
0010
0000
0100
,
0000
0100
0000
0000
0000
0000
2000
0000
,
3000
0001
0000
0001
0000
0002
0000
0000
,
0003
0010
0000
0010
0000
0020
0000
0000
,
0030
0000
0000
0000
0000
0100
0000
0100
,
0000
0200
0000
0000
0300
2000
0000
3000
,
0000
1000
0000
0000
0001
0000
0002
0000
,
0000
0003
0000
0100
,
0000
0200
0000
0300
0000
0001
0000
0000
,
0000
0004
0000
0000
0003
0000
1000
0000
,
2000
3000
0100
0200
,
0300
0040
0030
0100
,
0000
0100
0000
0000
0000
0400
0000
0000
,
0000
0300
0000
1000
,
0000
1000
0000
0000
1000
0000
1000
0000
,
0000
0001
0001
0004
,
0000
0000
0000
0000
,
0000
0003
0000
0000
0000
0000
0100
0000
,
0000
0100
0000
0000
0100
0000
0100
0000
,
0000
0010
0000
0040
,
0000
0000
0000
0000
,
0030
0000
1000
0000
0000
2000
0000
0000
,
3000
0001
0000
0000
0002
0000
0003
1000
,
0000
2000
3000
0020
,
0000
0000
0030
0100
0000
0200
0000
0000
,
0000
0302
0000
0000
0000
0000
0003
0000
;

//---------------dance-single - Ace Of Arrows (2019)----------------
#NOTES:
     dance-single:
     Ace Of Arrows (2019):
     Beginner:
     2:
     0.142,0.086,0.000,0.261,0.000:
0000
0000
0000
0000
,
0000
0000
0000
1000
0000
0000
0000
2000
,
0000
0000
0000
3000
0000
0000
0000
0001
,
0000
0000
0000
0004
0000
0000
0000
0000
,
0000
0003
0000
1000
0000
0000
0000
1000
,
0000
0000
0000
4000
0000
0000
0000
0000
,
0000
0000
3000
0000
,
0000
0000
0010
0000
,
0000
0010
0000
0000
,
0020
0000
0030
0000
,
0000
0200
0000
0300
,
0000
0000
0002
0000
,
0003
0000
1000
0000
,
1000
0000
2000
0000
,
3000
0000
0004
0000
,
0003
0000
0200
0000
,
0300
0000
0200
0000
,
0300
0000
0040
0000
,
0000
0030
0020
0000
,
0030
0000
2000
3000
,
0001
0000
0004
0003
,
0100
0000
0400
0300
,
0200
0300
0010
0000
,
0040
0000
0030
0000
,
1000
0000
4000
3000
,
0001
0000
0004
0003
,
0002
0003
0000
0010
,
0000
0010
0000
0040
,
0000
0030
0000
0400
,
0300
0400
0300
4000
,
3000
2000
3000
2000
,
0000
3000
0000
0001
,
0000
0001
0000
0002
,
0000
0003
0000
0400
,
0000
0300
0000
0200
,
0000
0300
0000
0010
,
0000
0010
0000
0040
,
0000
0030
0000
2000
,
0000
3000
0000
0001
,
0000
0001
0000
0004
,
0000
0003
0000
0020
,
0000
0030
0000
0020
,
0000
0030
0000
0100
,
0000
0100
0000
0200
,
0000
0300
0000
0200
,
0300
0000
0000
1000
,
0000
1000
0000
2000
,
0000
3000
0000
0002
,
0000
0003
0000
0010
,
0000
0010
0000
0020
,
0000
0030
0000
0001
,
0000
0001
0000
0002
,
0000
0003
0000
0002
,
0003
0000
0000
0010
,
0000
0010
0000
0020
,
0000
0030
0000
0200
,
0000
0300
0000
1000
,
0000
1000
0000
2000
,
0000
3000
0000
0002
,
0000
0003
0000
0100
,
0000
0400
0300
0001
,
0000
0001
0000
0004
,
0000
0003
0000
1000
,
0000
2000
0000
3000
,
0000
0100
0000
0400
,
0000
0000
0000
0000
,
0000
0300
0000
0000
0000
0000
0010
0000
,
0000
0020
0000
0030
,
0000
0001
0000
0004
,
0000
0000
0000
0000
,
0003
1000
0000
2000
,
0000
0000
0000
0000
,
0000
0000
3000
0020
,
0000
0000
0030
0200
,
0000
0300
0000
0000
;
