#TITLE:Top!!;
#SUBTITLE:;
#ARTIST:The Idolm@ster;
#TITLETRANSLIT:;
#SUBTITLETRANSLIT:;
#ARTISTTRANSLIT:;
#GENRE:;
#CREDIT:;
#BANNER:Top - Bn.png;
#BACKGROUND:Top - Bg.png;
#LYRICSPATH:;
#CDTITLE:Ace Of Arrows.png;
#MUSIC:Top.ogg;
#OFFSET:0.213;
#SAMPLESTART:67.320;
#SAMPLELENGTH:12.000;
#SELECTABLE:YES;
#BPMS:0.000=174.000;
#STOPS:;
#BGCHANGES:;
#KEYSOUNDS:;

//---------------dance-single - AceOfArrows (2019)----------------
#NOTES:
     dance-single:
     AceOfArrows (2019):
     Hard:
     7:
     0.562,0.141,0.222,1.000,0.000: // measure 1
0000
0000
0000
0000
,  // measure 2
2002
0000
0000
0000
,  // measure 3
3003
0000
1000
0100
2000
0000
3002
0000
,  // measure 4
0023
0000
0000
0230
0000
0000
0000
0000
,  // measure 5
0000
0000
0300
0000
0000
0000
1000
0001
,  // measure 6
2000
0000
3001
0200
0000
0300
0010
1000
,  // measure 7
0020
0000
0130
0002
0000
0003
0000
0000
,  // measure 8
2000
0000
3001
0010
0100
1000
0000
0002
,  // measure 9
0000
2003
0000
3020
0000
0000
0130
0001
,  // measure 10
2000
0000
0000
0000
,  // measure 11
3000
0000
0001
0010
0200
0000
0310
0000
,  // measure 12
0002
0000
1003
0200
0000
0000
0000
0000
,  // measure 13
0000
0000
0000
0000
0300
0000
1000
0001
,  // measure 14
2000
0000
3010
0200
0000
0300
0001
1000
,  // measure 15
0002
0000
0013
0200
0000
0300
1000
0000
,  // measure 16
0002
0000
0203
0000
,  // measure 17
0310
1000
0001
0200
0000
0300
0000
0000
,  // measure 18
0020
2030
3002
0023
,  // measure 19
0230
0000
0300
0000
2000
0000
0000
3000
,  // measure 20
2002
0000
0000
3003
,  // measure 21
0202
0003
0310
1000
0001
0020
0030
0000
,  // measure 22
0210
0000
0000
1300
0000
0001
0000
0200
,  // measure 23
0000
0000
0000
0000
0000
0310
0000
2000
,  // measure 24
0000
0000
3001
0010
0001
1000
0000
0020
,  // measure 25
0000
0000
0000
0230
0000
0000
0300
0000
,  // measure 26
0102
0000
0000
1003
0000
0100
0000
0020
,  // measure 27
0000
0000
0000
0230
0000
0000
0300
0000
,  // measure 28
1000
0001
0100
0002
0000
1003
0010
2000
,  // measure 29
0000
3001
0100
0002
0000
1003
0200
0000
,  // measure 30
0320
0000
0230
0000
2300
0000
3001
0200
,  // measure 31
0000
0320
0000
2030
0000
3001
0010
0100
,  // measure 32
2000
0000
3001
0020
0000
0000
0100
0000
,  // measure 33
0001
0000
0100
0032
0000
0000
0003
0000
,  // measure 34
2000
0000
3020
0000
0230
0000
0301
2000
,  // measure 35
0000
3200
0000
0320
0000
0130
1000
0001
,  // measure 36
0200
0000
0310
2000
0000
0000
0001
0000
,  // measure 37
0010
0000
3001
1000
0001
0100
0010
0200
,  // measure 38
0000
0000
0300
0000
0001
1000
0100
2000
,  // measure 39
0000
0000
0000
3000
0000
0002
0000
0023
,  // measure 40
0000
0031
2000
0000
3100
0020
0030
0012
,  // measure 41
0000
2003
0000
3002
0000
0000
0003
0000
,  // measure 42
0201
0000
0320
0000
2030
0000
3001
0200
,  // measure 43
0000
0000
0010
0001
0000
0302
0000
0000
,  // measure 44
0000
0000
0003
0000
0000
0000
1000
0001
,  // measure 45
2000
3002
0023
0230
,  // measure 46
2300
0000
3002
0000
,  // measure 47
0203
0000
0320
0000
,  // measure 48
2030
0000
0000
3000
,  // measure 49
2001
0200
0000
0000
3300
0000
0000
0000
,  // measure 50
0220
0000
0000
0000
,  // measure 51
0330
0000
0010
0001
2000
0000
3020
0000
,  // measure 52
0230
0000
0302
2000
0000
0000
0000
0000
,  // measure 53
0000
0000
0000
0000
3003
0000
0001
0010
,  // measure 54
0200
0000
1300
0002
0000
0003
1000
0010
,  // measure 55
0200
0000
0301
2000
0000
3000
0000
0000
,  // measure 56
0001
0010
0100
1000
0100
0020
0000
0032
,  // measure 57
0000
1003
0010
0200
0000
0301
1000
0001
,  // measure 58
0200
0000
0000
0000
,  // measure 59
0300
0000
0010
1000
0002
0000
0023
0000
,  // measure 60
0230
0000
2300
0002
0000
0000
0000
0000
,  // measure 61
0000
0000
0000
3003
0000
0000
1000
0010
,  // measure 62
0200
0000
0301
2000
0000
3000
0001
0100
,  // measure 63
0020
0000
0130
0002
0000
0003
1000
0000
,  // measure 64
2002
0000
0000
3003
0022
0000
0000
0033
,  // measure 65
0220
0030
2300
0002
0000
0000
3003
0000
,  // measure 66
0201
0320
2030
3002
,  // measure 67
0013
0000
0200
0300
,  // measure 68
2200
0000
0000
0000
0000
3300
0000
0000
,  // measure 69
1002
0000
0103
0120
1030
0002
0003
0000
,  // measure 70
0020
0000
0000
0000
0000
0130
1000
0001
,  // measure 71
0200
0000
0304
0000
,  // measure 72
4003
0000
3020
0000
,  // measure 73
0000
0000
0230
0000
,  // measure 74
0302
0000
0000
0000
,  // measure 75
2003
0000
3400
0000
,  // measure 76
1300
0100
0010
0001
1000
0001
0010
0100
,  // measure 77
1000
0001
0100
0010
1000
0001
1000
0010
,  // measure 78
0220
0000
0000
0000
,  // measure 79
0330
0000
0100
0001
2000
0000
3200
0000
,  // measure 80
0320
0000
0032
2000
0000
0000
0000
0000
,  // measure 81
0000
0000
0000
0000
3003
0000
0001
0010
,  // measure 82
0210
0000
1300
0002
0000
0003
1000
0100
,  // measure 83
0120
0000
0031
2000
0000
0000
3020
0030
,  // measure 84
0220
0000
0000
0330
0202
0000
0000
0303
,  // measure 85
2002
0003
3200
0020
0000
0000
0330
0000
,  // measure 86
0020
0000
0032
0000
2003
0000
3020
0030
,  // measure 87
0220
0330
0202
0303
,  // measure 88
2002
0000
0000
3003
,  // measure 89
2020
3000
0130
0102
1003
2002
0000
0000
,  // measure 90
3003
0000
0000
0000
;

//---------------dance-single - Ace Of Arrows (2019)----------------
#NOTES:
     dance-single:
     Ace Of Arrows (2019):
     Challenge:
     10:
     0.818,0.141,0.737,1.000,0.087:
0000
0000
0000
0000
,
2002
0000
0000
0000
,
3003
0000
1000
0010
0200
0000
0301
0000
,
2002
0000
0003
3200
0000
0310
0001
2000
,
0000
3001
0100
0020
0000
0000
1030
0001
,
0021
0000
0130
2000
0000
3000
0001
0100
,
0120
0000
1030
0002
0000
0013
0200
0300
,
2100
0000
3001
0100
0010
1000
0000
1002
,
0000
0023
0030
0210
0000
1300
0001
0100
,
0220
0000
0000
0000
0000
0000
0000
0330
,
0020
0000
1030
0001
0020
0000
0130
0000
,
2100
0000
3002
0200
0003
0000
0320
0000
,
0000
1030
0001
0010
0100
0010
0001
1000
,
1020
0000
0130
0002
0000
0003
1000
0100
,
0120
0000
0031
2000
0000
3000
0010
0000
,
0220
0030
0002
0303
,
2001
3100
0010
0002
0000
0003
0000
0000
,
2001
0000
3020
0000
0230
0000
0302
0003
,
1001
0000
2200
3300
,
0220
0000
0000
0330
,
0012
0000
0000
0000
1003
0000
1010
0000
0010
0000
0200
0000
0000
0000
0301
1000
,
0002
0000
0000
0000
0000
0000
0000
0000
0000
0000
0000
1003
0100
0000
0000
0000
0000
0000
0000
0000
0010
0000
0000
0000
0000
0000
0000
0000
0022
0000
0000
0000
,
0030
1000
0000
0100
0000
1003
0000
2200
,
0000
0000
0000
0000
3000
0000
0000
0000
0310
0000
0001
0000
1000
0000
0001
0000
0010
0000
0000
0000
0100
0000
0000
0000
0000
0000
0000
0010
0002
0000
0000
0000
,
0000
0000
0000
0000
0000
0000
1003
0000
0010
1000
0001
1000
0010
0000
0100
0000
,
0202
0000
0000
0000
0000
0000
0000
0000
0300
0000
0000
1003
0100
0000
0000
0000
0000
0000
0000
0000
0100
0000
0000
0000
0000
0000
0000
0000
0220
0000
0000
0000
,
0000
0000
0300
0000
0000
0000
0031
0000
1000
0100
1000
0000
0001
0000
0100
0000
,
0110
0000
0010
0000
1000
0000
2002
0000
3000
0000
0013
0100
0010
0000
0022
0000
,
0030
0000
1003
0010
1000
0000
2002
0000
3000
0000
0103
0010
0100
0000
0001
0000
,
2002
0003
3200
0300
0120
0000
0031
2001
,
0000
3020
0030
0210
0000
0301
1000
0100
,
0120
0000
0031
2000
0000
0000
0001
0000
,
0011
0000
0010
0002
0000
0003
3000
0000
,
2100
0000
3002
0003
0201
0000
0310
2010
,
0000
3002
0003
0021
0000
0130
1000
0100
,
0110
0000
0010
0002
0000
0000
1000
0000
,
1010
0000
0010
2003
3010
0100
0001
2002
,
0003
3100
0020
0030
0011
0001
1000
1020
,
0000
0130
0002
0003
0000
1000
0000
1200
,
0000
0000
0310
0000
0002
0000
0003
0000
1002
0000
1003
0000
0000
0000
2022
3033
,
0000
0000
2022
3033
0000
0000
2022
3003
0000
0000
0030
0000
0000
0000
0000
0000
,
0201
0000
0320
0030
2010
0000
3001
0200
,
0000
0000
0001
0011
0000
0002
0000
0000
,
0303
0000
0000
0000
0000
0000
0001
1000
,
1200
0000
0320
0030
0012
0000
1003
0000
,
2020
3000
0200
0300
,
0002
0003
0400
0030
,
0302
0000
1003
0100
0010
0001
0010
0100
,
2100
0000
0002
0000
0000
0000
0000
0000
3003
0000
0000
0000
0001
0010
0100
0010
,
0022
0030
1003
0100
0010
0001
0010
0100
,
2000
0000
3001
0100
0120
0000
2030
0000
,
3001
0010
0100
2100
0000
3001
0100
0010
,
1000
0010
0100
0001
2000
0000
3100
0010
,
0012
0000
1003
0020
0000
0030
0100
0001
,
2001
0000
3100
0020
0000
0130
2000
3000
,
1001
0001
0100
0010
1000
0002
0003
0021
,
0000
0130
1000
1002
0000
0103
0010
1000
,
1002
0000
0013
0100
1000
0100
0010
0001
,
2000
0000
3010
0100
0102
0000
1003
0000
,
1200
0310
0001
2002
0003
3010
0210
0000
,
0301
1000
0100
0010
0001
1000
0010
0100
,
0102
1003
0100
0020
0000
0030
0001
1000
,
1020
0130
0001
2000
0000
3001
0020
0030
,
0210
1300
1002
0103
,
0110
0000
0010
0000
1000
0000
0002
0000
0000
0000
0013
0000
0400
0000
0000
0300
,
1100
1000
0001
0100
0020
0000
1030
0001
,
0020
0030
0000
0000
0220
0000
0330
0000
,
2200
0300
3001
0100
0010
1000
0001
0000
,
0022
0003
0130
2100
3001
0201
0000
0000
,
0320
0000
0000
0000
0000
1030
0001
0010
,
0400
0000
4300
0000
,
3002
0000
1003
0100
0010
0001
0010
0100
2000
0000
0000
0000
0000
0000
0000
0000
,
0000
0000
3002
0000
,
0023
0000
0000
0000
0000
0000
0000
0030
,
0210
0000
0000
0000
0000
0000
0000
0000
1300
0100
0010
0001
1000
0001
0010
0100
,
2000
3001
0100
0010
1000
0001
0010
0100
,
2000
3100
0001
0100
1000
0001
0100
0010
,
2020
0030
3001
0010
0100
1000
0001
0100
,
0020
0000
1030
0001
0021
0130
2000
0000
,
3001
0100
0010
2010
0000
3001
1000
0100
,
0010
0001
1000
0020
0000
0030
0100
0001
,
2001
3100
0010
0002
0000
1003
0010
0100
,
0102
1003
0100
0020
0000
0130
2000
3000
,
1002
0103
0120
1030
,
1002
0000
0013
0000
0100
0000
2000
0000
0000
0000
3001
0000
0100
0010
0100
0000
,
0102
0000
2003
0000
3100
0010
0100
1000
,
2002
3003
0000
0000
0022
0000
0033
0000
,
0220
0000
0000
0330
,
2100
0000
3001
2001
0002
0010
0000
0000
,
3003
0000
0000
0000
;

//---------------dance-single - Ace Of Arrows (2019)----------------
#NOTES:
     dance-single:
     Ace Of Arrows (2019):
     Medium:
     5:
     0.475,0.141,0.048,1.000,0.000:
0000
0000
0000
0000
,
2002
0000
0000
0000
,
3003
0001
0020
0130
,
2000
0000
0000
3002
0000
0000
0000
0000
,
0000
0003
0000
1000
,
0020
0000
1030
0002
0000
0000
0013
0000
,
0200
0000
1300
0002
0000
0000
0003
0000
,
2000
0000
3200
0000
0310
0002
0000
2003
,
0000
3002
0000
0203
0000
0000
0310
0000
,
2000
0000
0000
0000
,
3000
0001
0020
0130
,
0020
0000
0000
0032
0000
0000
0000
0000
,
0000
0000
0003
1000
,
0020
0000
1030
0002
0000
0000
0013
0000
,
0200
0000
1300
0002
0000
0000
1003
0000
,
0020
0000
2030
0000
,
3002
0000
0013
0200
0000
0000
0300
0000
,
2000
3002
0203
0302
,
2003
3000
0002
0003
,
0202
0000
0000
0303
,
0200
0000
0310
2000
0000
3002
0000
0000
,
0023
0000
0000
0130
0000
1000
0000
0002
,
0000
0000
0000
0000
0000
1003
0000
0200
,
0000
0000
0320
0000
0031
1000
0000
0002
,
0000
0000
0000
0203
0000
0000
0000
0000
,
0320
0000
0000
1030
0000
0001
0000
0020
,
0000
0000
0000
0230
0000
0000
0300
0000
,
2000
0000
3001
0020
0000
0000
0031
2000
,
0000
0000
3001
0200
0000
0301
2000
0000
,
3002
0000
0023
0000
0230
0000
0310
0002
,
0000
2003
0000
3002
0000
0103
0010
0000
,
0200
0000
0301
2000
0000
0000
0000
0000
,
0000
0000
0000
3000
0000
0000
0000
0000
,
2000
0000
3002
0000
0203
0000
0310
2000
,
0000
3002
0000
0023
0000
0031
2000
0000
,
3020
0000
0130
0002
0000
0000
0000
0000
,
0000
0000
0003
0000
2000
0000
3010
0200
,
0000
0000
0300
0000
0002
0000
1003
0200
,
0000
0000
0300
0000
0000
0020
0000
0032
,
0000
1003
0020
0000
1030
0002
0000
0023
,
0000
0230
0000
2300
0000
0000
3000
0000
,
0002
0000
0013
0000
0002
0000
1003
0200
,
0000
0000
0000
0300
,
0000
0000
0000
0010
,
0002
2003
3020
2030
,
3002
0000
0023
0000
,
0230
0000
2300
0000
,
3002
0000
0000
0003
,
2000
0020
0000
0000
3030
0000
0000
0000
,
0220
0000
0000
0000
,
0330
0100
0002
2003
,
3002
0000
0013
0200
0000
0000
0000
0000
,
0000
0000
0300
2000
,
3002
0000
0103
0020
0000
0000
2030
0000
,
3002
0000
0013
0200
0000
0000
0300
0000
,
2000
0000
3002
0000
0013
0200
0000
0320
,
0000
0000
0031
2000
0000
0000
3001
0000
,
0200
0000
0000
0000
,
0300
0010
2000
3001
,
0020
0000
0130
2000
0000
0000
0000
0000
,
0000
0000
3000
0001
,
0200
0000
0301
2000
0000
0000
3001
0000
,
0020
0000
0130
2000
0000
0000
3001
0000
,
0200
0000
0320
0000
,
2030
0000
3001
0020
0000
0000
0030
0000
,
0200
2300
3002
0203
,
0302
0003
2000
3000
,
2200
0000
0000
3300
,
2000
0000
3001
0200
0000
0320
0000
0000
,
2030
0000
0000
3001
,
0020
0000
0032
0000
,
4003
0000
3020
0000
,
0000
0000
0230
0000
,
0302
0000
0000
0000
,
2003
0000
3400
0000
,
0320
0000
0032
0000
2003
0000
3001
0200
,
0000
0301
2000
3001
,
2002
0000
0000
0000
,
3003
0000
1000
0100
2000
0000
3002
0000
,
0203
0000
0301
2000
0000
0000
0000
0000
,
0000
0000
0000
0000
3000
0000
0001
0010
,
0002
0000
1003
0020
0000
0000
1030
0001
,
2000
0000
3001
0200
0000
0000
0320
0000
,
2030
0000
3002
0000
,
0023
0000
0130
2000
0000
0000
3000
0000
,
0002
0203
0320
2030
,
3002
0003
2000
3000
,
2020
0000
0000
3030
,
0020
0000
1030
0001
1000
0200
0000
0000
,
0300
0000
0000
0000
;

//---------------dance-single - Ace Of Arrows (2019)----------------
#NOTES:
     dance-single:
     Ace Of Arrows (2019):
     Easy:
     3:
     0.209,0.140,0.024,0.277,0.000:
0000
0000
0000
0000
,
2002
0000
0000
0000
,
3003
0000
1000
1000
,
1000
0000
2000
0000
,
0000
0000
3000
0000
,
0010
0000
0010
0000
,
0020
0000
0030
0000
,
0100
0000
0100
0000
,
0100
0000
0001
0001
,
0002
0000
0000
0000
,
0003
0000
1000
1000
,
1000
0000
2000
0000
,
0000
0000
3000
0000
,
0100
0000
0100
0000
,
0200
0000
0300
0000
,
0010
0000
0010
0000
,
0020
0000
0030
0000
,
0001
0001
0001
0000
,
1000
0000
1000
0000
,
2000
0000
3000
0000
,
0001
0000
0001
0000
,
0000
0000
1000
0000
,
2000
0000
3000
0000
,
0000
0000
0001
0000
,
0002
0000
0003
0000
,
0000
0000
0100
0000
,
0200
0000
0300
0000
,
0010
0000
0010
0000
,
0020
0000
0030
0000
,
1000
1000
1000
0000
,
0001
0001
0001
0000
,
0010
0000
0020
0000
,
0000
0000
0030
0000
,
0100
0100
0100
0000
,
1000
1000
1000
0000
,
0001
0000
0002
0000
,
0000
0003
1000
0000
,
1000
0000
1000
0000
,
2000
0000
3000
0000
,
0010
0000
0010
0000
,
0020
0000
0030
0000
,
0100
0000
0100
0000
,
0200
0000
0000
0000
,
0300
0000
0000
0000
,
0001
0001
0001
0000
,
1000
0000
1000
0000
,
0010
0000
0010
0000
,
0020
0000
0030
0000
,
2000
0000
3000
0000
,
2002
0000
0000
0000
,
3003
0000
0001
0001
,
0001
0000
2000
0000
,
0000
0000
3000
0000
,
0100
0000
0100
0000
,
0200
0000
0300
0000
,
0010
0010
0010
0000
,
0001
0000
0001
0000
,
0002
0000
0000
0000
,
0003
0000
1000
1000
,
1000
0000
0020
0000
,
0000
0000
0030
0000
,
0100
0100
0100
0000
,
0001
0001
0001
0000
,
1000
0000
1000
0000
,
2000
0000
3000
0000
,
0100
0100
0100
0000
,
0010
0000
0010
0000
,
0020
0000
0030
0000
,
0001
0000
0001
0000
,
2000
0000
3000
0000
,
0200
0000
0300
0000
,
0040
0000
0030
0000
,
0000
0000
0100
0000
,
0200
0000
0300
0000
,
1000
0000
0000
0000
4000
0000
0000
3000
,
0001
0001
0001
0000
,
1000
1000
1000
0000
,
2002
0000
0000
0000
,
3003
0000
0001
0001
,
0001
0000
0000
0002
0000
0000
0000
0000
,
0000
0000
0003
0000
,
0010
0000
0000
0010
0000
0000
0000
0000
,
0100
0000
0000
0100
0000
0000
0000
0000
,
1000
0000
1000
0000
,
1000
0000
0000
1000
0000
0000
0000
0000
,
0001
0001
0001
0001
,
0001
0000
0100
0000
,
0200
0000
0300
0000
,
0010
0000
0000
0010
0000
0010
0000
0000
;

//---------------dance-single - Ace Of Arrows (2019)----------------
#NOTES:
     dance-single:
     Ace Of Arrows (2019):
     Beginner:
     2:
     0.180,0.070,0.008,0.396,0.000:
0000
0000
0000
0000
,
2000
0000
0000
0000
,
3000
0000
0001
0000
,
0001
0000
0002
0000
,
0000
0000
0003
0000
,
0010
0000
0010
0000
,
0020
0000
0030
0000
,
0002
0000
0003
0000
,
1000
0000
1000
0000
,
2000
0000
0000
0000
,
3000
0000
0100
0000
,
0100
0000
0200
0000
,
0000
0000
0300
0000
,
1000
0000
1000
0000
,
2000
0000
3000
0000
,
0001
0000
0001
0000
,
0002
0000
0003
0000
,
2000
0000
3000
0000
,
0010
0000
0010
0000
,
0020
0000
0030
0000
,
0100
0000
0100
0000
,
0000
0000
0001
0000
,
0002
0000
0003
0000
,
0000
0000
1000
0000
,
2000
0000
3000
0000
,
0000
0000
0100
0000
,
0200
0000
0300
0000
,
0010
0000
0010
0000
,
0020
0000
0030
0000
,
0001
0000
0001
0000
,
0002
0000
0003
0000
,
1000
0000
2000
0000
,
0000
0000
3000
0000
,
0010
0000
0010
0000
,
0020
0000
0030
0000
,
0100
0000
0200
0000
,
0300
0000
0002
0000
,
0003
0000
0002
0000
,
0003
0000
0000
0000
,
1000
0000
1000
0000
,
2000
0000
3000
0000
,
0100
0000
0100
0000
,
0200
0000
0000
0000
,
0300
0000
0000
0000
,
0020
0000
0030
0000
,
0020
0000
0030
0000
,
0001
0000
0001
0000
,
0002
0000
0003
0000
,
2000
0000
3000
0000
,
0002
0000
0000
0000
,
0003
0000
0100
0000
,
0100
0000
0200
0000
,
0000
0000
0300
0000
,
0010
0000
0010
0000
,
0020
0000
0030
0000
,
2000
0000
3000
0000
,
0001
0000
0001
0000
,
0002
0000
0000
0000
,
0003
0000
0010
0000
,
0010
0000
0020
0000
,
0000
0000
0030
0000
,
0200
0000
0300
0000
,
0200
0000
0300
0000
,
1000
0000
1000
0000
,
2000
0000
3000
0000
,
0002
0000
0003
0000
,
0100
0000
0100
0000
,
0200
0000
0300
0000
,
0010
0000
0010
0000
,
0020
0000
0030
0000
,
2000
0000
3000
0000
,
4000
0000
3000
0000
,
0000
0000
0001
0000
,
0002
0000
0003
0000
,
0100
0000
0100
0000
,
0200
0000
0300
0000
,
0002
0000
0003
0000
,
2002
0000
0000
0000
,
3003
0000
1000
0000
,
1000
0000
0000
2000
0000
0000
0000
0000
,
0000
0000
3000
0000
,
0002
0000
0000
0003
0000
0000
0000
0000
,
0002
0000
0000
0003
0000
0000
0000
0000
,
0100
0000
0100
0000
,
0200
0000
0000
0300
0000
0000
0000
0000
,
0002
0000
0003
0000
,
1000
0000
1000
0000
,
2000
0000
3000
0000
,
0010
0000
0000
0010
0000
0000
0000
0000
;
