#TITLE:The Great YuruYuri Incident;
#SUBTITLE:(Pastel*Palettes Cover);
#ARTIST:Nanamori Middle School Amusement Club;
#TITLETRANSLIT:;
#SUBTITLETRANSLIT:;
#ARTISTTRANSLIT:;
#GENRE:;
#CREDIT:Ace Of Arrows;
#BANNER:The Great YuruYuri Incident (PP) - Bn.png;
#BACKGROUND:The Great YuruYuri Incident (PP).png;
#LYRICSPATH:;
#CDTITLE:Ace Of Arrows.png;
#MUSIC:The Great YuruYuri Incident (Pastel Palettes Cover).ogg;
#OFFSET:1.042;
#SAMPLESTART:55.700;
#SAMPLELENGTH:12.000;
#SELECTABLE:YES;
#BPMS:0.000=175.000;
#STOPS:;
#BGCHANGES:;
#KEYSOUNDS:;

//---------------dance-single - AceOfArrows (2019)----------------
#NOTES:
     dance-single:
     AceOfArrows (2019):
     Hard:
     8:
     0.661,0.000,0.050,1.000,0.010: // measure 1
0000
0000
0000
0000
,  // measure 2
0000
0000
0000
0000
,  // measure 3
0000
0000
0000
0000
,  // measure 4
0002
0000
1003
0100
0000
0010
0000
0010
,  // measure 5
0000
0010
0000
0010
0200
1300
0200
0310
,  // measure 6
0002
0000
1003
0010
0000
1000
0000
1000
,  // measure 7
0000
1000
0000
1000
0002
0013
0002
1003
,  // measure 8
0020
0000
0130
0001
0000
0100
0000
0100
,  // measure 9
0000
0100
0000
0100
0020
1030
0020
0130
,  // measure 10
0001
0000
2000
0000
3100
0020
0030
0011
,  // measure 11
0000
0001
0010
0100
1000
0100
0010
0001
,  // measure 12
2000
0000
0000
3001
0010
0200
0000
0000
,  // measure 13
0320
0000
0000
0031
1000
0200
0000
1300
,  // measure 14
0001
0100
0001
1000
0010
0100
0000
0001
,  // measure 15
1000
0100
0020
0000
0030
0000
0004
0000
,  // measure 16
2003
0000
0000
3100
0010
0200
0000
0000
,  // measure 17
2300
0000
0000
3001
0100
0002
0000
0000
,  // measure 18
1003
0100
0010
0001
0010
0100
0000
1000
,  // measure 19
0001
1000
0020
0000
0030
0000
0400
0000
,  // measure 20
0301
1000
0001
0020
0000
0000
0030
0000
,  // measure 21
0001
1000
0100
0020
0000
0000
0030
0000
,  // measure 22
0100
1000
0001
1000
0010
0100
0001
0100
,  // measure 23
0020
0000
1030
0001
0000
0010
0001
0000
,  // measure 24
1000
0001
0010
0100
1000
0001
0000
1000
,  // measure 25
0010
0100
0001
2000
0000
3100
0010
0100
,  // measure 26
1000
0001
0100
0010
1000
0001
0020
0000
,  // measure 27
0230
0000
1300
0002
0000
0003
0000
1000
,  // measure 28
0010
0100
0010
1000
0001
0010
0000
0100
,  // measure 29
1000
0001
0010
0200
0000
1300
0001
0100
,  // measure 30
0010
1000
0001
0010
0100
1000
0100
0010
,  // measure 31
0002
0000
1003
0200
0000
1300
0001
1000
,  // measure 32
0020
0000
0130
0002
0000
0000
1003
0100
,  // measure 33
1000
0001
0010
0200
0000
0300
0000
0000
,  // measure 34
2000
0000
3001
0200
0000
0000
0310
0000
,  // measure 35
2000
0000
3001
0020
0000
0030
0000
0100
,  // measure 36
2000
0000
3001
0020
0000
0032
0000
0000
,  // measure 37
1003
0001
0100
0020
0000
0130
0001
1000
,  // measure 38
0001
0010
0001
0010
0001
0000
1000
0000
0010
0000
0100
0000
0001
0000
1000
0000
,  // measure 39
0001
0010
0100
2000
0000
0000
0000
3000
,  // measure 40
1001
0000
0000
0000
,  // measure 41
0001
0100
0010
2000
0000
0000
3000
0000
,  // measure 42
1001
0001
0010
0200
0000
1300
0001
0100
,  // measure 43
0020
0000
0000
2030
0000
3001
0010
0100
,  // measure 44
0020
0000
0000
0032
0000
1003
0010
0100
,  // measure 45
0002
0000
0000
2003
0000
3010
0100
0001
,  // measure 46
0200
0000
0320
2030
,  // measure 47
3002
0003
2000
3000
,  // measure 48
0200
0000
0320
0032
,  // measure 49
1003
0010
0100
0002
0000
0000
0000
0000
,  // measure 50
1003
0100
0010
0200
0000
1300
0001
0100
,  // measure 51
0020
0000
0000
0230
0000
0301
1000
0100
,  // measure 52
0020
0000
0000
0230
0000
1300
0001
0100
,  // measure 53
0002
0000
0000
2003
0000
3100
0010
0001
,  // measure 54
0020
0000
0230
2300
,  // measure 55
3002
0003
0200
0300
,  // measure 56
0020
0230
0302
2003
,  // measure 57
3001
0100
0010
0200
0000
0000
0000
0000
,  // measure 58
0301
1000
0100
0040
0000
0000
0000
0130
,  // measure 59
2000
3001
0200
0320
,  // measure 60
2030
0000
3002
0000
1003
0100
0010
0001
,  // measure 61
1000
0020
0230
0302
,  // measure 62
2003
0000
3200
0000
0310
0001
1000
0010
,  // measure 63
0200
0302
2003
3200
,  // measure 64
0320
0000
0230
0000
1300
0001
2000
0000
,  // measure 65
3200
0000
0310
0001
0000
1000
0000
1000
,  // measure 66
0000
1000
0000
1000
0002
0103
0002
1003
,  // measure 67
0200
0000
0310
0001
0000
0010
0000
0010
,  // measure 68
0000
0010
0000
0010
0200
1300
0200
0310
,  // measure 69
0002
0000
1003
0010
0000
0100
0000
0100
,  // measure 70
0000
0100
0000
0100
0002
0103
0002
1003
,  // measure 71
0200
0000
0320
0000
0031
2000
3000
1010
,  // measure 72
0010
0100
0001
1000
0000
0000
2200
0000
,  // measure 73
0000
0000
0000
3300
0000
0000
0000
0000
;

//---------------dance-single - Ace Of Arrows (2019)----------------
#NOTES:
     dance-single:
     Ace Of Arrows (2019):
     Challenge:
     11:
     1.000,0.000,1.000,1.000,0.404:
0000
0000
0000
0000
,
0000
0000
0000
0000
,
0000
0000
0000
0000
,
2001
0000
3010
0210
0000
0302
0003
1001
,
0000
1001
0000
0001
0102
1003
2100
3001
,
0201
0000
0310
2010
0000
3002
0003
1001
,
0000
0011
0000
0010
0012
1003
2010
3001
,
0021
0000
0130
0210
0000
2300
3000
1001
,
0000
1100
0000
0100
0120
0031
0021
0130
,
2100
0000
3002
0003
0201
0320
0030
1010
,
0000
0000
1000
0000
0001
0010
0001
0010
0100
1000
0100
1000
0001
1000
0001
0100
,
0020
0000
1030
0001
1000
0000
0100
0000
0010
0001
0010
0000
0100
0000
1000
0000
,
1002
0000
0103
0010
0100
0000
0001
0000
1000
0100
1000
0000
0001
0000
0100
0000
,
0010
0000
1000
0001
1000
0000
0100
0010
0100
0000
1000
0100
1000
0000
0001
0100
,
0001
0000
1000
0000
0200
0000
0000
0000
0000
0000
0000
0000
0310
0001
1000
0001
,
0020
0000
0031
1000
0001
0000
0100
0000
0010
1000
0010
0000
0100
0000
0001
0000
,
2001
0000
3100
0010
0100
0000
1000
0000
0001
0100
0001
0000
1000
0000
0100
0000
,
0010
0000
0001
0010
0001
0000
1000
0010
1000
0000
0001
0100
0001
0000
1000
0001
,
1000
0000
0100
0000
0020
0000
0000
0000
0000
0000
0000
0000
0031
1000
0100
1000
,
0001
0100
0010
2020
0030
3001
0010
0100
,
2100
3001
0100
0220
0300
1030
0001
0010
,
0100
1000
0100
1000
0001
0100
0001
0100
0010
1000
0010
1000
0001
0010
0001
0010
,
0200
0000
1300
1001
0000
0001
0101
0000
,
0200
0000
0310
1000
0001
0000
0010
0000
0110
0000
0200
0000
0000
0000
1300
0000
,
1001
0001
0100
0120
0000
1030
1001
0001
,
0011
0010
0100
1000
1001
0001
0200
0300
,
0120
0000
1030
0001
0020
0130
1000
0001
,
0021
0000
0130
1000
0001
0000
1000
0000
1020
0000
0230
0000
0000
0000
0301
0000
,
1001
1000
0100
0120
0000
0031
1000
0010
,
0110
0100
0001
1000
1100
0100
0010
0001
,
2001
0000
3010
0100
0002
1003
0100
0010
,
0012
0000
1003
1010
0020
0000
0230
0300
,
0101
0001
1000
1100
0200
0000
0320
0030
,
0012
0000
1003
1010
0020
0000
0230
0300
,
0102
0000
1003
1100
0200
0000
0310
0001
,
2001
0000
3010
0210
0000
0002
0300
0003
,
1001
1000
0100
0120
0000
0031
1000
0010
,
0100
0001
1000
0001
0100
0000
0010
1000
0010
0000
1000
0001
1000
0000
0100
0010
,
0100
1000
0002
0200
0000
0000
0303
0000
,
0211
0000
0320
0000
2030
0000
3002
0003
,
0011
0010
0100
1000
0002
0000
2003
3000
,
1020
0130
0001
1000
0100
0010
0001
1000
,
1020
0000
0130
0001
1000
0000
0200
0000
0000
0000
0310
0001
1000
0000
0010
0000
,
0210
0000
0301
1000
0100
0000
0120
0000
0000
0000
0031
1000
0010
0000
0100
0000
,
0102
0000
1003
0100
0010
0000
0012
0000
0000
0000
1003
0010
0100
0000
0001
0000
,
2001
0000
3100
0010
0001
0000
1000
0000
1020
0000
0130
0001
1000
0001
0100
0000
,
0120
0000
1030
0001
1000
0000
0100
0000
0120
0000
0031
0010
0001
0000
1000
0000
,
1020
0000
0130
0001
0100
0000
0010
0000
1000
0001
1000
0000
0100
0000
0010
0001
,
0020
0000
0130
0000
1000
0000
1002
0000
0000
0000
0103
0010
0100
0000
0001
0000
,
2001
0000
3100
0010
0100
0000
1000
0000
0001
0100
0001
0100
0010
1000
0010
1000
,
0002
0000
0013
0100
1000
0000
1002
0000
0000
0000
0103
0010
1000
0000
0001
0000
,
0021
0000
0130
1000
0001
0000
0201
0000
0000
0000
0310
1000
0001
0000
0100
0000
,
0120
0000
1030
0001
0010
0000
0210
0000
0000
0000
1300
0001
0100
0000
0010
0000
,
2010
0000
3001
0010
0100
0000
1000
0000
0001
0100
0001
0100
0010
1000
0010
1000
,
0002
0000
0013
0100
0010
0000
0001
0000
2001
0000
3010
0100
0010
0000
1000
0000
,
1002
0000
0013
0100
0010
0000
0001
0000
1000
0100
1000
0000
0001
0000
0100
0010
,
0100
0001
1000
1200
0000
0310
0001
1000
,
1010
0000
0010
0000
0100
0000
0102
0000
1003
0100
1000
0100
0010
0001
0010
0001
,
2000
0000
3020
0000
0230
0000
0302
0003
,
2001
0000
3200
0300
0110
0010
0001
1000
,
1020
0000
0230
0000
0302
0000
2003
3000
,
1200
0000
0320
0030
0011
0001
1000
0010
,
0210
0000
0302
0000
2003
0000
3200
0300
,
0120
0000
0032
0003
1001
1000
0020
0030
,
0210
0000
0301
2001
0000
3200
0300
0110
,
0000
0011
0000
0001
2001
3010
2010
3001
,
0021
0000
0130
2100
0000
3002
0003
0101
,
0000
1010
0000
1000
1002
0103
0102
1003
,
1200
0000
0310
0012
0000
2003
3000
1010
,
0000
0110
0000
0100
0102
1003
2100
3001
,
0201
0000
0320
0030
1010
2000
3000
1001
,
0011
0010
0100
1100
0000
0000
2202
0000
,
0000
0000
0000
3303
0000
0000
0000
0000
;

//---------------dance-single - Ace Of Arrows (2019)----------------
#NOTES:
     dance-single:
     Ace Of Arrows (2019):
     Medium:
     6:
     0.595,0.000,0.030,1.000,0.000:
0000
0000
0000
0000
,
0000
0000
0000
0000
,
0000
0000
0000
0000
,
2000
0000
3001
0020
0000
0130
0000
0100
,
0000
0100
0000
0100
0020
0000
0031
1000
,
0002
0000
1003
0200
0000
0310
0000
0010
,
0000
0010
0000
0010
0200
0000
1300
0001
,
2000
0000
3010
0200
0000
0301
0000
0001
,
0000
0001
0000
0001
2000
0000
3010
0100
,
0020
0000
2030
0000
3001
0020
0000
0230
,
0000
4300
0000
0000
,
3002
0000
0000
1003
0010
2000
0000
0000
,
3020
0000
0000
0130
0001
0200
0000
0000
,
0301
1000
0001
0000
0010
0000
0100
0000
,
1000
0100
2000
0000
3000
0000
0004
0000
,
0023
0000
0000
0031
1000
0002
0000
0000
,
0203
0000
0000
0310
1000
0020
0000
0000
,
1030
0001
1000
0000
0100
0000
0010
0000
,
0001
0010
0002
0000
4003
0000
0000
0000
,
3020
0000
0130
0002
0000
0000
0003
0000
,
2000
0000
3100
0020
0000
0000
0030
0000
,
0001
1000
0001
0000
0100
0000
0010
1000
,
0020
0030
0000
0000
,
1000
0001
1000
0000
0001
0020
0000
0000
,
0032
0000
1003
0200
0000
0310
0002
0000
,
1003
0010
1000
0000
0001
1000
0002
0000
,
0023
0000
0130
2000
0000
0000
3000
0000
,
0001
0100
0001
0000
1000
0020
0000
1030
,
0002
0000
0013
0200
0000
1300
0002
0000
,
1003
0010
1000
0000
0001
0010
0002
0000
,
2003
0000
3100
0020
0000
0000
0030
0000
,
0002
0000
1003
0020
0000
0000
0230
0000
,
0302
0000
1003
0020
0000
0000
0030
0000
,
2000
0000
3001
0020
0000
0000
0032
0000
,
2003
0000
3010
0200
0000
0000
0000
0301
,
2000
0000
3001
0020
0000
0230
0000
0000
,
2300
0000
3001
0020
0000
0031
2000
0000
,
3004
0000
0000
0003
,
0020
0000
0130
2000
0000
0000
3000
0000
,
1001
0000
0000
0000
,
0002
0000
0103
0020
0000
0000
0030
0000
,
1010
0000
0000
2000
0000
3001
0010
0000
,
0200
0000
0000
2300
0000
3001
0100
0000
,
0020
0000
0000
0230
0000
0301
1000
0000
,
0200
0000
0000
0320
0000
0031
1000
0000
,
0020
0000
0230
0302
,
2003
3000
0200
0300
,
0020
0030
0002
2003
,
3020
0000
0130
0002
0000
0000
0000
0000
,
2003
0000
3100
0020
0000
0130
1000
0000
,
0002
0000
0000
2003
0000
3010
0100
0000
,
0002
0000
0000
2003
0000
3100
0010
0000
,
0200
0000
0000
2300
0000
3001
0100
0000
,
0020
0000
2030
3002
,
0023
0030
0200
0300
,
2000
3002
0203
0320
,
2030
0000
3001
0020
0000
0000
0000
0000
,
0230
0000
1300
0004
0000
0000
0000
1003
,
0020
0230
0302
2003
,
3002
0000
0023
0000
0031
1000
0002
0000
,
2003
3020
0230
0302
,
2003
0000
3200
0000
0310
0001
0020
0000
,
0230
2300
3002
0203
,
0320
0000
2030
0000
3001
1000
0002
0000
,
0023
0000
0130
2000
0000
3001
0000
0001
,
0000
0001
0000
0001
2000
0000
3010
0100
,
0020
0000
1030
0002
0000
0013
0000
0010
,
0000
0010
0000
0010
0200
0000
1300
0001
,
2000
0000
3001
0020
0000
0130
0000
0100
,
0000
0100
0000
0100
2000
0000
3001
0010
,
0002
0000
2003
0000
3010
0200
0000
0302
,
0000
1003
0001
1000
0000
0000
2002
0000
,
0000
0000
0000
3003
0000
0000
0000
0000
;

//---------------dance-single - Ace Of Arrows (2019)----------------
#NOTES:
     dance-single:
     Ace Of Arrows (2019):
     Easy:
     4:
     0.285,0.000,0.010,0.349,0.000:
0000
0000
0000
0000
,
0000
0000
0000
0000
,
0000
0000
0000
0000
,
0001
0000
0000
1000
0000
1000
0000
1000
,
0000
0000
0010
0010
,
0010
0000
0000
0100
0000
0100
0000
0100
,
0000
0000
0001
0001
,
0001
0000
0000
1000
0000
1000
0000
1000
,
0000
0000
0100
0100
,
0200
0000
0300
0000
0010
0000
0000
0010
,
0000
0000
0000
0000
,
0001
0000
0001
0000
,
1000
0000
1000
0000
,
0010
0010
0010
0000
,
0200
0000
0300
0000
,
0010
0000
0010
0000
,
1000
0000
1000
0000
,
0001
0001
0001
0000
,
2000
0000
3000
0000
,
0100
0000
0000
0200
0000
0000
0300
0000
,
0010
0000
0000
0020
0000
0000
0030
0000
,
0001
0001
0001
0000
,
0001
0000
0000
0000
,
1000
1000
1000
0000
,
0010
0000
0000
0010
0000
0000
0000
0000
,
0100
0100
0100
0000
,
0001
0000
0000
0002
0000
0000
0003
0000
,
1000
1000
1000
0000
,
0100
0000
0000
0100
0000
0000
0000
0000
,
0010
0010
0010
0000
,
0001
0000
0000
0002
0000
0000
0003
0000
,
1000
0000
0000
2000
0000
0000
3000
0000
,
0010
0000
0000
0020
0000
0000
0030
0000
,
0100
0000
0000
0200
0000
0000
0300
0000
,
0001
0000
0000
0002
0000
0000
0003
0000
,
1000
0000
0000
2000
0000
0000
3000
0000
,
0100
0000
0000
0200
0000
0000
0300
0000
,
4000
0000
0000
3000
,
0001
0000
0000
0002
0000
0000
0000
0000
,
0003
0000
0000
0000
,
0010
0000
0000
0020
0000
0000
0000
0000
,
0030
0000
0000
0100
0000
0000
0100
0000
,
0200
0000
0300
1000
0000
0000
1000
0000
,
2000
0000
3000
0001
0000
0000
0001
0000
,
0002
0000
0003
0010
0000
0000
0010
0000
,
0020
0030
0001
0001
,
0002
0003
0002
0003
,
2000
3000
2000
3000
,
0010
0000
0000
0020
0000
0000
0000
0000
,
0030
0000
0000
0100
0000
0000
0100
0000
,
0200
0000
0300
0001
0000
0000
0001
0000
,
0002
0000
0003
1000
0000
0000
1000
0000
,
2000
0000
3000
0100
0000
0000
0100
0000
,
0200
0300
0010
0010
,
0020
0030
0020
0030
,
0001
0001
0001
0000
,
1000
0000
0000
2000
0000
0000
3000
0000
,
0004
0000
0000
0003
,
0010
0010
0010
0000
,
0100
0100
0100
0000
,
1000
1000
1000
0000
,
0001
0001
0001
0000
,
0100
0100
0100
0000
,
0010
0010
0010
0000
,
1000
0000
0000
0001
0000
0001
0000
0001
,
0000
0000
0010
0010
,
0010
0000
0000
0100
0000
0100
0000
0100
,
0000
0000
1000
1000
,
1000
0000
0000
0001
0000
0001
0000
0001
,
0000
0000
0020
0030
,
0001
0000
0001
0000
0001
0000
0000
0002
,
0000
0000
0000
0003
0000
0000
2002
0000
,
0000
0000
0000
3003
0000
0000
0000
0000
;

//---------------dance-single - Ace Of Arrows (2019)----------------
#NOTES:
     dance-single:
     Ace Of Arrows (2019):
     Beginner:
     2:
     0.178,0.000,0.000,0.359,0.000:
0000
0000
0000
0000
,
0000
0000
0000
0000
,
0000
0000
0000
0000
,
1000
0000
1000
0000
,
2000
0000
3000
0000
,
0001
0000
0001
0000
,
0002
0000
0003
0000
,
0010
0000
0010
0000
,
0020
0000
0030
0000
,
0100
0000
0100
0000
,
0200
0000
0300
0000
,
2000
0000
3000
0000
,
2000
0000
3000
0000
,
4000
0000
0000
0000
,
3000
0000
0000
0000
,
0020
0000
0030
0000
,
0020
0000
0030
0000
,
0040
0000
0000
0000
,
0030
0000
0000
0000
,
0200
0000
0300
0000
,
0200
0000
0300
0000
,
0001
0000
0001
0000
,
0002
0000
0003
0000
,
1000
0000
1000
0000
,
2000
0000
3000
0000
,
0100
0000
0100
0000
,
0200
0000
0300
0000
,
0010
0000
0010
0000
,
0020
0000
0030
0000
,
0001
0000
0001
0000
,
0002
0000
0003
0000
,
1000
0000
1000
0000
,
2000
0000
3000
0000
,
0010
0000
0010
0000
,
0020
0000
0030
0000
,
0100
0000
0100
0000
,
0200
0000
0300
0000
,
0004
0000
0003
0000
,
0002
0000
0000
0000
,
0003
0000
0000
0000
,
2000
0000
0000
0000
,
3000
0000
0100
0000
,
0100
0000
0200
0000
,
0300
0000
0010
0000
,
0010
0000
0020
0000
,
0030
0000
0000
0000
,
0001
0000
0001
0000
,
0002
0000
0003
0000
,
2000
0000
0000
0000
,
3000
0000
0001
0000
,
0001
0000
0002
0000
,
0003
0000
0100
0000
,
0100
0000
0200
0000
,
0300
0000
0000
0000
,
0010
0000
0010
0000
,
0020
0000
0030
0000
,
0200
0000
0000
0000
,
0300
0000
0000
0000
,
0001
0000
0001
0000
,
0002
0000
0003
0000
,
1000
0000
1000
0000
,
2000
0000
3000
0000
,
0100
0000
0100
0000
,
0200
0000
0300
0000
,
0010
0000
0010
0000
,
0020
0000
0030
0000
,
0001
0000
0001
0000
,
0002
0000
0003
0000
,
1000
0000
1000
0000
,
2000
0000
3000
0000
,
0001
0000
0001
0000
,
0002
0000
0003
0200
,
0000
0000
0000
0300
0000
0000
0000
0000
;
