#TITLE:Summer Void;
#SUBTITLE:;
#ARTIST:SpringHead;
#TITLETRANSLIT:;
#SUBTITLETRANSLIT:;
#ARTISTTRANSLIT:;
#GENRE:;
#CREDIT:Ace Of Arrows;
#BANNER:Summer Void - Bn.png;
#BACKGROUND:Summer Void - Bg.jpg;
#LYRICSPATH:;
#CDTITLE:Ace Of Arrows.png;
#MUSIC:Summer Void.ogg;
#OFFSET:0.580;
#SAMPLESTART:63.100;
#SAMPLELENGTH:12.000;
#SELECTABLE:YES;
#BPMS:0.000=128.000,40.000=64.000,56.000=128.000,88.000=64.000,104.000=128.000,169.000=256.000,169.500=128.000,170.000=256.000,170.500=128.000,170.750=256.000,171.250=128.000,174.000=256.000,174.500=128.000,174.750=256.000,175.250=128.000,177.000=256.000,177.500=128.000,180.000=256.000,181.500=128.000,182.000=256.000,182.250=64.000,182.375=128.000,182.500=256.000,182.750=64.000,182.875=128.000,183.000=256.000,183.500=128.000,185.000=256.000,185.500=128.000,186.000=256.000,186.500=128.000,186.750=256.000,187.250=128.000,190.000=256.000,190.500=128.000,190.750=256.000,191.250=128.000,193.000=256.000,193.500=128.000,198.250=256.000,198.750=128.000,202.000=64.000,204.000=32.000,205.000=16.000;
#DISPLAYBPM:64.000:128.000;
#STOPS:169.000=0.117
,170.000=0.117
,170.750=0.117
,174.000=0.117
,174.750=0.117
,177.000=0.117
,180.000=0.059
,180.250=0.059
,180.500=0.059
,180.750=0.059
,181.000=0.059
,181.250=0.059
,183.000=0.059
,183.250=0.059
,185.000=0.117
,186.000=0.117
,186.750=0.117
,190.000=0.117
,190.750=0.117
,193.000=0.117
,198.250=0.117
;
#BGCHANGES:;
#KEYSOUNDS:;

//---------------dance-single - Ace Of Arrows (2019)----------------
#NOTES:
     dance-single:
     Ace Of Arrows (2019):
     Hard:
     8:
     0.530,0.021,0.083,0.998,0.287:
0000
0000
0000
0000
,
0004
0000
0000
0000
,
2003
3100
0010
0100
2000
3001
1000
0001
,
0020
0000
0130
0000
1000
0100
1000
0000
0002
0000
0103
0000
0010
0000
0100
0000
,
0002
1003
0100
0010
0002
0013
0100
1000
,
0001
0010
0001
0000
2000
0000
3001
0000
1000
0010
1000
0000
0002
0000
0003
0000
,
0022
0000
0000
0003
0000
0230
0000
2000
,
0000
0000
0000
0300
0000
3001
0100
0010
,
2000
3001
0010
0100
0020
0031
1000
0010
,
1000
0001
1000
0000
0100
0000
0010
0000
0002
0000
0000
0000
1003
0000
0010
0000
,
2000
0000
0000
3002
0000
0000
0023
0000
0230
0000
0000
0000
0300
0000
1000
0001
,
2000
0000
0000
0000
3000
0000
0020
0000
0230
0000
0000
0302
0000
0000
1003
0100
,
2000
0000
0000
3002
0000
0000
0023
0000
0230
0000
0000
0000
0300
0000
2000
0000
,
3002
0000
0000
0000
0003
0000
0010
0100
0020
0000
0000
0032
0000
0000
1003
0000
,
1020
0230
0301
1000
0200
0310
0002
1003
,
0010
0000
0200
0000
0301
0000
1000
0000
0010
0100
0020
0000
2030
0000
3001
0000
,
0010
0000
0001
1000
0002
0000
0103
0000
0010
0100
0010
0000
1000
0010
1000
0000
,
0002
0000
0013
0000
0100
0000
0010
0000
0002
0000
1003
0010
2000
0000
3001
0000
,
0010
0100
0020
0000
0031
1000
0002
0000
1003
0010
1000
0000
0002
0000
0023
0000
,
0230
0000
2300
0000
3002
0000
0000
0000
1003
0100
2000
0000
3002
0000
0203
0000
,
0320
0000
1030
0001
2000
0000
0000
0000
3002
0000
0023
0000
0230
0000
2300
0000
,
3001
0010
0002
0000
1003
0001
2000
0000
3010
0000
0100
0000
0102
0000
0000
0000
,
2003
0000
0000
3200
0000
0310
0001
0010
0100
1000
0001
0010
0001
1000
0100
1000
,
0002
0000
0000
0000
0000
1003
0010
0100
0002
0000
0000
2003
0000
3001
0010
0100
,
2000
0000
0000
0000
3001
0000
0010
0000
0002
0000
0000
0000
0013
0000
0100
0000
0020
0000
0000
0032
0000
0000
1003
0000
0020
0000
0000
2030
0000
0000
3001
0000
,
0200
0000
0320
0000
1030
0001
0010
0001
4000
0000
0000
0000
3001
0010
0100
1000
,
2002
0000
0000
0000
0000
0000
0000
0000
3003
0000
0001
0010
0002
0000
1003
0000
,
0020
0230
0302
1003
,
2200
0000
0000
0000
0000
0000
0000
0000
3300
0000
0100
0010
0200
0000
1300
0000
,
0002
2003
3020
0130
,
0202
0000
0000
0000
0000
0000
0000
0000
0303
0000
0100
0010
0200
0000
0301
0000
,
2000
0000
0000
0000
3000
0000
0100
0000
0020
0000
0000
0032
0000
0000
1003
0000
,
0020
0000
0000
0000
0000
0000
0000
0030
,
0000
0200
0302
1003
,
2200
0000
0000
0000
0000
0000
0000
0000
3300
0000
0100
0010
0200
0000
1300
0000
,
0002
0203
0320
1030
,
2002
0000
0000
0000
0000
0000
0000
0000
3003
0000
0001
0010
0002
0000
1003
0000
,
0020
0230
0302
1003
,
2020
0000
0000
0000
,
0000
0000
3030
2000
,
3004
0400
0000
0000
0000
0000
0000
0000
0000
0000
0000
0000
0303
0000
0004
4000
,
0000
0000
3003
1001
,
0002
0000
0000
0000
1003
0000
0100
0000
0020
0000
0031
1000
0000
1000
0010
0000
,
0400
0000
0000
0000
0304
0000
0000
0000
1003
0000
0001
0100
0000
0100
0010
0000
,
4000
0000
0000
0000
3001
0000
0020
0000
0031
1000
0002
0000
0103
0000
0010
0000
,
4000
0004
0000
0000
0000
0000
3003
0000
0004
0000
0000
0000
1003
0100
4000
0000
,
3001
0000
0100
0000
0001
0000
2000
0000
3001
0000
0100
0010
0000
0010
2000
0000
,
3004
0400
0000
0000
0000
0000
0303
0000
0001
0000
0001
1000
0000
1000
0400
0000
,
0000
0000
0310
0000
0001
0000
2000
0000
3001
0010
0002
0000
1003
0001
2000
0000
,
3040
0000
0000
0000
0130
0000
0001
0000
1000
0100
0000
0400
0000
0000
0000
0000
,
2300
0000
0000
0000
,
0000
0000
0000
3000
0000
0000
0000
0000
;

//---------------dance-single - Ace Of Arrows (2019)----------------
#NOTES:
     dance-single:
     Ace Of Arrows (2019):
     Challenge:
     10:
     0.737,0.021,0.116,0.990,0.732:
0000
0000
0000
0000
,
4000
0000
0000
0000
,
3002
0013
0100
1000
0200
0310
0001
1000
,
0200
0000
1300
0000
0001
0010
0100
0010
0002
0000
1003
0000
0010
0000
0100
0000
,
0002
1003
0010
0100
0002
0103
0010
1000
,
0001
0000
0000
0100
0000
0000
0010
0000
0000
0100
0000
0000
0002
0000
0000
0000
0000
0000
1003
0000
0000
0000
0000
0000
0100
0000
0000
0010
0000
0000
0001
0000
0000
0010
0000
0000
0200
0000
0000
0000
0000
0000
1300
0000
0100
0000
0010
0000
,
0002
0000
0000
0000
0000
2003
0000
3020
,
0000
0000
0130
0000
0001
1000
0100
1000
0002
0000
0103
0000
0010
0000
1000
0000
,
0002
0013
0100
1000
0002
0103
0010
1000
,
0001
0000
0000
0010
0000
0000
0100
0000
0000
0010
0000
0000
0002
0000
0000
0000
0000
0000
1003
0000
0010
0000
0100
0000
0002
0000
0000
0000
0000
0000
0000
0000
0000
0000
0000
0000
2003
0000
0000
0000
0000
0000
3100
0000
0000
0000
0000
0000
,
0020
0000
0000
0130
1000
0000
0002
0000
0000
0103
0010
0000
1000
0000
0001
0000
2000
0000
0000
3100
0010
0000
0001
1000
0002
0000
0013
0000
0100
0000
1000
0000
,
0002
0000
0000
1003
0010
0000
0200
0000
0000
0301
1000
0000
0100
0000
0010
0000
0200
0000
0000
1300
0001
0000
0010
0000
0100
0020
0000
0000
0031
0000
1000
0000
,
0020
0000
0000
0130
0001
0000
1000
0000
0100
0000
0010
0001
0010
0000
0100
0000
2000
0000
0000
3002
0000
0000
0203
0000
0000
0301
1000
0000
0100
0000
0010
0000
,
0200
0000
0000
1300
0000
0000
0002
0000
0000
0103
0000
0000
0010
0000
0100
0000
0002
0000
0000
1003
0000
0000
0200
0000
0000
0310
0001
0000
1000
0000
0010
0000
,
0210
0302
1003
0100
0020
0130
2000
3001
,
0100
0000
0020
0000
1030
0000
0001
0000
1000
0100
2000
0000
3002
0000
0103
0000
,
0010
0000
1000
0001
2000
0000
3001
0000
1000
0100
0010
0001
1000
0001
0010
0100
,
2000
0000
3002
0000
0103
0000
0010
0000
2000
0000
3001
0010
0002
0000
2003
0000
,
3100
0010
0200
0000
1300
0001
2000
0000
3001
0100
0010
0100
0002
0000
2003
0000
,
3200
0000
0320
0000
0032
0000
0000
0000
1003
0010
2000
0000
3002
0000
0023
0000
,
0230
0000
1300
0001
2000
0000
0000
0000
3010
0000
0100
0000
0001
0000
1000
0000
,
0100
0010
0200
0000
1300
0100
0010
0100
2000
0000
3001
0000
0401
0000
0000
0000
,
0320
0000
0000
0000
0000
0000
2030
0000
0000
0000
3001
0000
0100
0000
0002
0000
1003
0100
2000
0000
3001
0010
0002
0000
1003
0100
0010
0001
1000
0001
0010
0100
,
2000
0000
0000
0000
0000
3001
1000
0001
0200
0000
0000
0320
0000
1030
0001
0010
,
0200
0000
0000
1300
0001
0000
0100
0000
0020
0000
0000
1030
0001
0000
0010
0000
0200
0000
0000
1300
0001
0000
0100
0000
0020
0000
0000
2030
0000
0000
3001
0000
,
0020
0000
0000
0000
0230
0000
0000
0000
1300
0100
1000
0100
0010
0001
0010
0001
4000
0000
0000
0000
0000
0000
0000
0000
3001
0100
0001
0100
0010
1000
0010
1000
,
2002
0000
0000
0000
0000
0000
0000
0000
3003
0000
0001
0010
0200
0000
1300
0000
,
0002
0000
0203
0000
0320
0000
0230
0300
,
0202
0000
0000
0000
0000
0000
0000
0000
0303
0000
0001
1000
0200
0000
0310
0000
,
0002
0000
2003
0000
3002
0000
0203
0300
,
0220
0000
0000
0000
0000
0000
0000
0000
0330
0000
0010
1000
0002
0000
0013
0000
,
0200
0000
0000
0000
0300
0000
1000
0000
1002
0000
0000
0023
0000
0000
0130
0000
,
2200
0000
0000
0000
0000
0000
0000
3300
,
0000
0000
2002
3003
0202
0303
2002
3003
,
2020
0000
0000
0000
3000
0000
0130
0001
0100
0000
0001
1000
0100
0010
0001
0010
,
0100
1000
0001
0000
1000
0000
0010
0100
0010
0000
1000
0000
0001
0010
0100
0010
,
0000
0001
0010
0100
1000
0100
0010
0001
1000
0001
0100
0010
0000
0100
0001
1000
,
0001
0010
0100
0000
1000
0000
0001
0100
0001
0000
1000
0000
0100
0010
0001
0010
,
0100
1000
0100
0000
0010
0000
0001
1000
0001
0000
0100
0000
0010
1000
0001
1000
,
0010
0100
0010
0000
1000
0000
0001
0010
0001
0000
1000
0000
0100
0010
0100
0000
,
0000
1000
0001
0100
0010
1000
0010
0100
0001
1000
0100
0010
0001
0010
0100
1000
,
0001
0100
0010
1000
0010
0100
0001
1000
0001
0000
1000
0000
2200
0000
3000
0000
,
0340
0000
0000
0000
0031
0000
1000
0000
1010
0000
0010
0200
0000
0301
1000
0000
,
0040
0000
0100
0000
4030
0000
0001
0000
3010
0000
0010
0100
0000
0100
0001
0000
,
4001
0000
0010
0000
3001
0000
0020
0000
0130
1000
0100
1000
0001
0100
0001
0100
,
0010
1000
0010
1000
0001
0010
0002
0000
4003
0000
3400
0000
0310
0001
0040
0000
,
0230
0000
2300
0000
3001
0000
0200
0000
0310
0000
0010
0100
0000
0100
0002
0000
,
1003
0100
0010
0001
0010
0100
2000
0000
3001
0000
0001
0010
0000
0010
0400
0000
,
1000
0000
0320
0000
0031
0000
2000
0000
3001
0100
0001
0100
0010
1000
0010
1000
,
0004
0000
0000
0000
1003
0000
0200
0000
0310
0100
0000
1000
0100
0010
0001
1000
,
0002
0000
0000
0000
,
0000
0000
0000
0003
0000
0000
0000
0000
;

//---------------dance-single - Ace Of Arrows (2019)----------------
#NOTES:
     dance-single:
     Ace Of Arrows (2019):
     Medium:
     6:
     0.276,0.021,0.000,0.574,0.012: // measure 1
0000
0000
0000
0000
,  // measure 2
4000
0000
3000
0000
,  // measure 3
0001
0010
0001
0000
1000
0001
1000
0000
,  // measure 4
0010
1000
0040
0000
0030
0000
0000
0000
,  // measure 5
1000
0001
1000
0000
0001
0010
0001
0000
,  // measure 6
4000
3000
0004
0003
,  // measure 7
0020
0000
0000
0000
0000
0230
0000
2300
,  // measure 8
0000
0000
0000
0000
0000
0000
3001
0010
,  // measure 9
0002
0000
1003
0001
2000
0000
3000
0000
,  // measure 10
0040
0030
0400
0300
,  // measure 11
0002
0000
0000
1003
0200
0000
0300
0010
,  // measure 12
0002
0000
0003
1000
0200
0000
0300
1000
,  // measure 13
0002
0000
0000
1003
0020
0000
0030
0100
,  // measure 14
0002
0000
0003
1000
0200
0000
0000
0310
,  // measure 15
0002
2003
3020
0230
,  // measure 16
0302
2003
3200
0320
,  // measure 17
0032
0000
1003
0010
2000
0000
0000
3001
,  // measure 18
0020
0000
0000
0030
0000
0001
1000
0000
,  // measure 19
0020
0000
0000
0000
0230
0000
0301
1000
,  // measure 20
0002
0003
2000
3200
,  // measure 21
0320
0000
0230
0000
1300
0001
2000
0000
,  // measure 22
3020
0000
0000
0030
,  // measure 23
2000
0000
0000
3002
0000
0000
0003
0000
0010
0000
0010
0000
0040
0000
0030
0000
,  // measure 24
0200
0000
0300
1000
2000
0000
0000
3000
,  // measure 25
0001
0001
0001
0000
0100
0100
0100
0000
,  // measure 26
0010
0010
0010
0000
4000
0000
3000
0000
,  // measure 27
0002
0000
0000
0000
0003
1000
0100
0000
,  // measure 28
0020
0032
2003
3010
,  // measure 29
0200
0000
0000
0000
0300
0001
1000
0000
,  // measure 30
0200
0320
0032
1003
,  // measure 31
0020
0000
0000
0000
0030
1000
0001
0000
,  // measure 32
2000
0000
3000
0001
0020
0000
0000
0031
,  // measure 33
2000
0000
0000
0000
0000
0000
0000
3000
,  // measure 34
0000
0002
0203
0310
,  // measure 35
0200
0000
0000
0000
0300
0001
1000
0000
,  // measure 36
0200
0320
0032
1003
,  // measure 37
0002
0000
0000
0000
0003
1000
0010
0000
,  // measure 38
2000
3002
0023
0230
,  // measure 39
2300
0000
0000
0000
,  // measure 40
0000
0000
3000
0002
,  // measure 41
0200
0000
0000
0000
,  // measure 42
0000
0000
0000
0303
,  // measure 43
0004
0000
1003
0100
2000
0000
3000
0000
,  // measure 44
0004
0000
0000
0000
0003
0000
0000
0000
0010
0000
0000
0010
0000
0000
0000
0000
,  // measure 45
0400
0000
0300
0000
1000
0001
1000
0000
,  // measure 46
0040
0030
0400
0300
,  // measure 47
0002
0000
0013
0100
0020
0000
0030
0000
,  // measure 48
0400
0000
0000
0000
0300
0000
0000
0000
1000
0000
0000
1000
0000
0000
0000
0000
,  // measure 49
0004
0000
0003
0000
0100
0010
0100
0000
,  // measure 50
0002
0000
1003
0100
2000
0000
3000
0000
,  // measure 51
0002
0000
0000
0000
,  // measure 52
0000
0000
0000
0003
0000
0000
0000
0000
;

//---------------dance-single - Ace Of Arrows (2019)----------------
#NOTES:
     dance-single:
     Ace Of Arrows (2019):
     Easy:
     4:
     0.192,0.021,0.000,0.316,0.000: // measure 1
0000
0000
0000
0000
,  // measure 2
0004
0000
0003
0000
,  // measure 3
1000
1000
1000
0000
,  // measure 4
0010
0040
0030
0000
,  // measure 5
0100
0100
0100
0000
,  // measure 6
0004
0003
0004
0003
,  // measure 7
2000
0000
0000
0000
0000
3002
0000
0023
,  // measure 8
0000
0000
0000
0130
,  // measure 9
0200
1300
2000
3001
,  // measure 10
0004
0003
0004
0003
,  // measure 11
2000
0000
3000
0100
0200
0000
0300
0010
,  // measure 12
0020
0000
0030
0001
0002
0000
0003
1000
,  // measure 13
2000
0000
3000
0010
0020
0000
0030
0100
,  // measure 14
0200
0000
0300
0001
0002
0000
0003
0000
,  // measure 15
1000
1000
2000
3000
,  // measure 16
0010
0010
0020
0030
,  // measure 17
0100
0100
0200
0300
,  // measure 18
0002
0000
0003
1000
,  // measure 19
2000
3000
0100
0100
,  // measure 20
0200
0300
0020
0030
,  // measure 21
0001
0001
0001
0001
,  // measure 22
0002
0000
0000
0003
,  // measure 23
2000
0000
0000
3000
0000
0000
0000
0000
0100
0000
0100
0000
0200
0000
0000
0000
,  // measure 24
0300
0000
0000
0010
0020
0000
0030
0000
,  // measure 25
0001
0001
0001
0000
1000
1000
1000
0000
,  // measure 26
0010
0010
0010
0000
0400
0000
0300
0000
,  // measure 27
0002
0000
0003
1000
,  // measure 28
1000
1000
1000
0000
,  // measure 29
0200
0000
0300
0010
,  // measure 30
0010
0010
0010
0000
,  // measure 31
0002
0000
0003
1000
,  // measure 32
1000
0000
0010
0010
,  // measure 33
0020
0000
0000
0000
,  // measure 34
0030
0100
0100
0100
,  // measure 35
0200
0000
0300
0001
,  // measure 36
0001
0001
0001
0000
,  // measure 37
2000
0000
3000
0100
,  // measure 38
0100
0100
0100
0000
,  // measure 39
0020
0000
0000
0000
,  // measure 40
0000
0000
0030
0001
,  // measure 41
0002
0000
0000
0000
,  // measure 42
0000
0000
0000
0003
,  // measure 43
4000
3000
2000
3000
,  // measure 44
0040
0030
0020
0030
,  // measure 45
0400
0300
0001
0001
,  // measure 46
0004
0003
4000
0000
,  // measure 47
3000
0100
0200
0300
,  // measure 48
0040
0030
0020
0030
,  // measure 49
0004
0003
1000
1000
,  // measure 50
4000
3000
0200
0300
,  // measure 51
2000
0000
0000
0000
,  // measure 52
0000
0000
0000
3000
0000
0000
0000
0000
;

//---------------dance-single - Ace Of Arrows (2019)----------------
#NOTES:
     dance-single:
     Ace Of Arrows (2019):
     Beginner:
     2:
     0.109,0.021,0.000,0.183,0.000: // measure 1
0000
0000
0000
0000
,  // measure 2
4000
0000
3000
0000
,  // measure 3
0001
0000
0001
0000
,  // measure 4
0002
0000
0003
0000
,  // measure 5
1000
0000
1000
0000
,  // measure 6
2000
0000
3000
0000
,  // measure 7
0020
0000
0000
0000
0000
0000
0000
0030
,  // measure 8
0000
0000
0000
0000
,  // measure 9
0100
0000
0100
0000
,  // measure 10
0200
0000
0300
0000
,  // measure 11
0002
0000
0003
0000
,  // measure 12
1000
0000
1000
0000
,  // measure 13
0100
0000
0100
0000
,  // measure 14
0010
0000
0010
0000
,  // measure 15
0001
0000
0001
0000
,  // measure 16
0002
0000
0003
0000
,  // measure 17
1000
0000
1000
0000
,  // measure 18
2000
0000
3000
0000
,  // measure 19
0100
0000
0100
0000
,  // measure 20
0200
0000
0300
0000
,  // measure 21
0010
0000
0010
0000
,  // measure 22
0020
0000
0030
0000
,  // measure 23
0002
0003
1000
2000
,  // measure 24
3000
0000
0200
0300
,  // measure 25
0010
0010
0001
0001
,  // measure 26
1000
1000
4000
3000
,  // measure 27
0002
0000
0003
0000
,  // measure 28
0010
0000
0010
0000
,  // measure 29
0020
0000
0030
0000
,  // measure 30
0100
0000
0100
0000
,  // measure 31
0200
0000
0300
0000
,  // measure 32
1000
0000
1000
0000
,  // measure 33
2000
0000
0000
0000
,  // measure 34
3000
0000
0001
0000
,  // measure 35
0002
0000
0003
0000
,  // measure 36
0100
0000
0100
0000
,  // measure 37
0200
0000
0300
0000
,  // measure 38
0010
0000
0010
0000
,  // measure 39
0020
0000
0000
0000
,  // measure 40
0000
0000
0030
0000
,  // measure 41
2000
0000
0000
0000
,  // measure 42
0000
0000
3000
0000
,  // measure 43
0004
0000
0003
0000
,  // measure 44
4000
0000
3000
0000
,  // measure 45
0400
0000
0300
0000
,  // measure 46
4000
0000
3000
0000
,  // measure 47
0002
0000
0003
0000
,  // measure 48
0400
0000
0300
0000
,  // measure 49
0004
0000
0003
0000
,  // measure 50
1000
0000
1000
0000
,  // measure 51
2000
0000
0000
0000
,  // measure 52
0000
0000
0000
3000
0000
0000
0000
0000
;
