#TITLE:Star Driver;
#SUBTITLE:;
#ARTIST:iKz feat. Qiyou;
#TITLETRANSLIT:;
#SUBTITLETRANSLIT:;
#ARTISTTRANSLIT:;
#GENRE:;
#CREDIT:Ace Of Arrows;
#BANNER:Star Driver - Bn.png;
#BACKGROUND:Star Driver - Bg.png;
#LYRICSPATH:;
#CDTITLE:Ace Of Arrows.png;
#MUSIC:Star Driver.ogg;
#OFFSET:0.690;
#SAMPLESTART:50.600;
#SAMPLELENGTH:12.000;
#SELECTABLE:YES;
#BPMS:0.000=160.000;
#STOPS:;
#BGCHANGES:;
#KEYSOUNDS:;

//---------------dance-single - Ace Of Arrows (2019)----------------
#NOTES:
     dance-single:
     Ace Of Arrows (2019):
     Challenge:
     12:
     1.000,0.365,0.486,0.784,1.000:
0000
0000
0000
0000
,
0001
0000
1000
0100
0010
0001
0010
0100
1000
0000
0001
0000
1000
0000
0010
0000
,
0100
0000
0001
0100
0001
0000
1000
0000
0100
0000
0010
0000
0100
0000
1000
0000
,
0001
0000
1000
0010
0100
0001
0100
0010
1000
0000
0001
0000
0010
0000
0100
0000
,
1000
0100
0010
0100
1000
0000
0001
0000
0100
0000
0010
1000
0001
1000
0010
0000
,
0100
0000
0001
1000
0100
0010
0100
1000
0001
0000
0100
0000
0010
0000
1000
0000
,
0001
0000
0010
0100
1000
0001
1000
0100
0010
0000
0001
0000
1000
0000
0010
0000
,
0100
0000
0001
1000
0100
1000
0001
0100
0010
0000
1000
0000
0001
0000
0010
0100
,
0010
0000
0001
0010
0100
0010
0001
0000
2001
0000
3010
0000
0210
0000
0301
0000
,
1000
0100
0000
0100
0010
0000
0100
0000
1100
0000
2000
0000
0000
0000
3001
0010
,
0100
1000
0100
1000
0001
0100
0001
0100
0010
0000
2000
0000
3001
0020
0000
0130
,
1000
0002
0000
1003
0010
0000
0100
0000
0101
0000
0002
0000
0000
0000
1003
0100
,
0010
0001
0010
0001
1000
0010
1000
0010
0100
0001
0200
0000
0301
1000
0001
1000
,
0100
0010
0000
0010
0001
0000
1000
0000
1010
0000
0020
0000
0000
0000
0130
0010
,
1000
0001
1000
0001
0010
0100
0010
0100
1000
0000
0002
0000
0103
0020
0000
1030
,
0001
0010
0000
0010
0100
0000
1000
0000
1002
0000
0103
0000
0010
0100
0001
1000
,
0001
0010
0100
0010
0002
0000
1003
0010
0100
0010
2000
0000
0000
0000
0000
0000
,
3000
0000
0001
0010
0100
1000
0100
1000
0001
0100
0001
0100
0010
0100
0010
0100
,
0001
1000
0100
0020
0000
0032
0003
2001
,
0000
3020
0000
0230
0000
0301
1000
1200
,
0000
0300
0000
0010
0001
1000
0001
0201
,
0000
0000
0320
0000
0000
0000
1030
0000
1002
0000
0000
0000
0023
0000
0130
1000
,
0002
0103
0010
2010
0000
3002
0003
0021
,
0000
0230
0300
2100
0000
3001
0100
0120
,
0000
0000
0030
0000
0000
0000
1000
0000
1001
0000
0002
0000
0023
0030
0200
0000
,
0300
1100
1001
0101
0000
0100
0010
1000
,
1002
0000
0023
0030
0210
0000
2300
3000
,
1001
0002
0000
0203
0000
0310
1000
1002
,
0000
0000
0013
0000
0200
0000
0300
0000
1100
0000
2000
0000
0000
0000
3001
0100
,
0010
0200
0300
0102
0000
1003
0100
0020
,
0000
0000
0030
0000
0200
0000
0300
0000
1000
0100
0010
0100
1000
0000
0001
0000
,
0100
0010
0100
0000
0001
0000
1000
0100
0010
0001
0010
0100
1000
0000
1002
0000
,
0003
0100
0010
1000
0002
0000
0003
0021
,
0000
0000
0130
0000
1000
0100
1000
0100
0010
0001
0010
0001
1000
0001
1000
0001
,
0100
0010
0100
0010
2000
0000
3001
0010
0100
0010
0001
0000
1000
0000
1020
0000
,
0130
0001
0100
0000
0020
0000
2030
0000
3001
0000
0010
0000
0100
0000
2100
0000
,
3001
0100
0010
0100
0002
0000
1003
0000
0100
0010
0001
0010
0200
0000
1300
0000
,
0001
0100
0010
0100
0002
0000
1003
0000
2200
0000
3300
0000
0022
0000
0030
0000
,
1003
0001
0100
0001
2000
0000
3100
0000
0010
0100
1000
0100
0020
0000
0031
0000
,
1000
0010
0100
0010
2000
0000
3001
0000
0021
0000
0130
0000
2100
0000
3001
0000
,
0100
0001
1000
0001
0200
0000
0310
0000
1000
0001
0010
0001
1000
0000
0100
0000
,
0120
0000
0031
1000
0100
1000
0001
0000
0401
0000
0000
0000
0310
0000
1000
0000
,
0001
0010
0100
0010
0002
0000
1003
0000
0010
0100
0010
0000
1000
0000
0001
0000
,
0100
0010
1000
0010
0100
0000
0001
0000
1000
0100
1000
0000
0001
0000
0010
0100
,
1000
0100
0010
0001
0000
0001
1000
0000
1000
0010
0100
0001
0000
0001
1000
0000
,
0100
0010
0100
1000
0000
1000
0001
0000
0202
0000
0303
0000
2020
0000
0030
0000
,
3001
0010
0100
0010
0001
0000
1000
0010
1000
0000
0001
0000
0010
0100
1000
0100
,
0010
0000
0001
0000
1000
0010
1000
0000
0001
0000
1000
0000
0100
0010
0001
0010
,
0100
1000
0001
0100
0000
0100
0010
0000
0010
1000
0001
0010
0000
0010
0100
0000
,
1100
0000
1000
0000
1002
0000
0103
0040
4000
0000
0000
0000
0000
0000
3030
0000
,
2002
3003
0002
0003
0011
0020
0000
0230
,
0000
0000
1300
0000
0001
0000
0401
0000
0000
0000
0310
1000
0010
1000
0010
1000
,
0001
0000
1000
0100
1000
0100
1000
0100
0010
0000
0001
1000
0001
1000
0001
1000
,
0010
0000
0100
0001
0100
0001
0100
0001
1000
0100
0010
0001
1000
0001
0010
0100
,
1000
0000
0002
0003
0101
0200
0300
0120
,
0000
0000
1030
0000
0001
0000
0021
0000
0000
0000
0130
0000
1000
0100
0010
0100
,
1000
0000
0001
0100
0001
0100
0001
0100
0010
0000
1000
0010
1000
0010
1000
0010
,
0100
0000
0001
1000
0001
1000
0001
1000
0100
0010
0001
1000
0001
0100
0010
0100
,
0001
0000
2000
3000
1100
0200
0300
0120
,
0000
0000
0031
0000
1000
0000
1020
0000
0000
0000
0130
0000
0001
1000
0001
1000
,
0100
0000
0010
0001
0010
0001
0010
0001
1000
0000
0010
0100
0010
0100
0010
0100
,
0001
0000
0000
0000
0000
0000
1000
0000
0000
0100
0000
0000
1000
0000
0001
0000
1000
0000
0001
0000
0000
0010
0000
0000
0100
0000
0000
1000
0000
0000
0100
0000
0000
0010
0000
0000
0001
0000
0000
0000
0000
0000
1000
0000
0000
0000
0000
0000
,
1010
0000
0010
0100
0001
0100
0010
0000
1000
0001
0010
0001
1000
0000
0010
0100
,
0010
0000
1000
0001
1000
0000
0100
0000
0110
0000
0010
0001
1000
0001
0010
0001
,
1000
0000
0001
0100
0001
0000
1000
0100
1000
0000
0100
0010
0100
0000
1000
0100
,
2000
0000
3001
0100
0010
1000
0010
1000
0001
0010
0001
0010
0400
0000
0000
0000
,
1300
0100
0010
0001
1000
0001
0010
0100
2000
0000
3001
0000
0100
0010
0000
2010
,
0000
3001
0010
0100
1000
0001
1000
0001
0100
0000
0010
0000
1000
0001
0000
0011
,
0000
0010
0100
1000
0001
0100
0001
0100
0020
0000
1030
0000
0001
0010
0000
0110
,
0000
0100
1000
0001
1000
0010
1000
0010
0100
0001
0100
0001
1000
0100
1000
0100
,
0010
0001
0010
0100
1000
0001
0100
0001
2000
0000
3100
0000
0010
0100
0000
1100
,
0000
1000
0001
0100
0010
1000
0010
1000
0001
0000
1000
0000
0010
0100
0000
0101
,
0000
0001
1000
0100
1000
0100
0010
0001
0020
0000
0130
0000
1000
0001
0000
0011
,
0000
0000
0000
0010
0000
0000
0100
0000
0010
0000
0100
0000
0010
0000
0000
0001
0000
0000
1000
0000
0000
0100
0000
0000
0010
0000
0001
0000
0010
0000
0001
0000
0010
0000
0001
0000
1000
0000
0000
0010
0000
0000
0100
0000
0000
0010
0000
0000
,
1000
0001
0010
0100
0010
0001
1000
0010
0100
0000
0001
0000
1000
0100
0000
0110
,
0000
0010
0001
1000
0001
0100
0010
1000
0010
0000
1000
0000
0001
1000
0000
1100
,
0000
0100
0010
0001
1000
0001
0100
0010
2000
0000
3001
0000
1000
0010
0000
0110
,
0000
0100
0001
1000
0100
0010
0100
1000
0001
0100
0001
0100
0010
1000
0010
2000
,
0000
3001
0010
0100
1000
0100
0010
0001
2000
0000
3010
0000
0100
0001
0000
1001
,
0000
1000
0010
0100
0010
1000
0001
0010
0100
0000
1000
0000
0001
0100
0000
0110
,
0000
0010
1000
0001
1000
0100
1000
0001
0200
0000
0310
0000
1000
0001
0000
0011
,
0000
0000
0000
0010
0000
0000
0100
0000
0000
1000
0000
0000
0001
0000
0000
0100
0000
0000
0010
0000
0000
1000
0000
0000
0001
0000
0100
0000
0001
0000
0100
0000
0001
0000
0100
0000
0010
0000
0000
1000
0000
0000
0001
0000
0000
0010
0000
0000
,
0000
0000
0000
0000
0000
0220
0000
0000
,
0000
0000
0000
0000
,
0000
0000
0330
0000
;

//---------------dance-single - Ace Of Arrows (2019)----------------
#NOTES:
     dance-single:
     Ace Of Arrows (2019):
     Hard:
     10:
     0.813,0.298,0.235,0.933,0.427:
0000
0000
0000
0000
,
1000
0000
0010
0100
0010
0000
1000
0000
0001
0000
0010
0000
0100
0000
0010
0000
,
0001
0000
1000
0010
1000
0000
0001
0000
0010
0000
0100
0000
1000
0000
0001
0000
,
1000
0000
0010
0100
0010
0000
1000
0000
0001
0000
1000
0000
0100
0000
0010
0000
,
0001
0000
1000
0010
1000
0000
0001
0000
1000
0000
0001
0010
0001
0000
1000
0000
,
0010
0000
0100
0001
0100
0000
0010
0000
1000
0000
0001
0000
0010
0000
0100
0000
,
1000
0000
0001
0100
0001
0000
1000
0000
0100
0000
0010
0000
0001
0000
0010
0000
,
0100
0000
1000
0001
1000
0000
0001
0000
0100
0000
0010
0000
1000
0000
0001
0000
,
0010
0000
0100
1000
0100
0000
0010
0000
0001
0000
1000
0000
0001
0000
0100
0000
,
0010
1000
0000
1000
0001
0000
0010
0000
0100
0000
2000
0000
0000
0000
3001
0000
,
1000
0010
1000
0000
0001
0000
0010
0000
0100
0000
1000
0000
0001
0200
0000
0000
,
0310
1000
0000
1000
0001
0000
0010
0000
0100
0000
2000
0000
0000
0000
3001
0000
,
0100
0010
0100
0000
0001
0000
1000
0000
0001
0010
0001
0000
1000
0010
0000
0010
,
0100
0001
0000
0001
1000
0000
0100
0000
0010
0000
0002
0000
0000
0000
1003
0000
,
0010
0100
0010
0000
1000
0000
0001
0000
0010
0000
0100
0000
1000
0001
0000
0001
,
0100
0010
0000
0010
1000
0000
0001
0000
0020
0000
0000
0000
0130
0000
1000
0000
,
0001
0100
0001
0000
1000
0000
0001
0000
1000
0010
2000
0000
0000
0000
0000
0000
,
3000
0000
0004
0400
0000
0000
0000
0000
0000
0000
0000
0000
0000
0000
0303
0000
,
0100
0010
1000
0002
0000
2003
3000
1200
,
0000
0320
0000
0032
0000
1003
0010
0200
,
0000
0300
0000
0001
1000
0100
0010
0012
,
0000
0000
2003
0000
0000
0000
3010
0000
0210
0000
0000
0000
0302
0000
1003
0100
,
1000
0001
0100
0020
0000
2030
3000
1002
,
0000
0023
0000
0230
0000
1300
0001
0020
,
0000
0030
0000
0001
1000
0010
0100
0102
,
0000
1003
0100
0020
0000
0031
1000
0020
,
0000
0030
0200
0000
0302
0000
2003
0000
,
3010
0200
0300
0102
0000
1003
0010
0200
,
0000
0000
0310
0000
2000
0000
3000
0000
0001
0000
0020
0000
0030
0000
0001
0010
,
0001
2000
3000
1020
0000
0130
0001
2000
,
0000
3000
0002
0000
0023
0000
0230
0300
,
2100
0000
3002
0000
0103
0020
0030
2010
,
3000
0001
0010
0100
2000
0000
3000
0002
,
0000
0000
0103
0000
0010
0000
1000
0000
0004
0040
0000
0000
0000
0000
0033
0000
,
0210
0000
2300
0000
3001
0200
0300
0120
,
0000
1030
0001
0020
0000
0130
1000
0001
,
0201
0000
0000
0320
0000
0000
1030
0000
1002
0000
0000
0023
0000
0000
0130
0000
,
2100
0000
0000
3002
0000
0000
0103
0000
0020
0000
0000
0000
2030
0000
3000
0000
,
1002
0000
0023
0000
0130
2000
3000
1002
,
0000
0103
0010
2000
0000
3001
0010
0100
,
2100
0000
0000
3002
0000
0000
0103
0000
0120
0000
0000
0000
1030
0000
0001
0000
,
0021
0000
0000
0130
0000
0000
1000
0000
0004
0000
0000
0000
0103
0000
0010
0000
,
2010
0000
3002
0000
0013
0200
0300
2100
,
0000
3001
0100
0020
0000
1030
0001
0010
,
0210
0000
0000
2300
0000
0000
3001
0000
0201
0000
0000
0320
0000
0000
1030
0000
,
1002
0000
0000
0023
0000
0000
0130
0000
2000
0000
0000
0000
3002
0000
0003
0000
,
0201
0000
0320
0000
1030
0001
0000
0021
,
0000
0130
1000
0002
0000
1003
0010
0100
,
0102
0000
0000
2003
0000
0000
3100
0000
0120
0000
0031
2000
0000
0000
3010
0000
,
0200
0000
0301
0000
2000
0000
3100
0040
0000
0000
0000
0000
0000
0000
0030
0000
,
0012
0000
2003
0000
3010
0200
0000
0302
,
0000
0000
1003
0000
0100
0000
0020
0000
0000
0000
0130
0000
1000
0001
1000
0000
,
0010
0000
0100
0000
0001
1000
0001
0000
0010
0000
0100
0000
1000
0001
1000
0000
,
0010
0000
0100
0000
0001
0100
0001
0000
1000
0000
0100
0000
0010
0001
0010
0000
,
0100
0000
2000
0000
3001
0200
0000
0320
,
0000
0000
1030
0000
0001
0000
0020
0000
0000
0000
0130
0000
1000
0100
1000
0000
,
0001
0000
0100
0000
0010
1000
0010
0000
0100
0000
0001
0000
1000
0100
1000
0000
,
0001
0000
0010
0000
0100
1000
0100
0000
0010
0000
0001
0000
1000
0010
1000
0000
,
0001
0000
0020
0000
0130
2000
0000
3002
,
0000
0000
0103
0000
0010
0000
2000
0000
0000
0000
3001
0000
0010
0100
0010
0000
,
0001
0000
1000
0000
0001
0100
0001
0000
1000
0000
0100
0000
0010
0001
0010
0000
,
0100
0000
1000
0000
0004
0000
0000
0000
1003
0010
1000
0010
1000
0000
0001
0000
,
0010
0000
0200
0000
1300
0002
0000
0203
,
0000
0000
0310
0000
1000
0000
0002
0000
0000
0000
1003
0000
0100
0010
0100
0000
,
1000
0000
0001
0000
1000
0010
1000
0000
0001
0000
0010
0100
0010
0000
0001
1000
,
0001
0000
4000
0400
0000
0000
0000
0000
0000
0000
0000
0000
0000
0000
3300
0000
,
0100
0010
0000
0010
0001
0000
1000
0000
0020
0000
0130
0000
0001
1000
0000
0100
,
0000
0010
0001
0000
1000
0000
0010
0000
0100
0000
0001
0000
1000
0100
0000
0010
,
0000
0100
1000
0000
0001
0000
0100
0000
0002
0000
1003
0000
0100
0010
0000
0001
,
0000
1000
0010
0000
0100
0000
0001
0000
2000
0000
3004
0400
0000
0000
0000
0000
,
0303
0000
0100
0000
0010
0000
1000
0000
0002
0000
0013
0000
0100
1000
0000
0001
,
0000
0100
0010
0000
1000
0000
0001
0000
0010
0000
0001
0000
1000
0010
0000
0100
,
0000
0001
1000
0000
0100
0000
0010
0000
0200
0000
1300
0000
0001
0100
0000
0010
,
0000
1000
0010
0000
0100
0000
0001
0000
4000
0000
0000
0000
3001
0010
0001
0010
,
0000
0100
1000
0000
0001
0000
0100
0000
0002
0000
1003
0000
0100
0010
0000
0001
,
0000
1000
0010
0000
0100
0000
0001
0000
1000
0000
0100
0000
0010
0100
0000
1000
,
0000
0001
0100
0000
0010
0000
0100
0000
0002
0000
1003
0000
0100
1000
0000
0001
,
0000
0010
0001
0000
1000
0000
0001
0000
0020
0000
0430
4000
0000
0000
0000
0000
,
3300
0000
1000
0000
0001
0000
0100
0000
0020
0000
1030
0000
0001
0010
0000
0100
,
0000
0010
0001
0000
1000
0000
0001
0000
0100
0000
0010
0000
1000
0001
0000
0010
,
0000
0100
1000
0000
0001
0000
1000
0000
0020
0000
0130
0000
0001
0100
0000
0010
,
0000
1000
0004
0040
0000
0000
0000
0000
0000
0000
0033
0000
0001
0010
0100
1000
,
0000
0000
0000
0000
0000
2002
0000
0000
,
0000
0000
0000
0000
,
0000
0000
3003
0000
;

//---------------dance-single - Ace Of Arrows (2019)----------------
#NOTES:
     dance-single:
     Ace Of Arrows (2019):
     Medium:
     7:
     0.623,0.166,0.000,0.996,0.094: // measure 1
0000
0000
0000
0000
,  // measure 2
0001
0040
0000
0000
0130
1000
0100
0000
,  // measure 3
0010
0004
0000
0000
1003
0010
1000
0000
,  // measure 4
0001
0400
0000
0000
0310
1000
0010
0000
,  // measure 5
0100
0004
0000
0000
1003
0100
1000
0000
,  // measure 6
0001
0040
0000
0000
0031
1000
0001
0000
,  // measure 7
1000
0400
0000
0000
0310
0001
0010
0000
,  // measure 8
0100
4000
0000
0000
3001
0100
0001
0000
,  // measure 9
1000
0040
0000
0000
1030
0001
2000
0000
,  // measure 10
3002
0000
0013
0100
1000
0200
0000
0000
,  // measure 11
0340
0000
0000
0031
1000
0001
0200
0000
,  // measure 12
0320
0000
1030
0010
0100
0002
0000
0000
,  // measure 13
4003
0000
0000
3400
0000
0000
0340
0000
,  // measure 14
0032
0000
1003
0100
1000
0002
0000
0000
,  // measure 15
0403
0000
0000
0310
1000
0001
0020
0000
,  // measure 16
0230
0000
1300
0001
0200
0000
0310
1000
,  // measure 17
0004
0000
0000
0043
0000
0000
0030
0000
,  // measure 18
0000
0400
0000
0000
0000
0000
0000
0000
,  // measure 19
1300
0001
0100
0002
0000
2003
0000
3200
,  // measure 20
0000
0320
0000
0230
0000
1300
0001
2000
,  // measure 21
0000
3000
0000
0010
1000
0001
0010
0002
,  // measure 22
0000
2003
0000
3100
0020
0000
0130
1000
,  // measure 23
0001
0100
0010
2000
0000
3002
0000
0023
,  // measure 24
0000
0230
0000
2300
0000
3001
0100
0002
,  // measure 25
0000
0003
0000
1000
0100
0010
0100
2000
,  // measure 26
0000
3001
0100
0002
0000
1003
0010
2000
,  // measure 27
0000
3000
0002
0000
0023
0000
0230
0000
,  // measure 28
0310
0002
0000
2003
0000
3010
0100
0020
,  // measure 29
0000
1030
0002
0000
0013
0200
0000
0310
,  // measure 30
0001
2000
0000
3002
0000
0103
0010
0200
,  // measure 31
0000
0300
0002
0000
2003
0000
3200
0000
,  // measure 32
0320
0000
0230
0000
1300
0002
0000
1003
,  // measure 33
0000
0001
0010
0100
2000
0000
3000
0002
,  // measure 34
0000
0103
0010
0100
0002
0000
2003
0000
,  // measure 35
3000
0000
0200
0000
0310
0002
0000
2003
,  // measure 36
0000
3010
0100
0002
0000
1003
0100
0010
,  // measure 37
0200
0000
0000
2300
0000
0000
3001
0000
0200
0000
0000
0320
0000
0000
0130
0000
,  // measure 38
0002
0000
0000
2003
0000
0000
3100
0000
0020
0000
0000
0000
0000
0000
0000
0000
,  // measure 39
0030
0000
0002
0000
1003
0020
0000
0230
,  // measure 40
0000
0310
1000
0002
0000
0013
0100
1000
,  // measure 41
0200
0000
0000
0320
0000
0000
0031
0000
2000
0000
0000
0000
3010
0000
0100
0000
,  // measure 42
0001
0000
0100
0020
0000
0000
1030
0000
0004
0000
0000
0000
1003
0000
0100
0000
,  // measure 43
0000
0000
0020
0000
0130
2000
0000
3002
,  // measure 44
0000
1003
0010
0200
0000
0301
1000
0100
,  // measure 45
0020
0000
0000
0032
0000
0000
1003
0000
0020
0000
0000
0230
0000
0000
0301
0000
,  // measure 46
2000
0000
0000
3200
0000
0000
0310
0000
0002
0000
0000
0000
0000
0000
0000
0000
,  // measure 47
0003
0000
2000
0000
3010
0200
0000
0302
,  // measure 48
0000
1003
0100
0020
0000
0130
1000
0001
,  // measure 49
2000
0000
0000
3020
0000
0000
0130
0000
0002
0000
0000
2003
0000
0000
3100
0000
,  // measure 50
0010
0000
0001
0000
1000
0000
0001
0040
0000
0000
0000
0000
0000
0000
0000
0000
,  // measure 51
0030
0000
0200
0000
1300
0002
0000
2003
,  // measure 52
0000
3010
0100
0002
0000
1003
0100
1000
,  // measure 53
0000
0001
0100
0001
0000
1000
0001
1000
,  // measure 54
0000
0001
0010
0001
0000
0010
0100
0010
,  // measure 55
0000
0000
0002
0000
1003
0020
0000
0230
,  // measure 56
0000
0301
1000
0002
0000
0013
0100
0010
,  // measure 57
0000
0001
0010
0001
0000
1000
0010
1000
,  // measure 58
0000
0001
1000
0001
0000
0100
0010
0100
,  // measure 59
0000
0000
0002
0000
1003
0200
0000
0320
,  // measure 60
0000
0130
1000
0200
0000
0310
0100
0010
,  // measure 61
0000
0001
0010
0001
0000
1000
0010
1000
,  // measure 62
0000
0001
0400
0000
0000
0000
0000
0000
,  // measure 63
0300
0000
0020
0000
1030
0002
0000
0023
,  // measure 64
0000
0130
1000
0200
0000
0310
0001
1000
,  // measure 65
0001
0100
0001
0000
1000
0100
1000
0000
,  // measure 66
0001
0100
0004
0000
0000
0000
0000
0000
,  // measure 67
2003
0000
0000
0000
3100
0000
0010
0000
0200
0000
1300
0000
0002
0000
0000
0103
,  // measure 68
0000
0000
0010
0000
1000
0000
0001
0000
0010
0000
0001
0000
2000
0000
0000
3010
,  // measure 69
0000
0000
1000
0000
0001
0000
0010
0000
0200
0000
0310
0000
0002
0000
0000
1003
,  // measure 70
0000
0010
0100
0010
4000
0000
0000
0000
,  // measure 71
3000
0000
0001
0000
0010
0000
0100
0000
2000
0000
3100
0000
0020
0000
0000
0031
,  // measure 72
0000
0000
1000
0000
0001
0000
0100
0000
0010
0000
0100
0000
0002
0000
0000
1003
,  // measure 73
0000
0000
0100
0000
0010
0000
0100
0000
2000
0000
3001
0000
0020
0000
0000
0130
,  // measure 74
0000
0040
0000
0031
4000
0000
3001
0100
,  // measure 75
0001
0000
1000
0000
0100
0000
0010
0000
0200
0000
1300
0000
0002
0000
0000
0103
,  // measure 76
0000
0000
0010
0000
0100
0000
0001
0000
1000
0000
0001
0000
0020
0000
0000
0130
,  // measure 77
0000
0000
0010
0000
0001
0000
1000
0000
0002
0000
0103
0000
0020
0000
0000
1030
,  // measure 78
0000
0001
0010
0100
4000
0000
0000
0000
,  // measure 79
3000
0000
0001
0000
0100
0000
0010
0000
0200
0000
0301
0000
2000
0000
0000
3100
,  // measure 80
0000
0000
0010
0000
0100
0000
1000
0000
0001
0000
0100
0000
0002
0000
0000
1003
,  // measure 81
0000
0000
0100
0000
0010
0000
0001
0000
0020
0000
0130
0000
2000
0000
0000
3001
,  // measure 82
0000
0000
0100
0000
0010
0000
0100
0000
0004
0000
0000
0000
2003
0000
3100
0010
,  // measure 83
0000
0000
0000
0000
0000
0200
0000
0000
,  // measure 84
0000
0000
0000
0000
,  // measure 85
0000
0000
0300
0000
;

//---------------dance-single - Ace Of Arrows (2019)----------------
#NOTES:
     dance-single:
     Ace Of Arrows (2019):
     Easy:
     4:
     0.234,0.033,0.000,0.204,0.000:
0000
0000
0000
0000
,
4000
0000
3000
0000
,
4000
0000
3000
0000
,
0040
0000
0030
0000
,
0040
0000
0030
0000
,
0400
0000
0300
0000
,
0400
0000
0300
0000
,
0004
0000
0003
0000
,
0004
0000
0003
0000
,
1000
1000
2000
3000
,
0400
0000
0300
0000
,
0010
0010
0020
0030
,
0004
0000
0003
0000
,
1000
1000
2000
3000
,
0040
0000
0030
0000
,
0100
0100
0200
0300
,
0004
0000
0003
0000
,
4000
0000
3000
0000
,
0100
0000
0000
0100
0000
0100
0000
0200
,
0000
0300
0000
0010
0000
0000
0000
0020
,
0000
0030
0000
0000
0001
0000
0000
0001
,
0000
0001
0000
0000
0002
0000
0003
0000
,
1000
0000
0000
1000
0000
1000
0000
2000
,
0000
3000
0000
0010
0000
0010
0000
0020
,
0000
0030
0000
0000
0100
0000
0000
0100
,
0000
0100
0000
0200
0000
0000
0300
0000
,
0000
0001
0001
0001
,
0001
0000
0000
1000
0000
0000
0000
2000
,
0000
3000
0000
0000
0100
0000
0000
0000
,
0100
0000
0000
0010
0000
0010
0000
0010
,
0000
0001
0001
0001
,
0002
0000
0003
0000
1000
0000
0000
1000
,
0000
0000
0010
0000
0020
0000
0030
0100
,
0000
0100
0100
0200
,
0300
0000
0001
0000
0001
0000
0000
1000
,
0000
1000
0000
2000
0000
0000
3000
0000
,
0100
0100
0200
0300
,
0010
0010
0020
0030
,
0000
0000
0001
0000
0001
0000
0000
0010
,
0000
0010
0000
0020
0000
0000
0030
0000
,
0100
0100
0200
0300
,
1000
1000
4000
3000
,
0000
0000
0001
0000
0001
0000
0000
0100
,
0000
0100
0000
0200
0000
0000
0300
0000
,
0010
0010
0020
0030
,
1000
1000
2000
3000
,
0000
0000
0010
0000
0010
0000
0000
0100
,
0000
0100
0000
0200
0000
0000
0300
0000
,
0001
0001
0002
0003
,
1000
1000
4000
0000
,
3000
0000
0100
0000
0100
0000
0000
0010
,
0000
0010
0000
0010
0000
0000
0004
0000
,
0000
0000
0003
0000
,
4000
0000
0000
3000
,
0000
0000
0010
0000
0010
0000
0000
1000
,
0000
1000
0000
1000
0000
0000
0040
0000
,
0000
0000
0030
0000
,
0400
0000
0000
0300
,
0000
0000
0001
0000
0001
0000
0000
0010
,
0000
0010
0000
0010
0000
0000
0400
0000
,
0000
0000
0300
0000
,
4000
0000
0000
3000
,
0000
0000
0001
0000
0001
0000
0000
0100
,
0000
0100
0000
0100
0000
0000
0040
0000
,
0000
0000
0030
0000
,
4000
0000
0000
0000
,
3000
0000
0001
0001
,
0001
0000
0100
0100
,
0100
0000
0010
0010
,
0010
0000
0400
0000
,
0300
0000
0001
0001
,
0001
0000
1000
1000
,
1000
0000
0100
0100
,
0100
0000
0040
0000
,
0030
0000
0001
0001
,
0001
0000
1000
1000
,
1000
0000
0010
0010
,
0010
0000
4000
0000
,
3000
0000
0001
0001
,
0001
0000
0010
0010
,
0010
0000
0100
0100
,
0100
0000
1000
2000
,
3000
0000
0000
0000
0000
0002
0000
0000
,
0000
0000
0000
0000
,
0000
0000
0003
0000
;

//---------------dance-single - Ace Of Arrows (2019)----------------
#NOTES:
     dance-single:
     Ace Of Arrows (2019):
     Beginner:
     2:
     0.146,0.033,0.000,0.227,0.000:
0000
0000
0000
0000
,
0004
0000
0003
0000
,
0004
0000
0003
0000
,
4000
0000
3000
0000
,
4000
0000
3000
0000
,
0040
0000
0030
0000
,
0040
0000
0030
0000
,
0400
0000
0300
0000
,
0400
0000
0300
0000
,
0001
0000
0001
0000
,
0004
0000
0003
0000
,
1000
0000
1000
0000
,
4000
0000
3000
0000
,
0100
0000
0100
0000
,
0400
0000
0300
0000
,
0010
0000
0010
0000
,
0040
0000
0030
0000
,
0004
0000
0003
0000
,
1000
0000
1000
0000
,
2000
0000
3000
0000
,
0010
0000
0010
0000
,
0020
0000
0030
0000
,
0100
0000
0100
0000
,
0200
0000
0300
0000
,
0001
0000
0001
0000
,
0002
0000
0003
0000
,
0000
0000
1000
0000
,
2000
0000
3000
0000
,
0100
0000
0100
0000
,
0200
0000
0000
0000
,
0300
0000
0010
0000
,
0010
0000
0020
0000
,
0030
0000
0001
0000
,
0004
0000
0000
0000
,
0003
0000
1000
0000
,
2000
0000
3000
0000
,
0010
0000
0010
0000
,
0020
0000
0030
0000
,
0000
0000
0100
0000
,
0200
0000
0300
0000
,
0001
0000
0001
0000
,
0002
0000
0003
0000
,
0000
0000
1000
0000
,
2000
0000
3000
0000
,
0100
0000
0100
0000
,
0200
0000
0300
0000
,
0000
0000
0010
0000
,
0020
0000
0030
0000
,
0001
0000
0001
0000
,
0002
0000
0003
0000
,
0000
0000
1000
0000
,
1000
0000
2000
0000
,
3000
0000
0040
0000
,
0000
0000
0000
0030
,
0000
0000
0100
0000
,
0100
0000
0200
0000
,
0300
0000
0004
0000
,
0000
0000
0000
0003
,
0000
0000
1000
0000
,
1000
0000
2000
0000
,
3000
0000
0400
0000
,
0000
0000
0000
0300
,
0000
0000
0010
0000
,
0010
0000
0020
0000
,
0030
0000
0004
0000
,
0000
0000
0000
0003
,
1000
0000
2000
0000
,
3000
0000
0010
0000
,
0010
0000
0020
0000
,
0030
0000
0400
0000
,
0300
0000
0002
0000
,
0003
0000
1000
0000
,
1000
0000
2000
0000
,
3000
0000
0400
0000
,
0300
0000
0020
0000
,
0030
0000
0001
0000
,
0001
0000
0002
0000
,
0003
0000
4000
0000
,
3000
0000
0020
0000
,
0030
0000
0100
0000
,
0100
0000
0200
0000
,
0300
0000
0000
0002
,
0003
0000
0000
0000
0000
2000
0000
0000
,
0000
0000
0000
0000
,
0000
0000
3000
0000
;
