#TITLE:Sound of Love;
#SUBTITLE:;
#ARTIST:Kicco;
#TITLETRANSLIT:;
#SUBTITLETRANSLIT:;
#ARTISTTRANSLIT:;
#GENRE:;
#CREDIT:Ace Of Arrows;
#BANNER:Sound of Love - Bn.png;
#BACKGROUND:Sound of Love - Bg.jpg;
#LYRICSPATH:;
#CDTITLE:Ace Of Arrows.png;
#MUSIC:Sound of Love.ogg;
#OFFSET:1.136;
#SAMPLESTART:43.700;
#SAMPLELENGTH:12.000;
#SELECTABLE:YES;
#BPMS:0.000=112.000,292.000=56.000,312.000=112.000;
#STOPS:;
#BGCHANGES:;
#KEYSOUNDS:;

//---------------dance-single - AceOfArrows (2019)----------------
#NOTES:
     dance-single:
     AceOfArrows (2019):
     Challenge:
     10:
     0.728,0.573,0.330,1.000,0.560:
0000
0000
0000
0000
,
0002
0000
0000
0000
0000
0000
0000
0000
0000
0000
0000
0000
0023
0000
0000
0000
0000
0000
0030
0000
0000
0110
0000
0000
0000
0000
0000
0000
0100
0000
1000
0000
0000
0000
0000
0000
0002
0000
0000
0000
0000
0000
0203
0000
0000
0000
0000
0000
,
0320
0000
0000
0000
0000
0000
0000
0000
0000
0000
0000
0000
2030
0000
0000
0000
0000
0000
3000
0000
0000
1001
0000
0000
0000
0000
0000
0000
0001
0000
0020
0000
0000
0000
0000
0000
0230
0000
0000
0000
0000
0000
2300
0000
0000
0000
0000
0000
,
3002
0000
0000
0000
0000
0000
0000
0000
0000
0000
0000
0000
2003
0000
0000
0000
0000
0000
3000
0000
0000
1010
0000
0000
0000
0000
0000
0000
0010
0000
0200
0000
0000
0000
0000
0000
0302
0000
0000
0000
0000
0000
2003
0000
0000
0000
0000
0000
,
3200
0000
0000
0000
0000
0000
0000
0000
0000
0320
0000
0000
0000
0000
0000
0030
0000
0000
0012
0000
0000
0000
0000
0000
0000
0000
0000
2003
0000
0000
0000
0000
0000
0000
0000
0000
3010
0000
0000
0000
0100
0000
0010
0000
0000
0000
0000
0000
,
2000
0000
0000
0000
0000
0000
0000
0000
0000
0000
0000
0000
3002
0000
0000
0000
0000
0000
0003
0000
0000
0101
0000
0000
0000
0000
0000
0000
0100
0000
0020
0000
0000
0000
0000
0000
2030
0000
0000
0000
0000
0000
3002
0000
0000
0000
0000
0000
,
0023
0000
0000
0000
0000
0000
0000
0000
0000
0000
0000
0000
0230
0000
0000
0000
0000
0000
0300
0000
0000
1100
0000
0000
0000
0000
0000
0000
1000
0000
0002
0000
0000
0000
0000
0000
0203
0000
0000
0000
0000
0000
0320
0000
0000
0000
0000
0000
,
2030
0000
0000
0000
0000
0000
0000
0000
0000
0000
0000
0000
3002
0000
0000
0000
0000
0000
0003
0000
0000
0011
0000
0000
0000
0000
0000
0000
0010
0000
0200
0000
0000
0000
0000
0000
2300
0000
0000
0000
0000
0000
3002
0000
0000
0000
0000
0000
,
0203
0000
0000
0000
0000
0000
0000
0000
0000
0320
0000
0000
0000
0000
0000
0030
0000
0000
2010
0000
0000
0000
0000
0000
0000
0000
0000
3002
0000
0000
0000
0000
0000
0000
0000
0000
0013
0000
0000
0000
0100
0000
0010
0000
0000
0000
0000
0000
,
0012
0000
0000
0000
0000
0000
0000
0000
0000
0000
0000
0000
2003
0000
0000
0000
0000
0000
0000
0000
0000
3040
0000
0000
0000
0000
0000
0000
0130
0000
0001
0000
0000
0000
0000
0000
2000
0000
0000
0000
0000
0000
3200
0000
0000
0000
0000
0000
,
0340
0000
0000
0000
0000
0000
0000
0000
0000
0000
0000
0000
0031
0000
0000
0000
0000
0000
0000
0000
0000
2000
0000
0000
0000
0000
0000
0000
3010
0000
0200
0000
0000
0000
0000
0000
0302
0000
0000
0000
0000
0000
1003
0000
0000
0000
0000
0000
,
2200
0000
0000
0000
0000
0000
0000
0000
0000
0000
0000
0000
3300
0000
0000
0000
0000
0000
0000
0000
0000
0200
0000
0000
0000
0000
0000
0000
0310
0000
0002
0000
0000
0000
0000
0000
2003
0000
0000
0000
0000
0000
3010
0000
0000
0000
0000
0000
,
0220
0000
0000
0000
0000
0000
0000
0000
0030
0000
0000
0000
0302
0000
1003
0100
2000
0000
0000
0000
0000
0000
0000
0000
3001
0000
0000
0000
0100
0000
0000
0000
,
0120
0000
0000
0000
0000
0000
0000
0000
0000
0000
0000
0000
4030
0000
0000
0000
0000
0000
0000
0000
0000
3002
0000
0000
0000
0000
0000
0000
0013
0000
0200
0000
0000
0000
0000
0000
2300
0000
0000
0000
0000
0000
3001
0000
0000
0000
0000
0000
,
0202
0000
0000
0000
0303
0000
0000
0200
0000
0000
0320
0000
2030
0000
3001
0000
,
0042
0000
0000
0000
0033
0000
0000
0020
0000
0130
2000
0000
3002
0000
1003
0000
,
2020
0000
0000
0000
0000
0000
0000
0000
0000
0000
0000
0000
3000
0000
0000
0000
0000
0000
0230
0000
0000
0002
0000
0000
0000
0000
0000
0000
0000
0000
0300
0000
0000
0000
0000
0000
1003
0000
0000
0000
0100
0000
0010
0000
0000
0000
0000
0000
,
0012
1003
0010
0200
0000
0301
1000
0020
,
0000
0000
0130
0000
0002
0000
1003
0400
0000
0000
0000
0000
0300
0000
0000
0000
,
0120
0000
0031
0000
1000
0000
0020
0000
0000
0000
0130
0000
0001
0000
1000
0200
,
0000
0000
0000
0000
0000
0000
0000
0000
0000
0000
0000
0000
0000
0000
0000
0000
0000
0000
0310
0000
0000
0002
0000
0000
1003
0000
0000
0000
0010
0000
0100
0000
0000
0000
0001
0000
0100
0000
0000
0000
0010
0000
0100
0000
0000
0000
0000
0000
,
0102
0000
1003
0100
0000
0010
0200
0000
0000
0000
1300
0000
0002
0000
0103
0000
,
0120
0000
1030
0001
0000
0010
0400
0000
0000
0000
0300
0000
2000
0000
3001
0000
,
0021
0000
0130
1000
0000
0100
0020
0000
0000
0000
0230
0000
2300
0000
3001
0000
,
0201
0000
0000
0000
0000
0000
0000
0000
0000
0320
0000
0000
0000
0000
0000
0030
0000
0000
2010
0000
0000
0000
0000
0000
0000
0000
0000
0000
0000
0000
3001
0000
0000
0000
0000
0000
0400
0000
0000
0000
0310
0000
1000
0000
0000
0000
0000
0000
,
1002
0000
0103
0010
0000
0100
0002
0000
0000
0000
2003
0000
3200
0000
0310
0000
,
0012
0000
1003
0020
0000
0000
0430
0000
0000
0000
0300
0000
0002
0000
1003
0000
,
1200
0000
0310
0001
0000
0010
0200
0000
0000
0000
2300
0000
3002
0000
0103
0000
,
0120
0000
0000
0000
0000
0000
0000
0000
0000
2030
0000
0000
0000
0000
0000
3000
0000
0000
1002
0000
0000
0000
0000
0000
0000
0000
0000
0000
0000
0000
0013
0000
0100
0000
0010
0000
0100
0000
0000
0000
1000
0000
0001
0000
0000
0000
1000
0000
,
0200
0310
0001
2000
3000
0010
0100
0102
,
0000
0000
0000
1003
0000
0000
0100
0000
0000
0010
0000
0000
0200
0000
0000
1300
0000
0000
0001
0000
1000
0010
0000
0000
,
0210
0000
0000
0000
0000
0000
0000
0000
0000
0000
0000
0000
0302
0000
0000
0000
0000
0000
0003
0000
0000
1001
0000
0000
0000
0000
0000
0000
1000
0000
0200
0000
0000
0000
0000
0000
0320
0000
0000
0000
0000
0000
0230
0000
0000
0000
0000
0000
,
2300
0000
0000
0000
0000
0000
0000
0000
0000
0000
0000
0000
3002
0000
0000
0000
0000
0000
0003
0000
0000
0101
0000
0000
0000
0000
0000
0000
0100
0000
0020
0000
0000
0000
0000
0000
2030
0000
0000
0000
0000
0000
3002
0000
0000
0000
0000
0000
,
0203
0000
0000
0000
0000
0000
0000
0000
0000
0000
0000
0000
0320
0000
0000
0000
0000
0000
0030
0000
0000
1010
0000
0000
0000
0000
0000
0000
1000
0000
0002
0000
0000
0000
0000
0000
0023
0000
0000
0000
0000
0000
0230
0000
0000
0000
0000
0000
,
2300
0000
0000
0000
0000
0000
0000
0000
0000
3002
0000
0000
0000
0000
0000
0000
0000
0000
2003
0000
0000
0000
0000
0000
0000
0000
0000
3020
0000
0000
0000
0000
0000
0000
0000
0000
0130
0000
0000
0000
0001
0000
1000
0000
0000
0000
0000
0000
,
0200
0000
0000
0000
0000
0000
0000
0000
0000
0000
0000
0000
0320
0000
0000
0000
0000
0000
0030
0000
0000
0011
0000
0000
0000
0000
0000
0000
0001
0000
2000
0000
0000
0000
0000
0000
3020
0000
0000
0000
0000
0000
0230
0000
0000
0000
0000
0000
,
0302
0000
0000
0000
0000
0000
0000
0000
0000
0000
0000
0000
2003
0000
0000
0000
0000
0000
3000
0000
0000
1100
0000
0000
0000
0000
0000
0000
0100
0000
0020
0000
0000
0000
0000
0000
0032
0000
0000
0000
0000
0000
2003
0000
0000
0000
0000
0000
,
3020
0000
0000
0000
0000
0000
0000
0000
0000
0000
0000
0000
0230
0000
0000
0000
0000
0000
0300
0000
0000
0101
0000
0000
0000
0000
0000
0000
0001
0000
2000
0000
0000
0000
0000
0000
3200
0000
0000
0000
0000
0000
0320
0000
0000
0000
0000
0000
,
0230
0000
0000
0000
0000
0000
0000
0000
0000
2300
0000
0000
0000
0000
0000
0000
0000
0000
3200
0000
0000
0000
0000
0000
0000
0000
0000
0320
0000
0000
0000
0000
0000
0000
0000
0000
0031
0000
0000
0000
1000
0000
0010
0000
0000
0000
0000
0000
,
0210
0000
0000
0000
0304
0000
0000
2003
0000
0000
3100
0000
0010
0000
0100
0000
,
2200
0000
0000
0000
3300
0000
0000
2000
0000
3002
0000
0000
0103
0000
0010
0000
,
2020
0000
0000
0000
0000
0000
0000
0000
0000
0000
0000
0000
3030
0000
0000
0000
0000
0000
0000
0000
0000
2000
0000
0000
0000
0000
0000
0000
3001
0000
0020
0000
0000
0000
0000
0000
0230
0000
0000
0000
0000
0000
1300
0000
0000
0000
0000
0000
,
2002
0000
0000
0000
0000
0000
0000
0000
0000
0000
0000
0000
0000
0000
0000
0000
0000
0000
0000
0000
0000
0000
0000
0000
0000
0000
0000
0000
0000
0000
0000
0000
0000
0000
0000
0000
0000
0000
0000
0000
0000
0000
0000
0000
0000
0000
0000
0000
3000
0000
0000
0000
0000
0000
0000
0000
0000
0000
0000
0000
0000
0000
0000
0000
0000
0000
0000
0000
0000
0000
0000
0000
0013
0000
0000
0000
0000
0000
0000
0000
0000
0000
0000
0000
0100
0000
0000
0000
0000
0000
0010
0000
0000
0000
0000
0000
0200
0000
0000
0000
0000
0000
0000
0000
0000
0000
0000
0000
0000
0000
0000
0000
0000
0000
0000
0000
0000
0000
0000
0000
1300
0000
0000
0000
0000
0000
0000
0000
0000
0000
0000
0000
0000
0000
0000
0000
0000
0000
0000
0000
0000
0000
0000
0000
1001
0000
0000
0000
0000
0000
0000
0000
0000
0000
0000
0000
0000
0000
0000
0000
0001
0000
0000
0000
0000
0000
0000
0000
0100
0000
0000
0000
0000
0000
0000
0000
0000
0000
0000
0000
0000
0000
0000
0000
0000
0000
0000
0000
0000
0000
0000
0000
,
0120
0000
0000
0000
0000
0000
0000
0000
0000
0000
0000
0000
2030
0000
0000
0000
0000
0000
0000
0000
0000
3002
0000
0000
0000
0000
0000
0000
0103
0000
0020
0000
0000
0000
0000
0000
2030
0000
0000
0000
0000
0000
3001
0000
0000
0000
0000
0000
,
0022
0000
0000
0000
0000
0000
0000
0000
0000
0000
0000
0000
0033
0000
0000
0000
0000
0000
0000
0000
0000
0020
0000
0000
0000
0000
0000
0000
0130
0000
2000
0000
0000
0000
0000
0000
3002
0000
0000
0000
0000
0000
0103
0000
0000
0000
0000
0000
,
0220
0000
0000
0000
0000
0000
0000
0000
0000
0000
0000
0000
0330
0000
0000
0000
0000
0000
0000
0000
0000
0020
0000
0000
0000
0000
0000
0000
1030
0000
0002
0000
0000
0000
0000
0000
0023
0000
0000
0000
0000
0000
0130
0000
0000
0000
0000
0000
,
2200
0000
0000
0000
0000
0000
0000
0000
0000
0000
0000
0000
0000
0000
0000
0000
0000
0000
0000
0000
0000
0000
0000
0000
0000
0000
0000
0000
0000
0000
0000
0000
0000
0000
0000
0000
0000
0000
0000
0000
0000
0000
0000
0000
0000
0000
0000
0000
3300
0000
0000
0000
0000
0000
0000
0000
0000
0000
0000
0000
0000
0000
0000
0000
0000
0000
0000
0000
0000
0000
0000
0000
0001
0000
0000
0000
0000
0000
0000
0000
0000
0000
0000
0000
1000
0000
0000
0000
0000
0000
0001
0000
0000
0000
0000
0000
2000
0000
0000
0000
0000
0000
0000
0000
0000
0000
0000
0000
0000
0000
0000
0000
0000
0000
0000
0000
0000
0000
0000
0000
0000
0000
0000
0000
0000
0000
0000
0000
0000
0000
0000
0000
0000
0000
0000
0000
0000
0000
0000
0000
0000
0000
0000
0000
3001
0000
0000
0000
0000
0000
0000
0000
0000
0000
0000
0000
0000
0000
0000
0000
0010
0000
0000
0000
0000
0000
0000
0000
0100
0000
0000
0000
0000
0000
0000
0000
0000
0000
0000
0000
0000
0000
0000
0000
0000
0000
0000
0000
0000
0000
0000
0000
,
2100
3001
0100
0020
0000
0130
0001
2000
,
0000
0000
3100
0000
0010
0000
0001
4000
0000
0000
0000
0000
3000
0000
0000
0000
,
0010
0000
0100
0000
0001
0000
2000
0000
0000
0000
3001
0000
0010
0000
0100
0010
,
0001
0000
1000
0010
0000
1000
0001
0000
1000
0100
0000
1000
0001
0000
0100
0001
0000
1000
0100
0000
1000
0001
0000
1000
,
0020
0000
0130
0001
0000
1000
0200
0000
0000
0000
0320
0000
0032
0000
1003
0000
,
1020
0000
0000
0230
0000
0301
2000
0000
0000
0000
3000
0000
0200
0000
0310
0000
,
0012
0000
1003
0010
0000
0100
0002
0000
0000
0000
1003
0000
0100
0000
0010
0000
,
0012
0000
0000
0000
0000
0000
0000
0000
0000
1003
0000
0000
0000
0000
0000
0000
0000
0000
1020
0000
0000
0000
0000
0000
0000
0000
0000
0000
0000
0000
0130
0000
0000
0000
0000
0000
0001
0000
0000
0000
1000
0000
0100
0000
0000
0000
0000
0000
,
0120
0000
0031
1000
0000
0010
0200
0000
0000
0000
0301
0000
1000
0000
0100
0000
,
0120
0000
0000
0000
0000
0000
0031
0000
0000
2000
0000
0000
0000
0000
0000
0000
0000
0000
3400
0000
0000
0000
0000
0000
0000
0000
0000
0000
0000
0000
0300
0000
0000
0000
0000
0000
0010
0000
0000
0000
0001
0000
1000
0000
0000
0000
0000
0000
,
1020
0000
0130
0001
0000
1000
0200
0000
0000
0000
0310
0000
0002
0000
1003
0000
,
1020
0000
0000
0000
0000
0000
0000
0000
0000
0230
0000
0000
0000
0000
0000
0300
0000
0000
0102
0000
0000
0000
0000
0000
0000
0000
0000
0000
0000
0000
1003
0000
0100
0000
1000
0000
0100
0000
0000
0000
0010
0000
0100
0000
0000
0000
0010
0000
,
0002
1003
0010
0400
0300
0001
1000
0020
,
0000
0000
0130
0000
0001
0000
1000
0000
0100
0000
0010
0000
0100
0000
1000
0001
,
0020
0000
0000
0130
0000
0000
0000
0000
0000
1100
0000
0000
0000
0000
0000
0000
0000
0000
2000
0000
0000
3001
0000
0000
0000
0000
0000
0101
0000
0000
0000
0000
0000
0000
0000
0000
0100
0000
0000
0000
0010
0000
1000
0000
0000
0000
0000
0000
,
1002
0000
0000
0023
0000
0000
0230
0000
0000
2300
0000
0000
3002
0000
0103
0000
,
0020
1030
0000
2002
0000
3003
0002
0103
0000
0220
0000
0330
0020
1030
0000
1000
,
0002
0000
0000
0000
0000
0000
0000
0000
0000
0023
0000
0000
0000
0000
0000
0000
0130
0000
1000
0000
0000
0002
0000
0000
0000
0000
0000
0000
1003
0000
0010
0000
0000
0000
0000
0000
0100
0000
0000
0000
0010
0000
1000
0000
0000
0000
0001
0000
,
0020
0000
0000
0130
0000
0000
0000
0000
0000
2200
0000
0000
0000
0000
0000
3300
0000
0000
2000
0000
0000
3001
0000
0000
0000
0000
0000
0022
0000
0000
0000
0000
0000
0033
0000
0000
0020
0000
0000
0000
0130
0000
1000
0000
0000
0000
0000
0000
,
1002
0000
0000
0000
0000
0000
0000
0000
0003
0200
0000
0000
0000
0000
0000
0000
0000
0000
0320
0000
0000
0000
0000
0000
0000
0000
0000
2030
0000
0000
0000
0000
0000
0000
0000
0000
3001
0000
0000
0000
0000
0000
0100
0000
0010
0000
0100
0000
,
0010
0000
0000
0000
0000
0000
0000
0000
0000
2010
0000
0000
0000
0000
0000
0000
0000
0000
3001
0000
0000
0010
0000
0000
0000
0000
0000
0001
0000
0000
2000
0000
0000
0000
0000
0000
3010
0000
0000
0100
0000
0000
0001
0000
1000
0000
0001
0000
,
2000
0000
0000
3100
0000
0000
0000
0000
0000
0020
0000
0000
0000
0000
0000
0000
0000
0000
0130
0000
0000
1000
0000
0000
0000
0000
0000
0002
0000
0000
0000
0000
0000
0000
1003
0000
0010
0000
0000
0000
0100
0000
0020
0000
0000
0000
0000
0000
,
2030
3001
0010
0200
0000
1300
0001
0200
,
0000
0000
0310
0000
1000
0000
0001
0040
0000
0000
0000
0000
0030
0000
0000
0000
,
0200
0000
1300
0000
0001
0000
2000
0000
0000
0000
3010
0000
0100
0000
0001
2000
,
0000
0000
0000
0000
0000
0000
0000
0000
0000
0000
0000
0000
0000
0000
0000
0000
0000
0000
3100
0000
0000
0010
0000
0000
0001
0000
0000
0000
0010
0000
0100
0000
0000
0000
0010
0000
0001
0000
0000
0000
1000
0000
0010
0000
0000
0000
1000
0000
,
0002
0000
0000
0000
0000
0000
0000
0000
0000
0000
0000
0000
0013
0000
0000
0000
0000
0000
0200
0000
0000
0000
0000
0000
0000
0000
0000
0000
0000
0000
1300
0000
0000
0000
0000
0000
0002
0000
0000
0000
0000
0000
0000
0000
0000
0000
0000
0000
0000
0000
0000
0000
0000
0000
0000
0000
0000
0000
0000
0000
2003
0000
0000
0000
0000
0000
0000
0000
0000
0000
0000
0000
3020
0000
0000
0000
0000
0000
0000
0000
0000
0000
0000
0000
0230
0000
0000
0000
0000
0000
0000
0000
0000
0000
0000
0000
0302
0000
0000
0000
0000
0000
0000
0000
0000
0000
0000
0000
1003
0000
0000
0000
0000
0000
0020
0000
0000
0000
0000
0000
0000
0000
0000
0000
0000
0000
0000
0000
0000
0000
0000
0000
0430
0000
0000
0000
0000
0000
0000
0000
0000
0000
0000
0000
0000
0000
0000
0000
0000
0000
0000
0000
0000
0000
0000
0000
0300
0000
0000
0000
0000
0000
0000
0000
0000
0000
0000
0000
0002
0000
0000
0000
0000
0000
0000
0000
1003
0000
0000
0000
0100
0000
0000
0000
0000
0000
0000
0000
0000
0000
0000
0000
,
0020
0000
0130
2000
0000
3001
0200
0000
0000
0000
0310
0000
2000
0000
3001
0000
0020
0000
0000
0230
0000
0000
2300
0000
0000
0000
3001
0000
0200
0000
0300
0000
,
0020
0000
0000
0000
0000
0000
0000
0000
0000
0000
0000
0000
0000
0000
0000
0000
0000
0000
2030
0000
0000
0000
0000
0000
0000
0000
0000
0000
0000
0000
3001
0000
0000
0000
0000
0000
0020
0000
0000
0000
0000
0000
0000
0000
0000
0000
0000
0000
0000
0000
0000
0000
0000
0000
0000
0000
0000
0000
0000
0000
0230
0000
0000
0000
0000
0000
0000
0000
0000
0000
0000
0000
2300
0000
0000
0000
0000
0000
0000
0000
0000
0000
0000
0000
3002
0000
0000
0000
0000
0000
0000
0000
0000
0000
0000
0000
0203
0000
0000
0000
0000
0000
0000
0000
0000
0000
0000
0000
0310
0000
0000
0000
0000
0000
2000
0000
0000
0000
0000
0000
0000
0000
0000
0000
0000
0000
3001
0000
0000
0000
0000
0000
0040
0000
0000
0000
0000
0000
0000
0000
0000
0000
0000
0000
0000
0000
0000
0000
0000
0000
0000
0000
0000
0000
0000
0000
0030
0000
0000
0000
0000
0000
0000
0000
0000
0000
0000
0000
0100
0000
0000
0000
0000
0000
0000
0000
1000
0000
0000
0000
0002
0000
0000
0000
0000
0000
0000
0000
0000
0000
0000
0000
,
0203
0000
0310
2000
0000
3001
0200
0000
0000
0000
0310
0000
2000
0000
3001
0000
0020
0000
0000
0230
0000
0000
2300
0000
0000
0000
3001
0000
0400
0000
0300
0000
,
0020
0000
0000
1030
0000
0000
0001
0000
0000
0020
0000
0000
0030
0000
0000
0100
0000
0000
1000
0000
0000
0002
0000
0000
0000
0000
0000
1003
0000
0000
0001
0000
0000
2000
0000
0000
0020
0000
0000
3000
0000
0000
0130
0000
0001
1000
0000
0000
,
1200
0000
0310
0001
0000
1000
0020
0000
0000
0000
0130
0000
0002
0000
1003
0000
,
1020
0000
0130
0001
0000
1000
0400
0000
0000
0000
0300
0000
0020
0000
0130
0000
,
2100
0000
3001
0100
0000
0001
2000
0000
0000
0000
3100
0000
0020
0000
0031
0000
,
2001
0000
0000
0000
0000
0000
0000
0000
0000
3020
0000
0000
0000
0000
0000
0000
0000
0000
0230
0000
0000
0000
0000
0000
0000
0000
0000
0000
0000
0000
0301
0000
0000
0000
0000
0000
2000
0000
0000
0000
3001
0000
0010
0000
0000
0000
0000
0000
,
0210
0000
1300
0002
0000
0000
0203
0000
0000
0000
0310
0000
2000
0000
3001
0000
,
0021
0000
0000
0230
0000
1300
0002
0000
0000
0000
0003
0000
1000
0001
1000
0000
,
1200
0000
0310
0002
0000
0000
2003
0000
0000
0000
3010
0000
0100
0000
0001
0000
,
2001
0000
0000
0000
0000
0000
0000
0000
0000
3020
0000
0000
0000
0000
0000
0000
0000
0000
0230
0000
0000
0000
0000
0000
0000
0000
0000
0000
0000
0000
0301
0000
1000
0000
0001
0000
1000
0000
0000
0000
0100
0000
0010
0000
0000
0000
0100
0000
,
2000
3001
0100
0020
0030
1000
0001
0020
,
0000
0000
0130
0000
1000
0000
0001
0000
0200
0000
0310
0000
2000
0000
0000
3001
,
0020
0000
0000
0000
0000
0000
0000
0000
0000
0000
0000
0000
0230
0000
0000
0000
0000
0000
0300
0000
0000
1100
0000
0000
0000
0000
0000
0000
1000
0000
0002
0000
0000
0000
0000
0000
0203
0000
0000
0000
0000
0000
0320
0000
0000
0000
0000
0000
,
2030
0000
0000
0000
0000
0000
0000
0000
0000
0000
0000
0000
3002
0000
0000
0000
0000
0000
0003
0000
0000
0011
0000
0000
0000
0000
0000
0000
0010
0000
0200
0000
0000
0000
0000
0000
2300
0000
0000
0000
0000
0000
3002
0000
0000
0000
0000
0000
,
0200
0000
0000
0000
0000
0000
0300
0000
0000
0000
0000
0000
2000
0000
0000
3000
0000
0000
0000
0000
0000
0010
0000
0000
0000
0000
0000
0000
1000
0000
1000
0000
0000
0000
0000
0000
0010
0000
0000
0000
0000
0000
1000
0000
0000
0000
0000
0000
,
0200
0300
0000
2000
3000
0000
0020
0030
0000
2003
0000
0000
3020
0000
0000
0000
,
2030
0000
0000
0000
0000
0000
0000
0000
0000
0000
0000
0000
0002
0000
0000
0000
0000
0000
0003
0000
0000
0010
0000
0000
0000
0000
0000
0000
0001
0000
0001
0000
0000
0000
0000
0000
0100
0000
0000
0000
0000
0000
0001
0000
0000
0000
0000
0000
,
0020
0000
0000
0000
0000
0000
0030
0000
0000
0000
0000
0000
0200
0000
0000
0300
0000
0000
0000
0000
0000
0001
0000
0000
0000
0000
0000
0000
0010
0000
0010
0000
0000
0000
0000
0000
0001
0000
0000
0000
0000
0000
0100
0000
0000
0000
0000
0000
,
3002
0000
0000
0000
0000
0000
0000
0000
0000
0000
0000
0000
0023
0000
0000
0000
0000
0000
0030
0000
0000
0110
0000
0000
0000
0000
0000
0000
0100
0000
2000
0000
0000
0000
0000
0000
3002
0000
0000
0000
0000
0000
0203
0000
0000
0000
0000
0000
,
0320
0000
0000
0000
0000
0000
0000
0000
0000
2030
0000
0000
0000
0000
0000
0000
0000
0000
3002
0000
0000
0000
0000
0000
0000
0000
0000
0023
0000
0000
0000
0000
0000
0000
0000
0000
0130
0000
0000
0000
1000
0000
0001
0000
0000
0000
0000
0000
,
0202
0000
0000
0003
,
0010
0000
0000
0000
,
0000
0000
0000
0000
,
0000
0000
0000
0000
,
0300
0000
0000
0000
;

//---------------dance-single - Ace Of Arrows (2019)----------------
#NOTES:
     dance-single:
     Ace Of Arrows (2019):
     Hard:
     8:
     0.529,0.441,0.000,0.965,0.430: // measure 1
0000
0000
0000
0000
,  // measure 2
2000
0000
0000
0000
3020
0000
0000
0230
0000
0301
1000
0000
0001
0000
0010
0000
,  // measure 3
0200
0000
0000
0000
2300
0000
0000
3002
0000
0013
0100
0000
1000
0000
0001
0000
,  // measure 4
0200
0000
0000
0000
0320
0000
0000
2030
0000
3001
0010
0000
0100
0000
0010
0000
,  // measure 5
0002
0000
0000
2003
0000
0000
3020
0000
0000
0230
0000
0000
0301
0000
1000
0000
,  // measure 6
0200
0000
0000
0000
0320
0000
0000
0032
0000
1003
0010
0000
1000
0000
0001
0000
,  // measure 7
0020
0000
0000
0000
0032
0000
0000
2003
0000
3010
0100
0000
0001
0000
0100
0000
,  // measure 8
0020
0000
0000
0000
2030
0000
0000
3002
0000
0013
0100
0000
1000
0000
0001
0000
,  // measure 9
2000
0000
0000
3020
0000
0000
0230
0000
0000
0302
0000
0000
1003
0000
0100
0000
,  // measure 10
0020
0000
0000
0000
0230
0000
0000
4300
0000
3001
0010
0000
0001
0000
1000
0000
,  // measure 11
0040
0000
0000
0000
0030
0000
0000
0200
0000
0301
2000
0000
3001
0000
0010
0000
,  // measure 12
0200
0000
0000
0000
0300
0000
0000
0020
0000
0031
1000
0000
0010
0000
0100
0000
,  // measure 13
0002
0000
0000
0000
0000
0000
1003
0400
0000
0000
0000
0000
0300
0000
0000
0000
,  // measure 14
0020
0000
0000
0000
0034
0000
0000
2003
0000
3010
0100
0000
0010
0000
1000
0000
,  // measure 15
0002
0000
0000
0000
0003
0000
0000
0020
0000
0000
0130
0000
1000
0000
0001
0000
,  // measure 16
4000
0000
0000
0000
3000
0000
0000
0020
0000
1030
0001
0000
0010
0000
0100
0000
,  // measure 17
0020
0000
0000
0000
0000
0000
0031
2000
0000
0000
0000
0000
3000
0000
0000
0000
,  // measure 18
0010
0100
0001
2000
0000
3100
0010
0002
,  // measure 19
0000
0000
0013
0000
0100
0000
1000
0004
0000
0000
0000
0000
0003
0000
0000
0000
,  // measure 20
1000
0000
0010
0000
0100
0000
0020
0000
0000
0000
1030
0000
0001
0000
0010
0200
,  // measure 21
0000
0000
0000
0000
0000
0000
1300
0004
0000
0000
0000
0000
0000
0000
0003
0000
,  // measure 22
2000
0000
3010
0100
0000
0100
0002
0000
0000
0000
1003
0000
0100
0000
0010
0000
,  // measure 23
0002
0000
1003
0100
0000
0100
0040
0000
0000
0000
0030
0000
0001
0010
0001
0000
,  // measure 24
2000
0000
3001
0100
0000
0100
0020
0000
0000
0000
1030
0000
0001
0000
0010
0000
,  // measure 25
0200
0000
0000
2300
0000
0000
3002
0000
0000
0000
0103
0000
0040
0000
0030
0000
,  // measure 26
2000
0000
3001
0010
0000
0010
0200
0000
0000
0000
0310
0000
0001
0000
1000
0000
,  // measure 27
0020
0000
0130
0002
0000
0000
4003
0000
0000
0000
3000
0000
0100
0000
0010
0000
,  // measure 28
0002
0000
1003
0001
0000
0001
0020
0000
0000
0000
0130
0000
1000
0000
0001
0000
,  // measure 29
2000
0000
0000
3020
0000
0000
0230
0000
0000
0000
0301
0000
2000
0000
3000
0000
,  // measure 30
0100
0010
0001
0020
0030
0001
1000
0020
,  // measure 31
0000
0000
0130
0000
0001
0000
1000
0000
0100
0000
0010
0000
0100
0000
1000
0001
,  // measure 32
2000
0000
0000
0000
3020
0000
0000
0230
0000
0301
1000
0000
0001
0000
0010
0000
,  // measure 33
0200
0000
0000
0000
2300
0000
0000
3002
0000
0103
0010
0000
0100
0000
0001
0000
,  // measure 34
2000
0000
0000
0000
3200
0000
0000
0320
0000
0130
1000
0000
0001
0000
1000
0000
,  // measure 35
0020
0000
0000
0230
0000
0000
0302
0000
0000
2003
0000
0000
3100
0000
0010
0000
,  // measure 36
0002
0000
0000
0000
2003
0000
0000
3020
0000
0130
0010
0000
1000
0000
0001
0000
,  // measure 37
0020
0000
0000
0000
0230
0000
0000
2300
0000
3001
0100
0000
0001
0000
1000
0000
,  // measure 38
0200
0000
0000
0000
0320
0000
0000
0032
0000
1003
0010
0000
0100
0000
0010
0000
,  // measure 39
2000
0000
0000
3002
0000
0000
0023
0000
0000
0230
0000
0000
1300
0000
0001
0000
,  // measure 40
0200
0000
0000
0000
0340
0000
0000
2030
0000
0000
3001
0000
0010
0000
0100
0000
,  // measure 41
2000
0000
0000
0000
3000
0000
0000
0002
0000
0203
0000
0000
0301
0000
1000
0000
,  // measure 42
0200
0000
0000
0000
0300
0000
0000
0020
0000
0031
1000
0000
0010
0000
0100
0000
,  // measure 43
0020
0000
0000
0000
0000
0000
1030
0004
0000
0000
0000
0000
0003
0000
0000
0000
,  // measure 44
0020
0000
0000
0000
0230
0000
0000
2300
0000
3001
0100
0000
0010
0000
0100
0000
,  // measure 45
0002
0000
0000
0000
0003
0000
0000
2000
0000
3100
0010
0000
0100
0000
1000
0000
,  // measure 46
0002
0000
0000
0000
0003
0000
0000
2000
0000
3010
0100
0000
0001
0000
1000
0000
,  // measure 47
0002
0000
0000
0000
0000
0000
0013
0200
0000
0000
0000
0000
0000
0000
0300
0000
,  // measure 48
1000
0001
0100
0002
0000
1003
0100
0020
,  // measure 49
0000
0000
0130
0000
1000
0000
0001
0040
0000
0000
0000
0000
0030
0000
0000
0000
,  // measure 50
0001
0000
1000
0000
0010
0000
0200
0000
0000
0000
0301
0000
1000
0000
0100
0040
,  // measure 51
0000
0000
0000
0000
0000
0000
0031
4000
0000
0000
0000
0000
0000
0000
3000
0000
,  // measure 52
0002
0000
1003
0010
0000
0010
0200
0000
0000
0000
0301
0000
1000
0000
0100
0000
,  // measure 53
0020
0000
0000
0230
0000
1300
0002
0000
0000
0000
0003
0000
1000
0000
0010
0000
,  // measure 54
0200
0000
0301
1000
0000
1000
0200
0000
0000
0000
0310
0000
0100
0000
1000
0000
,  // measure 55
0002
0000
0000
0203
0000
0000
0320
0000
0000
0000
1030
0000
0002
0000
0003
0000
,  // measure 56
0020
0000
0031
1000
0000
1000
0020
0000
0000
0000
0130
0000
0001
0000
1000
0000
,  // measure 57
0200
0000
1300
0002
0000
0000
0403
0000
0000
0000
0300
0000
0010
1000
0010
0000
,  // measure 58
0200
0000
0301
1000
0000
1000
0200
0000
0000
0000
0310
0000
0001
0000
1000
0000
,  // measure 59
0020
0000
0000
0230
0000
0000
0302
0000
0000
0000
1003
0000
0200
0000
0300
0000
,  // measure 60
0010
0100
1000
0004
0003
1000
0010
0200
,  // measure 61
0000
0000
0310
0000
1000
0000
0001
0000
0010
0000
0100
0000
1000
0000
0001
0100
,  // measure 62
0001
1000
0000
0200
0000
0000
0310
0001
0000
2000
0000
0000
3010
0100
0010
0000
,  // measure 63
2000
0000
0000
3002
0000
0000
0023
0000
0000
0230
0000
0000
1300
0000
0001
0000
,  // measure 64
1000
0010
0000
0200
0000
0000
0301
1000
0000
0200
0000
0000
0310
0001
0000
0001
,  // measure 65
1000
0000
0000
0002
0000
0103
0010
0200
0000
0000
0000
0000
0300
0000
0000
0000
,  // measure 66
0001
1000
0000
0200
0000
0000
0310
0001
0000
2000
0000
0000
3001
0100
0001
0000
,  // measure 67
2000
0000
0000
3200
0000
0000
0320
0000
0000
0032
0000
0000
2003
0000
3400
0000
,  // measure 68
0320
0000
0000
0230
0000
0000
1300
0001
0000
0001
0200
0000
0310
0000
4000
0000
,  // measure 69
3001
0010
0000
0200
0000
0000
0310
0001
0000
2000
0000
0000
3001
0000
0100
0000
,  // measure 70
0010
0100
0001
2000
0000
3100
0010
0002
,  // measure 71
0000
0000
1003
0000
0010
0000
0100
0004
0000
0000
0000
0000
0003
0000
0000
0000
,  // measure 72
1000
0000
0100
0000
0010
0000
0200
0000
0000
0000
1300
0000
0001
0000
0100
0040
,  // measure 73
0000
0000
0000
0000
0000
0000
1030
0004
0000
0000
0000
0000
0000
0000
0003
0000
,  // measure 74
2000
0000
3100
0010
0000
0010
0200
0000
0000
0000
1300
0000
0001
0000
1000
0000
0002
0000
0013
0200
0000
0000
4300
0000
0000
0000
3000
0000
0001
0010
0001
0000
,  // measure 75
2000
0000
3100
0010
0000
0010
0002
0000
0000
0000
1003
0000
0010
0000
1000
0000
0002
0000
0000
0023
0000
0000
0230
0000
0000
0000
1300
0000
0002
0000
0003
0000
,  // measure 76
2000
0000
0000
3002
0000
0013
0200
0000
0000
0000
1300
0000
0001
0000
1000
0000
0020
0000
0130
0001
0000
0001
4000
0000
0000
0000
3000
0000
0001
0010
0001
0000
,  // measure 77
2000
0000
3010
0100
0000
0100
0002
0000
0000
0000
1003
0000
0100
0000
0010
0000
0200
0000
0000
2300
0000
0000
3002
0000
0000
0000
1003
0000
0040
0000
0030
0000
,  // measure 78
1000
0001
0010
0200
0300
0010
0001
2000
0000
3001
0010
0100
0020
0000
0000
0030
,  // measure 79
0002
0000
1003
0010
0000
0010
0200
0000
0000
0000
0301
0000
1000
0000
0100
0000
,  // measure 80
0020
0000
0130
1000
0000
1000
0004
0000
0000
0000
0003
0000
1000
0000
0010
0000
,  // measure 81
0200
0000
0301
1000
0000
1000
0200
0000
0000
0000
0310
0000
0100
0000
1000
0000
,  // measure 82
0002
0000
0000
0203
0000
0000
0320
0000
0000
0000
1030
0000
0002
0000
0003
0000
,  // measure 83
0020
0000
0031
2000
0000
0000
3004
0000
0000
0000
0013
0000
0100
0000
1000
0000
,  // measure 84
0002
0000
0000
0203
0000
0310
4000
0000
0000
0000
3000
0000
0010
0100
0020
0000
,  // measure 85
2030
0000
3001
0020
0000
0000
0230
0000
0000
0000
1300
0000
0001
0000
0100
0000
,  // measure 86
0020
0000
0000
2030
0000
0000
3002
0000
0000
0000
0013
0000
0200
0000
0300
0000
,  // measure 87
1000
0001
0100
0002
0003
1000
0100
0020
,  // measure 88
0000
0000
0130
0000
1000
0000
0001
0000
1000
0000
0010
0000
0200
0000
0000
0302
,  // measure 89
0000
0000
0000
0000
2003
0000
0000
3200
0000
0310
0001
0000
1000
0000
0001
0000
,  // measure 90
0200
0000
0000
0000
0320
0000
0000
2030
0000
3001
0010
0000
0001
0000
2000
0000
,  // measure 91
0000
0000
0000
0000
,  // measure 92
0000
0000
3000
0002
,  // measure 93
0023
0000
0000
0000
,  // measure 94
0000
0000
0000
0030
,  // measure 95
0200
0000
0000
0000
2300
0000
0000
3002
0000
0103
0010
0000
1000
0000
0001
0000
,  // measure 96
0020
0000
0000
0230
0000
0000
2300
0000
0000
3001
0000
0000
1000
0000
0001
0000
,  // measure 97
0200
0000
0000
0000
,  // measure 98
0010
0000
0000
0000
,  // measure 99
0000
0000
0000
0000
,  // measure 100
0000
0000
0000
0000
,  // measure 101
0300
0000
0000
0000
;

//---------------dance-single - Ace Of Arrows (2019)----------------
#NOTES:
     dance-single:
     Ace Of Arrows (2019):
     Medium:
     6:
     0.380,0.308,0.000,0.727,0.227: // measure 1
0000
0000
0000
0000
,  // measure 2
0002
0000
0000
0000
2003
0000
0000
3001
0000
0000
1000
0000
0100
0000
0000
0000
,  // measure 3
0020
0000
0000
0000
0230
0000
0000
0310
0000
0000
0001
0000
1000
0000
0000
0000
,  // measure 4
0002
0000
0000
0000
0203
0000
0000
0301
0000
0000
1000
0000
0100
0000
0000
0000
,  // measure 5
0020
0000
0000
0230
0000
0000
2300
0000
0000
3200
0000
0000
0320
0000
0000
0000
,  // measure 6
0032
0000
0000
0000
2003
0000
0000
3001
0000
0000
1000
0000
0010
0000
0000
0000
,  // measure 7
0200
0000
0000
0000
0320
0000
0000
0130
0000
0000
0001
0000
1000
0000
0000
0000
,  // measure 8
0002
0000
0000
0000
0023
0000
0000
0031
0000
0000
1000
0000
0100
0000
0000
0000
,  // measure 9
0020
0000
0000
0230
0000
0000
0320
0000
0000
0032
0000
0000
2003
0000
0000
0000
,  // measure 10
3020
0000
0000
0000
2030
0000
0000
3002
0000
0000
0000
0000
1003
0000
0100
0000
,  // measure 11
4000
0000
0000
0000
3000
0000
0000
0002
0000
0000
1003
0000
0001
0000
0000
0000
,  // measure 12
0020
0000
0000
0000
0030
0000
0000
0200
0000
0000
1300
0000
0100
0000
0000
0000
,  // measure 13
0020
0000
0000
0000
0000
0000
0000
0034
0000
0000
0000
0000
0003
0000
0000
0000
,  // measure 14
2000
0000
0000
0000
3040
0000
0000
0230
0000
0000
0310
0000
0100
0000
0000
0000
,  // measure 15
0002
0000
0000
0000
0003
0000
0000
2000
0000
0000
3001
0000
1000
0000
0000
0000
,  // measure 16
0400
0000
0000
0000
0300
0000
0000
0020
0000
0000
0031
0000
0010
0000
0000
0000
,  // measure 17
0200
0000
0000
0000
0000
0000
0000
4300
0000
0000
0000
0000
3000
0000
0000
0000
,  // measure 18
0002
0000
1003
0020
0000
1030
0001
2000
,  // measure 19
0000
0000
0000
0000
3200
0000
0000
0340
0000
0000
0000
0000
0030
0000
0000
0000
,  // measure 20
0002
0000
1003
0200
0000
0000
1300
0001
,  // measure 21
2000
0000
0000
0000
0000
0000
0000
3002
0000
0000
0000
0000
0003
0000
0000
0000
,  // measure 22
1000
0000
0000
0100
0000
0000
2000
0000
0000
0000
3001
0000
0100
0000
0000
0000
,  // measure 23
0010
0000
0000
0100
0000
0000
0040
0000
0000
0000
0030
0000
1000
0000
0001
0000
,  // measure 24
1000
0000
0000
0010
0000
0000
2000
0000
0000
0000
0000
0000
3001
0000
0010
0000
,  // measure 25
0002
0000
0000
2003
0000
0000
3200
0000
0000
0000
1300
0000
0001
0000
0000
0000
,  // measure 26
1000
0000
0000
0010
0000
0000
2000
0000
0000
0000
3001
0000
0010
0000
0000
0000
,  // measure 27
0100
0000
0000
0010
0000
0000
0400
0000
0000
0000
0300
0000
1000
0000
0100
0000
,  // measure 28
1000
0000
0000
0001
0000
0000
2000
0000
0000
0000
0000
0000
3001
0000
0100
0000
,  // measure 29
0002
0000
0000
2003
0000
0000
3002
0000
0000
0000
0013
0000
0100
0000
0000
0000
,  // measure 30
2000
0000
3001
0100
0000
0001
1000
0002
,  // measure 31
0000
0000
1003
0000
0100
0000
0000
0000
0010
0000
0100
0000
0010
0000
0000
0002
,  // measure 32
0000
0000
0000
0000
2003
0000
0000
3010
0000
0000
1000
0000
0001
0000
0000
0000
,  // measure 33
2000
0000
0000
0000
3200
0000
0000
1300
0000
0000
0001
0000
1000
0000
0000
0000
,  // measure 34
0020
0000
0000
0000
0230
0000
0000
0310
0000
0000
1000
0000
0010
0000
0000
0000
,  // measure 35
0200
0000
0000
0302
0000
0000
2003
0000
0000
3002
0000
0000
0023
0000
0000
0000
,  // measure 36
0230
0000
0000
0000
2300
0000
0000
3100
0000
0000
0010
0000
0001
0000
0000
0000
,  // measure 37
0020
0000
0000
0000
0230
0000
0000
0310
0000
0000
0001
0000
1000
0000
0000
0000
,  // measure 38
0002
0000
0000
0000
0203
0000
0000
0301
0000
0000
1000
0000
0100
0000
0000
0000
,  // measure 39
0020
0000
0000
0230
0000
0000
2300
0000
0000
3002
0000
0000
0203
0000
0000
0000
,  // measure 40
0320
0000
0000
0000
0430
0000
0000
0302
0000
0000
1003
0000
0001
0000
0000
0000
,  // measure 41
0040
0000
0000
0000
0030
0000
0000
0200
0000
0000
0310
0000
0100
0000
0000
0000
,  // measure 42
2000
0000
0000
0000
3000
0000
0000
0002
0000
0000
0103
0000
0001
0000
0000
0000
,  // measure 43
2000
0000
0000
0000
0000
0000
0000
3400
0000
0000
0000
0000
0300
0000
0000
0000
,  // measure 44
0020
0000
0000
0000
0230
0000
0000
0320
0000
0000
0031
0000
0010
0000
0000
0000
,  // measure 45
0200
0000
0000
0000
0300
0000
0000
2000
0000
0000
3001
0000
1000
0000
0000
0000
,  // measure 46
0020
0000
0000
0000
0030
0000
0000
2000
0000
0000
3001
0000
1000
0000
0000
0000
,  // measure 47
0020
0000
0000
0000
0000
0000
0000
0230
0000
0000
0000
0000
0000
0000
0300
0000
,  // measure 48
0002
0000
1003
0200
0000
0000
0310
0002
,  // measure 49
0000
0000
1003
0000
0020
0000
0000
4030
0000
0000
0000
0000
3000
0000
0000
0000
,  // measure 50
0002
0000
0013
0200
0000
0000
0310
0001
,  // measure 51
0020
0000
0000
0000
0000
0000
0000
0430
0000
0000
0000
0000
0300
0000
0000
0000
,  // measure 52
1000
0000
0000
0001
0000
0000
2000
0000
0000
0000
3001
0000
0010
0000
0000
0000
,  // measure 53
0100
0000
0000
0010
0000
0000
0200
0000
0000
0000
0300
0000
1000
0000
0000
0000
,  // measure 54
0001
0000
0000
0100
0000
0000
0002
0000
0000
0000
1003
0000
0100
0000
0000
0000
,  // measure 55
0020
0000
0000
0230
0000
0000
0320
0000
0000
0000
0031
0000
1000
0000
0000
0000
,  // measure 56
0001
0000
0000
0100
0000
0000
0002
0000
0000
0000
1003
0000
0010
0000
0000
0000
,  // measure 57
1000
0000
0000
0001
0000
0000
4000
0000
0000
0000
3000
0000
0001
0000
0000
0000
,  // measure 58
0010
0000
0000
0100
0000
0000
0020
0000
0000
0000
0031
0000
1000
0000
0000
0000
,  // measure 59
0020
0000
0000
2030
0000
0000
3020
0000
0000
0000
0130
0000
0001
0000
0000
0000
,  // measure 60
2000
0000
3001
0040
0000
0031
1000
0002
,  // measure 61
0000
0000
1003
0010
2000
0000
3002
0000
,  // measure 62
0013
0000
0000
0100
0000
0000
0010
0000
0000
0001
0000
0000
1000
0000
0010
0000
,  // measure 63
2000
0000
0000
3002
0000
0000
2003
0000
0000
3200
0000
0000
0310
0000
0100
0000
,  // measure 64
0010
0000
0000
0001
0000
0000
1000
0000
0000
0001
0000
0000
1000
0000
0000
0000
,  // measure 65
0020
0000
0000
1030
0000
0000
0000
0002
0000
0000
0000
0000
0003
0000
0000
0000
,  // measure 66
0010
0000
0000
0100
0000
0000
0010
0000
0000
0001
0000
0000
1000
0000
0100
0000
,  // measure 67
2000
0000
0000
3002
0000
0000
0203
0000
0000
0302
0000
0000
2003
0000
0000
0000
,  // measure 68
3010
0000
0000
0100
0000
0000
0001
0000
0000
1000
0000
0000
0001
0000
1000
0000
,  // measure 69
0100
0000
0000
0020
0000
0000
0130
0000
0000
2000
0000
0000
3001
0000
0100
0000
,  // measure 70
0002
0000
1003
0200
0000
0000
1300
0002
,  // measure 71
0000
0000
1003
0000
0020
0000
0000
0430
0000
0000
0000
0000
0300
0000
0000
0000
,  // measure 72
0002
0000
1003
0200
0000
0000
0310
0001
,  // measure 73
0040
0000
0000
0000
0000
0000
0000
0430
0000
0000
0000
0000
0000
0000
0300
0000
,  // measure 74
1000
0000
0000
1000
0000
0000
2000
0000
0000
0000
0000
0000
3001
0000
0000
0000
0100
0000
0000
0100
0000
0000
0400
0000
0000
0000
0000
0000
0310
0000
0000
0000
,  // measure 75
1000
0000
0000
1000
0000
0000
2000
0000
0000
0000
0000
0000
3001
0000
0000
0000
0010
0000
0000
0000
0000
0000
0010
0000
0000
0000
0000
0000
0010
0000
0000
0000
,  // measure 76
0100
0000
0000
0100
0000
0000
0200
0000
0000
0000
0000
0000
1300
0000
0000
0000
0001
0000
0000
0001
0000
0000
0004
0000
0000
0000
0000
0000
0103
0000
0000
0000
,  // measure 77
0010
0000
0000
0010
0000
0000
0020
0000
0000
0000
0000
0000
1030
0000
0000
0000
0001
0000
0000
0000
0000
0000
0001
0000
0000
0000
0000
0000
0001
0000
0000
0000
,  // measure 78
0010
0000
0000
0010
0000
0000
0001
0000
0001
0000
0001
0000
0002
0000
0000
0003
,  // measure 79
1000
0000
0000
0010
0000
0000
2000
0000
0000
0000
3001
0000
0010
0000
0000
0000
,  // measure 80
0001
0000
0000
1000
0000
0000
0004
0000
0000
0000
0003
0000
0010
0000
0000
0000
,  // measure 81
0100
0000
0000
0010
0000
0000
0200
0000
0000
0000
1300
0000
0001
0000
0000
0000
,  // measure 82
2000
0000
0000
3020
0000
0000
2030
0000
0000
0000
3001
0000
0100
0000
0000
0000
,  // measure 83
0010
0000
0000
1000
0000
0000
0040
0000
0000
0000
0130
0000
0001
0000
0000
0000
,  // measure 84
1000
0000
0000
0001
0000
0000
4000
0000
0000
0000
3000
0000
0001
0000
0000
0000
,  // measure 85
0010
0000
0000
0100
0000
0000
0020
0000
0000
0000
0031
0000
1000
0000
0000
0000
,  // measure 86
0002
0000
0000
0203
0000
0000
0302
0000
0000
0000
1003
0000
0100
0000
0000
0000
,  // measure 87
0020
0000
0130
1000
0000
0001
0100
0002
,  // measure 88
0000
1003
0100
0000
1000
0001
2000
0000
,  // measure 89
3200
0000
0000
0000
0320
0000
0000
0130
0000
0000
1000
0000
0001
0000
0000
0000
,  // measure 90
0200
0000
0000
0000
0302
0000
0000
0100
0003
0000
0010
0000
1000
0000
0020
0000
,  // measure 91
0000
0000
0000
0000
,  // measure 92
0000
0000
0030
2000
,  // measure 93
3002
0000
0000
0000
,  // measure 94
0000
0000
0000
0003
,  // measure 95
2000
0000
0000
0000
3200
0000
0000
1300
0000
0000
0001
0000
0200
0000
0000
0000
,  // measure 96
0302
0000
0000
2003
0000
0000
3002
0000
0000
0023
0000
0000
0031
0000
1000
0000
,  // measure 97
0002
0000
0000
0000
,  // measure 98
1000
0000
0000
0000
,  // measure 99
0000
0000
0000
0000
,  // measure 100
0000
0000
0000
0000
,  // measure 101
0003
0000
0000
0000
;

//---------------dance-single - Ace Of Arrows (2019)----------------
#NOTES:
     dance-single:
     Ace Of Arrows (2019):
     Easy:
     3:
     0.210,0.176,0.000,0.339,0.000: // measure 1
0000
0000
0000
0000
,  // measure 2
1000
1000
2000
3000
,  // measure 3
0010
0010
0020
0030
,  // measure 4
0100
0100
0200
0300
,  // measure 5
0002
0000
0003
0000
,  // measure 6
1000
1000
2000
3000
,  // measure 7
0100
0100
0200
0300
,  // measure 8
0010
0010
0020
0030
,  // measure 9
0002
0000
0003
0000
,  // measure 10
1000
1000
2000
3000
,  // measure 11
4000
3000
0001
0001
,  // measure 12
0002
0003
0100
0100
,  // measure 13
0200
0300
0400
0300
,  // measure 14
0010
0010
0020
0030
,  // measure 15
0020
0030
1000
1000
,  // measure 16
4000
3000
0001
0001
,  // measure 17
0002
0003
0004
0003
,  // measure 18
0010
0010
0020
0030
,  // measure 19
0100
0100
0400
0300
,  // measure 20
1000
1000
2000
3000
,  // measure 21
0002
0003
0002
0003
,  // measure 22
0100
0100
0200
0300
,  // measure 23
0010
0010
0040
0030
,  // measure 24
1000
1000
2000
3000
,  // measure 25
0002
0000
0003
0000
,  // measure 26
0010
0010
0020
0030
,  // measure 27
0100
0100
0400
0300
,  // measure 28
1000
1000
2000
3000
,  // measure 29
0200
0000
0300
0000
,  // measure 30
0010
0010
0010
0000
,  // measure 31
0001
0001
0001
0000
,  // measure 32
1000
1000
2000
3000
,  // measure 33
0010
0010
0020
0030
,  // measure 34
0100
0100
0200
0300
,  // measure 35
0020
0000
0030
0000
,  // measure 36
1000
1000
2000
3000
,  // measure 37
0001
0001
0002
0003
,  // measure 38
0010
0010
0020
0030
,  // measure 39
0200
0000
0300
0000
,  // measure 40
0010
0010
0020
0030
,  // measure 41
0040
0030
0001
0001
,  // measure 42
0002
0003
1000
1000
,  // measure 43
2000
3000
4000
3000
,  // measure 44
0001
0001
0002
0003
,  // measure 45
0002
0003
0100
0100
,  // measure 46
0200
0300
0010
0010
,  // measure 47
0020
0030
0020
0030
,  // measure 48
1000
1000
2000
3000
,  // measure 49
0001
0001
0004
0003
,  // measure 50
0010
0010
0020
0030
,  // measure 51
0200
0300
0400
0300
,  // measure 52
1000
1000
2000
3000
,  // measure 53
0001
0001
0002
0003
,  // measure 54
0100
0100
0200
0300
,  // measure 55
0020
0000
0030
0000
,  // measure 56
1000
1000
2000
3000
,  // measure 57
0001
0001
0004
0003
,  // measure 58
0010
0010
0020
0030
,  // measure 59
0002
0000
0003
0000
,  // measure 60
1000
1000
1000
0000
,  // measure 61
0010
0010
0020
0030
,  // measure 62
0100
0000
0100
0000
,  // measure 63
0001
0001
0002
0003
,  // measure 64
1000
0000
1000
0000
,  // measure 65
0100
0100
0200
0300
,  // measure 66
0010
0000
0010
0000
,  // measure 67
0001
0001
0002
0003
,  // measure 68
1000
0000
1000
0000
,  // measure 69
0010
0010
0020
0030
,  // measure 70
0100
0100
0200
0300
,  // measure 71
0001
0001
0004
0003
,  // measure 72
1000
1000
2000
3000
,  // measure 73
0400
0300
0400
0300
,  // measure 74
1000
1000
2000
3000
0001
0001
0004
0003
,  // measure 75
0100
0100
0200
0300
0020
0000
0030
0000
,  // measure 76
0100
0100
0200
0300
0001
0001
0004
0003
,  // measure 77
1000
1000
2000
3000
0200
0000
0300
0000
,  // measure 78
0010
0000
0040
0030
0001
0001
0002
0003
,  // measure 79
1000
1000
2000
3000
,  // measure 80
0010
0010
0040
0030
,  // measure 81
0100
0100
0200
0300
,  // measure 82
0002
0000
0003
0000
,  // measure 83
1000
1000
4000
3000
,  // measure 84
0100
0100
0400
0300
,  // measure 85
0010
0010
0020
0030
,  // measure 86
0200
0000
0300
0000
,  // measure 87
1000
1000
1000
0000
,  // measure 88
0001
0001
0002
0003
,  // measure 89
0100
0100
0200
0300
,  // measure 90
0010
0010
0020
0030
,  // measure 91
2000
0000
0000
0000
,  // measure 92
0000
0000
3000
0001
,  // measure 93
0002
0000
0000
0000
,  // measure 94
0000
0000
0000
0003
,  // measure 95
0010
0010
0020
0030
,  // measure 96
0200
0300
1000
1000
,  // measure 97
2000
0000
0000
0000
,  // measure 98
0000
0000
0000
0000
,  // measure 99
0000
0000
0000
0000
,  // measure 100
0000
0000
0000
0000
,  // measure 101
3000
0000
0000
0000
;

//---------------dance-single - Ace Of Arrows (2019)----------------
#NOTES:
     dance-single:
     Ace Of Arrows (2019):
     Beginner:
     1:
     0.125,0.088,0.000,0.260,0.000:
0000
0000
0000
0000
,
0001
0000
0001
0000
,
0002
0000
0003
0000
,
1000
0000
1000
0000
,
2000
0000
3000
0000
,
0010
0000
0010
0000
,
0020
0000
0030
0000
,
0100
0000
0100
0000
,
0200
0000
0300
0000
,
0001
0000
0002
0000
,
0003
0000
0002
0000
,
0003
0000
1000
0000
,
2000
0000
3000
0000
,
0100
0000
0200
0000
,
0300
0000
0200
0000
,
0300
0000
0010
0000
,
0020
0000
0030
0000
,
0001
0000
0001
0000
,
0002
0000
0003
0000
,
1000
0000
1000
0000
,
2000
0000
3000
0000
,
0010
0000
0010
0000
,
0020
0000
0030
0000
,
0100
0000
0100
0000
,
0200
0000
0300
0000
,
0001
0000
0001
0000
,
0002
0000
0003
0000
,
1000
0000
1000
0000
,
2000
0000
3000
0000
,
0200
0000
0300
0000
,
0010
0000
0010
0000
,
0020
0000
0030
0000
,
0002
0000
0003
0000
,
1000
0000
1000
0000
,
2000
0000
3000
0000
,
0010
0000
0010
0000
,
0020
0000
0030
0000
,
0100
0000
0100
0000
,
0200
0000
0300
0000
,
0001
0000
0002
0000
,
0003
0000
0002
0000
,
0003
0000
1000
0000
,
2000
0000
3000
0000
,
0100
0000
0200
0000
,
0300
0000
0200
0000
,
0300
0000
0010
0000
,
0020
0000
0030
0000
,
0001
0000
0001
0000
,
0002
0000
0003
0000
,
1000
0000
1000
0000
,
2000
0000
3000
0000
,
0001
0000
0001
0000
,
0002
0000
0003
0000
,
0100
0000
0100
0000
,
0200
0000
0300
0000
,
0010
0000
0010
0000
,
0020
0000
0030
0000
,
0100
0000
0100
0000
,
0200
0000
0300
0000
,
0002
0000
0003
0000
,
0002
0000
0003
0000
,
1000
0000
1000
0000
,
2000
0000
3000
0000
,
0100
0000
0100
0000
,
0200
0000
0300
0000
,
0010
0000
0010
0000
,
0020
0000
0030
0000
,
0001
0000
0001
0000
,
0002
0000
0003
0000
,
1000
0000
1000
0000
,
2000
0000
3000
0000
,
0010
0000
0010
0000
,
0020
0000
0030
0000
,
1000
1000
2000
3000
,
0001
0001
0002
0003
,
0010
0010
0020
0030
,
0100
0100
0200
0300
,
2000
3000
0002
0003
,
1000
0000
1000
0000
,
2000
0000
3000
0000
,
0010
0000
0010
0000
,
0020
0000
0030
0000
,
0100
0000
0100
0000
,
0200
0000
0300
0000
,
0001
0000
0001
0000
,
0002
0000
0003
0000
,
0200
0000
0300
0000
,
0020
0000
0030
0000
,
1000
0000
1000
0000
,
2000
0000
3000
0000
,
0002
0000
0000
0000
,
0000
0000
0003
0000
,
2000
0000
0000
0000
,
0000
0000
3000
0000
,
0010
0000
0010
0000
,
0020
0000
0030
0000
,
0200
0000
0000
0000
,
0000
0000
0000
0000
,
0000
0000
0000
0000
,
0000
0000
0000
0000
,
0300
0000
0000
0000
;
