#TITLE:Shut Up and Dance (With Me);
#SUBTITLE:;
#ARTIST:Walk the Moon;
#TITLETRANSLIT:;
#SUBTITLETRANSLIT:;
#ARTISTTRANSLIT:;
#GENRE:;
#CREDIT:Ace Of Arrows;
#BANNER:Shut Up and Dance - Bn.png;
#BACKGROUND:Shut Up and Dance - Bg.png;
#LYRICSPATH:;
#CDTITLE:Ace Of Arrows.png;
#MUSIC:Shut Up and Dance.ogg;
#OFFSET:1.090;
#SAMPLESTART:50.800;
#SAMPLELENGTH:12.000;
#SELECTABLE:YES;
#BPMS:0.000=128.000,348.000=120.000,350.000=60.000,351.000=128.000;
#STOPS:351.000=2.100
,351.167=0.400
,351.333=0.600
,351.500=0.600
,351.667=0.600
,351.833=0.600
,352.000=0.500
,352.167=0.600
,352.333=2.000
,352.500=0.500
,352.667=0.500
,352.833=0.200
,353.000=0.200
,353.167=0.800
,353.333=0.400
,353.500=0.400
,353.667=0.400
,353.833=0.400
,354.000=0.400
,354.167=0.400
,354.333=0.400
,354.500=0.400
,354.667=0.800
,354.833=0.900
,355.000=0.600
,355.167=0.450
;
#BGCHANGES:;
#KEYSOUNDS:;

//---------------dance-single - Ace Of Arrows (2019)----------------
#NOTES:
     dance-single:
     Ace Of Arrows (2019):
     Hard:
     8:
     0.480,0.073,0.231,0.511,0.093: // measure 1
0000
0000
0000
0000
,  // measure 2
0000
0000
0000
0000
,  // measure 3
0000
0000
0000
0000
,  // measure 4
0000
0000
0000
0000
0000
1000
0001
0010
,  // measure 5
0002
0000
0000
1003
0000
0000
0100
0000
0000
0000
1000
0000
0001
0000
1000
0000
,  // measure 6
0020
0000
0000
0130
0000
0000
0001
0000
0000
0000
1000
0000
0001
0000
0010
0000
,  // measure 7
0200
0000
0000
1300
0000
0000
0001
0000
0000
0000
1000
0000
0010
0000
0200
0000
,  // measure 8
0301
0000
1000
0000
0200
0000
0310
0001
,  // measure 9
0000
0010
0000
0200
0000
1300
0001
0100
,  // measure 10
0020
0000
0000
2030
0000
0000
3001
0000
0000
0000
0010
0000
0001
0000
0000
0000
,  // measure 11
2000
0000
3100
0020
0000
0030
0000
0001
,  // measure 12
1001
0000
1000
0000
0020
0000
0130
0101
,  // measure 13
0000
0000
0001
0000
0000
1000
0000
0000
0010
0000
0000
0100
0000
0000
0001
0000
,  // measure 14
0000
0000
1000
0000
0000
0100
0000
0000
0010
0000
0000
0100
0000
0000
1000
0000
,  // measure 15
0000
0000
0001
0000
0000
0100
0000
0000
0010
0000
0000
1000
0000
0000
0001
0000
,  // measure 16
0000
0000
0010
0000
0000
0100
0000
0000
1000
0000
0000
0000
0001
0000
0100
0000
,  // measure 17
0010
0000
2000
0000
3002
0000
0013
0100
,  // measure 18
0000
1000
0001
0100
0010
1000
0002
0003
,  // measure 19
1000
0000
0100
0000
2000
0000
3000
0000
0100
0000
0000
0020
0000
0000
0032
0000
,  // measure 20
0000
0003
0000
2002
3003
1000
0010
0100
,  // measure 21
0002
0000
1003
0100
2000
0000
3001
0101
,  // measure 22
0000
0000
0000
0120
0000
1030
0001
0021
,  // measure 23
0000
0130
1000
0001
1000
0010
0000
0210
,  // measure 24
0000
0301
1000
0100
1000
0001
0100
0010
,  // measure 25
0000
1000
0001
0010
0100
0000
1100
0000
,  // measure 26
1000
0001
0100
0010
2000
3001
0010
0100
,  // measure 27
0000
0010
0001
1000
0100
1000
0001
0020
,  // measure 28
0000
0130
1000
0002
0000
1003
0010
0100
,  // measure 29
0002
0000
0000
1003
0000
0000
1100
0000
0000
0000
0100
0000
0010
0000
0001
0000
,  // measure 30
2000
0000
0000
3010
0000
0000
0110
0000
0000
0000
0100
0000
0001
0000
1000
0000
,  // measure 31
0200
0000
0000
0310
0000
0000
0011
0000
0000
0000
0001
0000
1000
0000
0010
0000
,  // measure 32
0110
0000
0100
0000
0002
0000
1003
1100
,  // measure 33
0000
0100
0000
0120
0000
0031
1000
0010
,  // measure 34
0200
0000
0000
0302
0000
0000
1003
0000
0000
0000
0100
0000
0010
0000
0000
0000
,  // measure 35
0012
0000
1003
0020
0000
0130
0001
1000
,  // measure 36
1100
0000
0100
0000
0020
0000
0031
1001
,  // measure 37
0000
0000
1000
0000
0000
0010
0000
0000
0100
0000
0000
0001
0000
0000
1000
0000
,  // measure 38
0000
0100
0000
0010
0001
0000
1000
0000
,  // measure 39
1010
0000
0010
0100
0001
2000
3000
1100
,  // measure 40
0000
0100
0010
0001
1000
0001
0100
0000
,  // measure 41
0020
0000
1030
0000
0001
0000
0000
0000
0020
0000
0000
0130
0000
0000
2200
0000
,  // measure 42
0000
3300
0000
1000
0001
0100
0010
0100
,  // measure 43
0002
0000
1003
0100
0020
0000
0130
1000
,  // measure 44
0000
0000
0001
0200
0000
0310
1000
1002
,  // measure 45
0000
0013
0100
1000
0001
0100
0000
0120
,  // measure 46
0000
1030
0001
0010
0100
1000
0001
0100
,  // measure 47
0000
0010
0100
0001
1000
0000
1010
0000
,  // measure 48
0000
0010
0100
0001
0200
0310
1000
0001
,  // measure 49
0000
0010
0100
1000
0001
0100
0010
2000
,  // measure 50
0000
3001
0010
0100
1000
0100
0010
0001
,  // measure 51
2000
0000
0000
3010
0000
0000
0110
0000
0000
0000
0100
0000
0001
0000
1000
0000
,  // measure 52
0200
0000
0000
0310
0000
0000
0011
0000
0000
0000
0001
0000
1000
0000
0010
0000
,  // measure 53
0200
0000
0000
0301
0000
0000
1001
0000
0000
0000
1000
0000
0100
0000
0010
0000
,  // measure 54
0011
0000
0001
0000
2000
0000
3010
0110
,  // measure 55
0000
0100
0000
0102
0000
1003
0100
0010
,  // measure 56
0200
0000
0000
2300
0000
3000
1001
0000
0000
0000
0001
0000
0100
0000
0000
0000
,  // measure 57
0120
0000
1030
0002
0000
0000
0003
0010
,  // measure 58
0110
0000
0100
0000
2000
0000
3001
0101
,  // measure 59
0200
0000
0310
1000
0001
0010
0100
1000
,  // measure 60
0001
0000
0100
0000
0010
0100
0000
0002
0000
0000
0000
0000
1003
0000
0200
0000
,  // measure 61
0000
0000
0000
0000
,  // measure 62
0310
0001
1000
0001
0100
0010
1000
0001
,  // measure 63
0020
0000
0130
2000
0000
0000
0000
0000
,  // measure 64
3001
1000
0100
0040
0000
0000
0000
0000
,  // measure 65
0130
1000
0000
1000
0001
0000
0001
1000
0000
1000
0001
0000
0001
0100
0000
0100
,  // measure 66
0010
0000
0010
0100
0000
0100
0010
0000
4000
0000
0000
0000
0000
0000
0000
0000
,  // measure 67
3001
0010
0100
0010
0002
0000
1003
0020
,  // measure 68
0000
0130
0001
1000
0100
0010
0001
2000
,  // measure 69
0000
3010
0100
0001
1000
0000
1001
0000
,  // measure 70
0000
0001
0010
0100
0020
0031
1000
0010
,  // measure 71
0000
0100
0001
1000
0200
0000
0310
0001
,  // measure 72
0000
1000
0001
0100
0020
0030
2020
0000
,  // measure 73
3030
1000
0001
0100
0010
0000
1010
0000
,  // measure 74
0000
1000
0001
0010
0200
1300
0001
0100
,  // measure 75
0000
0010
0100
0001
1000
0100
0010
0002
,  // measure 76
0000
1003
0010
0100
0001
1000
0100
0010
,  // measure 77
0001
0010
0100
1000
0100
0010
0001
1000
,  // measure 78
0001
0100
0010
2000
0000
3001
0100
0010
,  // measure 79
1000
0010
0100
0001
1000
0001
0010
0100
,  // measure 80
1000
0100
0010
0002
0000
1003
0010
0100
,  // measure 81
0002
0000
0000
1003
0000
0000
0100
0000
0000
0000
0010
0000
0100
0000
1000
0000
,  // measure 82
0002
0000
0000
0103
0000
0000
0010
0000
0000
0000
0100
0000
0001
0000
1000
0000
,  // measure 83
0200
0000
0000
0310
0000
0000
0001
0000
0000
0000
1000
0000
0010
0000
2000
0000
,  // measure 84
3001
0000
0010
0000
0200
0000
1300
0001
,  // measure 85
0000
1000
0000
0020
0000
0130
0001
1000
,  // measure 86
0200
0000
0000
0320
0000
0000
0031
0000
0000
0000
1000
0000
0010
0000
0000
0000
,  // measure 87
0200
0000
0301
2000
0000
3000
0000
0001
,  // measure 88
0011
0020
0130
0000
,  // measure 89
0000
0000
0000
0000
0000
0000
0000
1000
,  // measure 90
1001
0000
0001
0000
0200
0000
0310
1000
,  // measure 91
0002
0000
0000
0013
0000
0000
0110
0000
0000
0000
0100
0000
1000
0000
0001
0000
,  // measure 92
0200
0000
0000
0310
0000
0000
1010
0000
0000
0000
1000
0000
0001
0000
0010
0000
,  // measure 93
0200
0000
0000
1300
0000
0000
1001
0000
0000
0000
0001
0000
0100
0000
0010
0000
,  // measure 94
1010
0000
1000
0000
0002
0000
0013
0110
,  // measure 95
0000
0100
0000
2000
0000
3001
0100
0010
,  // measure 96
2000
0000
0000
3002
0000
0003
0011
0000
0000
0000
0010
0000
0100
0000
0000
0000
,  // measure 97
2100
0000
3001
0200
0000
0300
0000
0010
,  // measure 98
1010
0000
1000
0000
0002
0000
0013
0210
,  // measure 99
0000
0000
1300
0002
0000
0000
0000
0000
,  // measure 100
1003
0001
1000
0200
0000
0310
0100
1000
,  // measure 101
0002
0000
1003
0020
0000
0030
0000
0100
,  // measure 102
0101
0000
0001
0000
2000
0000
3100
0120
,  // measure 103
0000
0000
0031
2000
0000
0000
0000
0000
,  // measure 104
3001
0010
0100
0020
0000
0031
1000
0010
,  // measure 105
0200
0000
0301
2000
0000
3000
0000
0001
,  // measure 106
0011
0000
0010
0000
0200
0000
1300
1001
,  // measure 107
0001
0200
0000
0310
2000
0000
3001
0020
,  // measure 108
0000
0130
1000
0001
0100
0001
1000
0004
,  // measure 109
0000
0003
0000
0000
0000
0000
0000
0000
;

//---------------dance-single - Ace Of Arrows (2019)----------------
#NOTES:
     dance-single:
     Ace Of Arrows (2019):
     Challenge:
     10:
     0.656,0.073,0.570,0.628,0.280: // measure 1
0000
0000
0000
0000
,  // measure 2
0000
0000
0000
0000
,  // measure 3
0000
0000
0000
0000
,  // measure 4
0000
0000
0000
0000
0000
0001
0010
0100
,  // measure 5
2000
0000
0000
3001
0000
0000
0100
0000
0000
0000
0010
0000
1000
0000
0001
0000
,  // measure 6
0020
0000
0000
0230
0000
0000
1300
0000
0000
0000
0001
0000
1000
0000
0010
0000
,  // measure 7
0200
0000
0000
0302
0000
0000
1003
0000
0000
0000
0001
0000
0010
0000
0200
0000
,  // measure 8
1300
0000
0001
0000
0200
0000
0310
1000
,  // measure 9
0000
0001
0000
0020
0000
0130
1000
0001
,  // measure 10
0200
0000
0000
0320
0000
0000
1030
0000
0000
0000
0001
0000
1000
0000
0000
0000
,  // measure 11
0010
0100
0001
1000
0100
0010
0100
1000
,  // measure 12
0001
0100
0010
0100
0001
1000
0100
0010
,  // measure 13
0011
0000
0001
0000
0000
1000
0000
0000
0010
0000
0000
0110
0000
0000
0100
0001
,  // measure 14
0000
0000
1000
0000
0000
0100
0000
0000
0010
0000
0000
0011
0000
0000
0001
1000
,  // measure 15
0000
0000
0010
0000
0000
0100
0000
0000
0001
0000
0000
1001
0000
0000
1000
0100
,  // measure 16
0000
0000
0010
0000
0000
0001
0000
0000
1001
0000
0000
0000
1000
0000
0010
0000
,  // measure 17
0210
0000
0000
0301
1000
0000
0100
0000
0010
0000
0001
0000
0010
0000
0100
0000
,  // measure 18
0000
0000
1000
0000
0001
0000
0100
0000
0010
0100
0010
0000
2000
0000
0000
3000
,  // measure 19
0001
0010
0001
0000
0020
0000
0030
0000
0110
0000
0100
2000
0000
3000
2002
0000
,  // measure 20
0000
0000
3003
0000
0000
0000
0202
0000
0303
0000
0100
0010
0100
0000
0001
0000
,  // measure 21
1000
0000
0100
0010
0100
0000
1000
0000
1001
0000
0001
0200
0000
0000
0310
0000
,  // measure 22
0000
1000
0001
0021
0000
0130
1000
1002
,  // measure 23
0000
0000
0103
0010
0100
0000
0001
0000
1000
0100
1000
0000
0001
0000
0201
0000
,  // measure 24
0000
0000
0310
1000
0010
0000
0100
0000
0001
1000
0001
0000
0010
0000
0110
0000
,  // measure 25
0000
0100
1000
0001
0100
0000
0110
0000
,  // measure 26
0010
1000
0001
0010
0210
1300
0002
0103
,  // measure 27
0000
0010
0100
0001
1001
1000
0100
0120
,  // measure 28
0000
0000
0031
0000
1000
0000
0010
0000
1000
0000
0001
0100
0001
0100
0010
1000
,  // measure 29
0020
0000
0130
0002
0000
0003
1001
0000
0000
0000
1000
0100
1000
0000
0001
0000
,  // measure 30
0020
0000
0130
2000
0000
3000
1001
0000
0000
0000
0001
0100
0001
0000
1000
0000
,  // measure 31
0020
0000
0130
0002
0000
0003
1001
0000
0000
0000
1000
0100
1000
0000
0001
0000
,  // measure 32
0011
0000
0000
0010
0100
0000
1000
0000
0001
0100
0001
0000
1000
0100
0010
0100
,  // measure 33
2000
0000
3001
0000
0000
0000
0201
0000
0000
0000
0310
1000
0010
0000
0100
0000
,  // measure 34
0102
0000
1003
0200
0000
0300
0110
0000
0000
0000
0010
0000
0001
0000
0000
0000
,  // measure 35
2001
0000
0000
3010
0100
0000
0102
0000
0000
0000
1003
0000
0100
0000
0010
0000
,  // measure 36
0011
0000
0000
0000
0001
0000
0000
0000
2001
0000
3010
0100
0010
0000
1000
0000
,  // measure 37
1001
0000
0001
0000
0000
0100
0000
0000
0010
0000
0000
1010
0000
0000
1000
0001
,  // measure 38
0000
0000
0010
0000
0000
0000
0100
0000
1100
0000
0000
0000
1000
0001
1000
0000
,  // measure 39
1010
0000
0000
0000
0010
0000
0100
0000
0102
0000
1003
0100
0000
0000
0110
0000
,  // measure 40
0000
0000
0010
0000
0001
0000
1000
0000
0010
0100
0010
0000
1010
0000
0000
0000
,  // measure 41
1000
0001
1000
0000
1100
0000
0100
0000
0120
0000
0031
1000
0000
0000
2020
0000
,  // measure 42
3000
0000
0130
0000
0001
0000
1000
0000
1100
0000
0100
0010
0100
0000
1000
0000
,  // measure 43
1002
0000
0000
0103
0010
0000
1000
0000
0002
0000
0013
0000
0100
0000
1100
0000
,  // measure 44
0000
0000
1000
1002
0000
0103
0010
2010
,  // measure 45
0000
0000
3001
0100
0001
0000
1000
0000
0100
0010
0100
0000
1000
0000
1002
0000
,  // measure 46
0000
0000
1003
0010
1000
0000
0001
0000
0010
0100
0010
0000
0001
0000
1001
0000
,  // measure 47
0000
1000
0010
0100
0001
0000
1001
0000
,  // measure 48
1000
0100
0010
0001
2001
3010
0200
0301
,  // measure 49
0000
1000
0100
0010
0011
0001
1000
1020
,  // measure 50
0000
0000
0130
0000
0001
0000
1000
0000
0100
0000
0010
0100
0010
0100
1000
0001
,  // measure 51
2000
0000
3010
0200
0000
0300
0101
0000
0000
0000
0001
1000
0001
0000
0010
0000
,  // measure 52
0210
0000
1300
0002
0000
0003
0101
0000
0000
0000
0100
0010
0100
0000
0001
0000
,  // measure 53
2001
0000
3100
0020
0000
0030
0011
0000
0000
0000
0001
0000
1000
0000
0010
0000
,  // measure 54
0120
0000
0000
1030
0001
0000
0010
0000
0210
0000
0000
1300
0100
0010
0001
0010
,  // measure 55
0200
0000
1300
0000
0000
0000
1002
0000
0000
0000
0013
0100
0010
0000
0001
0000
,  // measure 56
2001
0000
3010
0200
0000
0300
0101
0000
0000
0000
0001
0000
1000
0000
0000
0000
,  // measure 57
1200
0000
0000
0310
0001
0000
2002
0000
0003
0000
3010
0000
0100
0000
0001
0000
,  // measure 58
2001
0000
0000
3100
0010
0000
0001
0000
2001
0000
3100
0010
0100
0000
1000
0000
,  // measure 59
2002
3000
0103
0010
1000
0001
0010
0100
,  // measure 60
1000
0100
0010
0100
1000
0000
0001
0100
0010
0100
0001
0000
1000
0000
0100
0010
,  // measure 61
0200
0000
0000
0000
,  // measure 62
1300
0001
0100
0001
1000
0100
0010
0001
,  // measure 63
2000
0000
3010
0200
0000
0000
0000
0000
,  // measure 64
0301
0000
1000
0000
0100
0000
0010
0001
1000
0001
0100
0001
1000
0000
0001
0010
,  // measure 65
0001
1000
0000
1000
0010
0000
0010
0100
0000
0100
0001
0000
0001
1000
0000
1000
,  // measure 66
0100
0000
0100
1000
0000
1000
0001
0000
0040
0000
0130
1000
0100
0000
0110
0000
,  // measure 67
0011
2001
3010
0110
0102
1003
1100
0120
,  // measure 68
0031
1001
0021
0130
1100
1001
0101
0140
,  // measure 69
1030
0001
0010
0100
2000
3000
1001
0000
,  // measure 70
0001
0000
1000
0100
1000
0000
0001
0000
0021
0000
0130
1000
0200
0000
0310
0000
,  // measure 71
0000
0000
0001
0000
2000
0000
3010
0100
0010
0000
1000
0000
0001
0000
0010
0000
,  // measure 72
0000
0000
0001
1000
0001
0000
0100
0000
0220
0000
0330
0000
2020
0000
0000
0000
,  // measure 73
3030
0000
1000
0001
1000
0000
0100
0000
0010
0000
0001
0000
1001
0000
1000
0000
,  // measure 74
0000
0001
0100
0010
2010
3001
0020
0130
,  // measure 75
0000
1000
0001
0100
0110
0010
1000
1002
,  // measure 76
0000
0013
0100
1000
0001
0100
0010
1000
,  // measure 77
0002
0013
0100
1000
0002
0103
0010
1000
,  // measure 78
0002
0013
0100
2000
0000
3001
0100
0010
,  // measure 79
2000
3001
0010
0100
2000
3001
0100
0010
,  // measure 80
2000
3001
0010
0200
0000
1300
0001
0100
,  // measure 81
0020
0000
0000
1030
0000
0000
1001
0000
0000
0000
0001
0000
0100
0000
0010
0000
,  // measure 82
2000
0000
0000
3002
0000
0003
0011
0000
0000
0000
0010
0000
0100
0000
1000
0000
,  // measure 83
0002
0000
0000
0203
0000
0300
0110
0000
0000
0000
0010
0000
1000
0000
0001
0000
,  // measure 84
0011
0000
0010
0000
0200
0000
1300
1001
,  // measure 85
0000
0001
0000
0200
0000
0310
1000
0001
,  // measure 86
0020
0000
0000
0230
0000
0300
1100
0000
0000
0000
1000
0000
0001
0000
0000
0000
,  // measure 87
0201
0000
0310
1000
0001
0010
0000
0100
,  // measure 88
1100
2000
3002
0003
,  // measure 89
0000
0000
0000
0000
0000
0000
0000
1000
,  // measure 90
1010
0000
0010
0000
0220
0030
0301
1000
,  // measure 91
1200
0000
0310
0002
0000
0003
1001
0000
0000
0000
1000
0010
1000
0000
0001
0000
,  // measure 92
0021
0000
0130
2000
0000
3000
1001
0000
0000
0000
0001
0100
0001
0000
1000
0000
,  // measure 93
1200
0000
0310
0002
0000
0003
1001
0000
0000
0000
1000
0010
1000
0000
0010
0000
,  // measure 94
0110
0000
0000
0100
0001
0000
1000
0000
0200
0000
0310
0100
1000
0000
0100
0010
,  // measure 95
0002
0000
1003
0000
0000
0000
1020
0000
0000
0000
0130
0001
0100
0000
0010
0000
,  // measure 96
2010
0000
3001
0020
0000
0030
0110
0000
0000
0000
0100
1000
0100
0000
0010
0000
,  // measure 97
0012
0000
0000
1003
0010
0000
0210
0000
0301
0000
1000
0000
0100
0000
0010
0000
,  // measure 98
0011
0000
0000
0001
1000
0000
0010
0000
0200
0000
0301
1000
0100
1000
0001
0000
,  // measure 99
0201
0000
0310
2000
0000
0000
0000
0000
,  // measure 100
3001
0100
0010
0200
0000
0301
1000
0100
,  // measure 101
0020
0000
0130
2100
0000
3001
0101
0100
,  // measure 102
0110
0000
0000
0010
1000
0000
0001
0000
0020
0000
0130
1000
0100
0010
0001
1000
,  // measure 103
0002
0000
1003
0200
0000
0000
0000
0000
,  // measure 104
0310
0000
0100
0000
1000
0000
0002
0000
0000
0000
1003
0000
0100
0010
0100
0000
,  // measure 105
2000
0000
0000
3001
0100
0000
0120
0000
0000
0000
1030
0000
1001
0000
0001
0000
,  // measure 106
0011
0000
0000
0010
0100
0000
1000
0000
1002
0000
0103
0010
0100
0000
0001
0000
,  // measure 107
1001
1200
0310
0011
2001
3010
0110
0102
,  // measure 108
1003
1100
0110
0010
0011
0004
1000
0200
,  // measure 109
0000
0303
0000
0000
0000
0000
0000
0000
;

//---------------dance-single - Ace Of Arrows (2019)----------------
#NOTES:
     dance-single:
     Ace Of Arrows (2019):
     Medium:
     6:
     0.337,0.024,0.000,0.430,0.066: // measure 1
0000
0000
0000
0000
,  // measure 2
0000
0000
0000
0000
,  // measure 3
0000
0000
0000
0000
,  // measure 4
0000
0000
0000
0001
,  // measure 5
1000
0000
0000
1000
0000
0000
1000
0000
0000
0000
0000
0000
0010
0000
0000
0000
,  // measure 6
0100
0000
0000
0100
0000
0000
0100
0000
0000
0000
0000
0000
0001
0000
0000
0000
,  // measure 7
1000
0000
0000
1000
0000
0000
1000
0000
0000
0000
0000
0000
0000
0000
0001
0000
,  // measure 8
0010
0000
0002
0000
2003
0000
3001
0100
,  // measure 9
0000
0001
0000
2000
0000
3001
0010
0000
,  // measure 10
0001
0000
0000
0001
0000
0000
0001
0000
0000
0000
1000
0000
0100
0000
0000
0000
,  // measure 11
2000
0000
3001
0020
0000
0030
0000
0001
,  // measure 12
1000
0000
0020
0000
2030
0000
3001
0010
,  // measure 13
0000
0000
0002
0000
0000
0000
0000
0000
1003
0000
0000
1000
0000
0000
1000
0000
,  // measure 14
0000
0000
0020
0000
0000
0000
0000
0000
0130
0000
0000
0100
0000
0000
0100
0000
,  // measure 15
0000
0000
0002
0000
0000
0000
0000
0000
1003
0000
0000
1000
0000
0000
1000
0000
,  // measure 16
0000
0200
0000
0000
0310
0000
0001
1000
,  // measure 17
0001
0000
0100
0000
0020
0000
1030
0001
,  // measure 18
0000
0000
0000
0000
1000
0010
2000
0000
,  // measure 19
3001
0000
0100
0000
0002
0000
0000
0000
1003
0000
0000
1000
0000
0000
2000
0000
,  // measure 20
0000
3000
0000
0001
0000
0000
0010
0100
,  // measure 21
0010
0000
0001
0000
2000
0000
3001
0100
,  // measure 22
0000
0000
0000
0020
0000
0000
1030
0002
,  // measure 23
0000
1003
0100
0000
1000
0100
0000
2000
,  // measure 24
0000
3001
0100
0000
0001
0100
0000
0000
,  // measure 25
0000
0010
0100
0000
0001
0000
0000
0000
,  // measure 26
0000
1000
0100
0000
1000
0001
1000
0000
,  // measure 27
0000
0001
0100
0000
0010
0000
0100
0002
,  // measure 28
0000
0000
0003
1000
,  // measure 29
0100
0000
0000
0100
0000
0000
0100
0000
0000
0000
0000
0000
0010
0000
0000
0000
,  // measure 30
0001
0000
0000
0001
0000
0000
0001
0000
0000
0000
0000
0000
1000
0000
0000
0000
,  // measure 31
0010
0000
0000
0010
0000
0000
0010
0000
0000
0000
0000
0000
0000
0000
0100
0000
,  // measure 32
0001
0000
2000
0000
3200
0000
0310
0001
,  // measure 33
0000
1000
0000
0002
0000
0013
0100
0000
,  // measure 34
1000
0000
0000
1000
0000
0000
1000
0000
0000
0000
0001
0000
0010
0000
0000
0000
,  // measure 35
0002
0000
1003
0020
0000
0030
0000
1000
,  // measure 36
0001
0000
0020
0000
0230
0000
1300
0001
,  // measure 37
0000
0000
0100
0000
0000
0000
0000
0000
0010
0000
0000
0010
0000
0000
0010
0000
,  // measure 38
0000
0000
0000
1000
0001
0000
0020
0000
,  // measure 39
0130
0000
1000
0100
2000
0000
3001
0100
,  // measure 40
0000
0000
0000
0000
0010
1000
0010
0000
,  // measure 41
1000
0000
0001
0000
1000
0000
0000
0000
0010
0000
0000
0010
0000
0000
0020
0000
,  // measure 42
0000
0030
0000
0000
1000
0000
0001
0010
,  // measure 43
0001
0000
1000
0100
2000
0000
3001
0100
,  // measure 44
0000
0000
0010
0100
0000
0001
1000
0002
,  // measure 45
0000
0013
0100
0000
0010
0100
0000
2000
,  // measure 46
0000
3001
0100
0000
0001
0100
0000
0000
,  // measure 47
0000
0010
1000
0000
0001
0000
0000
0000
,  // measure 48
0000
0010
0100
0000
0010
0001
0010
0000
,  // measure 49
0000
0001
1000
0000
0010
0000
0100
0020
,  // measure 50
0000
0000
0030
1000
,  // measure 51
0001
0000
0000
0001
0000
0000
0001
0000
0000
0000
0000
0000
0010
0000
0000
0000
,  // measure 52
0100
0000
0000
0100
0000
0000
0100
0000
0000
0000
0000
0000
1000
0000
0000
0000
,  // measure 53
0001
0000
0000
0001
0000
0000
0001
0000
0000
0000
0000
0000
0000
0000
1000
0000
,  // measure 54
0010
0000
2000
0000
3002
0000
0013
0100
,  // measure 55
0000
1000
0000
0002
0000
1003
0010
0000
,  // measure 56
0100
0000
0000
0100
0000
0000
0100
0000
0000
0000
0001
0000
1000
0000
0000
0000
,  // measure 57
0200
0000
0310
0002
0000
0003
0000
1000
,  // measure 58
0010
0000
0200
0000
0302
0000
1003
0200
,  // measure 59
0000
0000
0300
0000
,  // measure 60
0000
0000
0000
0000
1000
0000
0000
1000
0000
0000
0000
0000
0001
0000
0200
0000
,  // measure 61
0000
0000
0000
0000
,  // measure 62
0320
0000
1030
0002
0000
1003
0200
0000
,  // measure 63
2300
0000
3001
0200
0000
0000
0000
0000
,  // measure 64
0320
0000
1030
0002
0000
0000
0003
0000
,  // measure 65
1000
0000
0000
0000
1000
0000
0000
2000
0000
0000
3000
0000
0001
0000
0000
0000
,  // measure 66
0001
0000
0000
0001
0000
0000
0000
0000
0040
0000
0000
0000
0000
0000
0000
0000
,  // measure 67
0130
1000
0000
0001
1000
0000
0001
0010
,  // measure 68
0000
0001
1000
0000
0002
0000
0013
0200
,  // measure 69
0000
1300
0001
0000
2000
0000
3000
0000
,  // measure 70
0000
0001
0100
0000
0010
0100
0010
0000
,  // measure 71
0000
1000
0001
0000
0020
0000
0030
0000
,  // measure 72
0000
0001
1000
0000
0020
0000
0230
0000
,  // measure 73
0300
0001
1000
0000
0200
0000
0300
0000
,  // measure 74
0000
0010
0100
0000
1000
0100
1000
0000
,  // measure 75
0000
0001
0100
0000
0010
0000
0100
0002
,  // measure 76
0000
0000
0000
0003
,  // measure 77
1000
0100
1000
0000
0001
1000
0001
0000
,  // measure 78
0020
0000
0130
2000
0000
0000
3000
0000
,  // measure 79
0001
0100
0001
0000
1000
0001
1000
0000
,  // measure 80
0200
0000
0310
0002
0000
0000
1003
0000
,  // measure 81
0010
0000
0000
0010
0000
0000
0010
0000
0000
0000
0000
0000
0100
0000
0000
0000
,  // measure 82
0001
0000
0000
0001
0000
0000
0001
0000
0000
0000
0000
0000
1000
0000
0000
0000
,  // measure 83
0100
0000
0000
0100
0000
0000
0100
0000
0000
0000
0000
0000
0000
0000
0010
0000
,  // measure 84
0001
0000
2000
0000
3020
0000
1030
0001
,  // measure 85
0000
0010
0000
0200
0000
1300
0001
0000
,  // measure 86
0100
0000
0000
0100
0000
0000
0100
0000
0000
0000
0010
0000
1000
0000
0000
0000
,  // measure 87
0002
0000
0013
0200
0000
0300
0000
1000
,  // measure 88
0001
2000
3100
0000
,  // measure 89
0000
0000
0000
0000
0000
0000
0000
0010
,  // measure 90
0001
2000
3020
0130
,  // measure 91
0001
0000
0000
0001
0000
0000
0001
0000
0000
0000
0000
0000
1000
0000
0000
0000
,  // measure 92
0100
0000
0000
0100
0000
0000
0100
0000
0000
0000
0000
0000
0010
0000
0000
0000
,  // measure 93
0001
0000
0000
0001
0000
0000
0001
0000
0000
0000
0000
0000
0000
0000
1000
0000
,  // measure 94
0010
0000
0200
0000
0302
0000
1003
0100
,  // measure 95
0000
0010
0000
0200
0000
1300
0001
0000
,  // measure 96
0100
0000
0000
0100
0000
0000
0100
0000
0000
0000
0010
0000
1000
0000
0000
0000
,  // measure 97
0002
0000
1003
0020
0000
0030
0000
1000
,  // measure 98
0001
0000
0020
0000
0230
0000
1300
0001
,  // measure 99
2000
0000
3010
0200
0000
0000
0000
0000
,  // measure 100
0302
0000
1003
0200
0000
0000
0310
0001
,  // measure 101
0020
0000
0130
2000
0000
0000
3000
0001
,  // measure 102
0100
0000
0020
0000
2030
0000
3001
0010
,  // measure 103
0002
0000
1003
0200
0000
0000
0000
0000
,  // measure 104
0320
0000
0031
2000
0000
0000
3001
0100
,  // measure 105
0002
0000
1003
0200
0000
0000
0300
0010
,  // measure 106
0001
0000
2000
0000
3020
0000
0130
0001
,  // measure 107
1000
0001
0000
1000
0100
0000
1000
0001
,  // measure 108
0000
1000
0100
0000
0020
0000
0130
4000
,  // measure 109
0000
3000
0000
0000
0000
0000
0000
0000
;

//---------------dance-single - Ace Of Arrows (2019)----------------
#NOTES:
     dance-single:
     Ace Of Arrows (2019):
     Easy:
     4:
     0.180,0.024,0.000,0.154,0.000: // measure 1
0000
0000
0000
0000
,  // measure 2
0000
0000
0000
0000
,  // measure 3
0000
0000
0000
0000
,  // measure 4
0000
0000
0000
1000
,  // measure 5
1000
0000
0000
1000
0000
0000
0010
0000
,  // measure 6
0010
0000
0000
0010
0000
0000
0100
0000
,  // measure 7
0100
0000
0000
0100
0000
0000
0000
0000
,  // measure 8
0001
0000
0001
0000
0001
0000
0000
0001
,  // measure 9
0000
0000
1000
1000
,  // measure 10
2000
0000
0000
3000
0000
0000
0000
0000
,  // measure 11
0020
0000
0030
0000
,  // measure 12
0100
0000
0100
0000
0100
0000
0000
0100
,  // measure 13
0000
0000
0001
0001
,  // measure 14
0001
0000
1000
1000
,  // measure 15
1000
0000
0100
0100
,  // measure 16
0100
0000
0010
0000
,  // measure 17
0001
0000
0001
0000
0001
0000
0000
0001
,  // measure 18
0000
0000
2000
3000
,  // measure 19
0010
0010
0020
0000
,  // measure 20
0030
0000
0000
0100
0000
0000
0000
0000
,  // measure 21
0001
0000
0001
0000
0001
0000
0000
0001
,  // measure 22
0000
0000
0000
1000
0000
0000
0000
0010
,  // measure 23
0000
0000
0010
0000
0010
0000
0000
0100
,  // measure 24
0000
0100
0100
0000
,  // measure 25
0000
0001
0001
0000
,  // measure 26
0000
1000
1000
1000
,  // measure 27
0000
0000
0010
0000
0010
0000
0000
0020
,  // measure 28
0000
0000
0030
0100
,  // measure 29
0100
0000
0000
0100
0000
0000
0001
0000
,  // measure 30
0001
0000
0000
0001
0000
0000
1000
0000
,  // measure 31
1000
0000
0000
1000
0000
0000
0000
0000
,  // measure 32
0100
0000
0100
0000
0100
0000
0000
0100
,  // measure 33
0000
0000
0010
0010
,  // measure 34
0020
0000
0000
0030
0000
0000
0000
0000
,  // measure 35
0002
0000
0003
0000
,  // measure 36
1000
0000
1000
0000
1000
0000
0000
1000
,  // measure 37
0000
0000
0010
0010
,  // measure 38
0010
0000
0100
0100
,  // measure 39
0100
0000
0000
0000
0001
0000
0000
0001
,  // measure 40
0000
0000
2000
3000
,  // measure 41
2000
0000
3000
0000
0010
0000
0000
0010
,  // measure 42
0000
0000
0100
0100
,  // measure 43
0100
0000
0000
0000
0001
0000
0000
0001
,  // measure 44
0000
0000
0000
1000
0000
0000
0000
0100
,  // measure 45
0000
0000
0100
0000
0100
0000
0000
0010
,  // measure 46
0000
0010
0010
0000
,  // measure 47
0000
0001
0001
0000
,  // measure 48
0000
1000
1000
1000
,  // measure 49
0000
0000
0010
0000
0010
0000
0000
0020
,  // measure 50
0000
0000
0030
0100
,  // measure 51
0100
0000
0000
0100
0000
0000
0001
0000
,  // measure 52
0001
0000
0000
0001
0000
0000
1000
0000
,  // measure 53
1000
0000
0000
1000
0000
0000
0000
0000
,  // measure 54
0100
0000
0100
0000
0100
0000
0000
0100
,  // measure 55
0000
0000
0010
0010
,  // measure 56
0020
0000
0000
0030
0000
0000
0000
0000
,  // measure 57
0200
0000
0300
0000
,  // measure 58
1000
0000
1000
0000
1000
0000
0000
1000
,  // measure 59
0000
0000
0000
0000
,  // measure 60
0000
0000
0001
0000
0002
0000
0003
2000
,  // measure 61
0000
0000
3000
0000
,  // measure 62
0010
0000
0000
0020
0000
0000
0030
0000
,  // measure 63
0100
0000
0000
0200
0000
0000
0300
0000
,  // measure 64
0001
0000
0000
0002
0000
0000
0003
0000
,  // measure 65
1000
1000
1000
0000
,  // measure 66
0010
0010
0040
0030
,  // measure 67
0100
0000
0000
0000
0100
0000
0000
0001
,  // measure 68
0000
0001
0001
0001
,  // measure 69
0000
1000
2000
3000
,  // measure 70
0000
0100
0100
0100
,  // measure 71
0000
0010
0020
0030
,  // measure 72
0000
0001
0001
0002
,  // measure 73
0003
0010
0010
0000
,  // measure 74
0000
0100
0100
0100
,  // measure 75
0000
0000
1000
0000
1000
0000
0000
2000
,  // measure 76
0000
0000
0000
3000
,  // measure 77
0001
0001
0001
0000
,  // measure 78
0010
0000
0000
0020
0000
0000
0030
0000
,  // measure 79
0100
0100
0100
0000
,  // measure 80
1000
0000
0000
2000
0000
0000
3000
0000
,  // measure 81
0001
0000
0000
0001
0000
0000
0100
0000
,  // measure 82
0100
0000
0000
0100
0000
0000
0010
0000
,  // measure 83
0010
0000
0000
0010
0000
0000
0000
0000
,  // measure 84
1000
0000
1000
0000
1000
0000
0000
1000
,  // measure 85
0000
0000
0001
0001
,  // measure 86
0002
0000
0000
0003
0000
0000
0000
0000
,  // measure 87
0020
0000
0030
0000
,  // measure 88
0001
0001
0001
0000
,  // measure 89
0000
0000
0000
0000
,  // measure 90
1000
1000
2000
3000
,  // measure 91
0100
0000
0000
0100
0000
0000
0010
0000
,  // measure 92
0010
0000
0000
0010
0000
0000
0001
0000
,  // measure 93
0001
0000
0000
0001
0000
0000
0000
0000
,  // measure 94
0010
0000
0010
0000
0010
0000
0000
0010
,  // measure 95
0000
0000
0100
0100
,  // measure 96
0200
0000
0000
0300
0000
0000
0000
0000
,  // measure 97
2000
0000
3000
0000
,  // measure 98
0001
0000
0001
0000
0001
0000
0000
0001
,  // measure 99
0000
0000
0000
0200
0000
0000
0300
0000
,  // measure 100
0010
0000
0000
0020
0000
0000
0030
0000
,  // measure 101
2000
0000
3000
0000
,  // measure 102
0001
0000
0001
0000
0001
0000
0000
0001
,  // measure 103
0000
0000
0000
0020
0000
0000
0030
0000
,  // measure 104
0100
0000
0000
0200
0000
0000
0300
0000
,  // measure 105
2000
0000
3000
0000
,  // measure 106
0001
0001
0001
0000
,  // measure 107
1000
0000
0000
1000
0000
0000
1000
0000
,  // measure 108
0000
0010
0010
0040
,  // measure 109
0000
0030
0000
0000
0000
0000
0000
0000
;

//---------------dance-single - Ace Of Arrows (2019)----------------
#NOTES:
     dance-single:
     Ace Of Arrows (2019):
     Beginner:
     2:
     0.125,0.000,0.000,0.258,0.000: // measure 1
0000
0000
0000
0000
,  // measure 2
0000
0000
0000
0000
,  // measure 3
0000
0000
0000
0000
,  // measure 4
0000
0000
0000
0000
,  // measure 5
0001
0000
0001
0000
,  // measure 6
0002
0000
0003
0000
,  // measure 7
1000
0000
1000
0000
,  // measure 8
2000
0000
0000
0000
,  // measure 9
3000
0000
0001
0000
,  // measure 10
0002
0000
0003
0000
,  // measure 11
0020
0000
0030
0000
,  // measure 12
0100
0000
0100
0000
,  // measure 13
0200
0000
0300
0000
,  // measure 14
2000
0000
3000
0000
,  // measure 15
2000
0000
3000
0000
,  // measure 16
0000
0000
0000
0000
,  // measure 17
0001
0000
0002
0000
,  // measure 18
0003
0000
0010
0000
,  // measure 19
0010
0000
0020
0000
,  // measure 20
0030
0000
0100
0000
,  // measure 21
0100
0000
0200
0000
,  // measure 22
0300
0000
1000
0000
,  // measure 23
2000
0000
3000
0000
,  // measure 24
2000
0000
3000
0000
,  // measure 25
0000
0000
0001
0000
,  // measure 26
0000
0000
0002
0000
,  // measure 27
0003
0000
1000
0000
,  // measure 28
2000
0000
3000
0000
,  // measure 29
0010
0000
0010
0000
,  // measure 30
0020
0000
0030
0000
,  // measure 31
0200
0000
0300
0000
,  // measure 32
0001
0000
0001
0000
,  // measure 33
0002
0000
0003
0000
,  // measure 34
1000
0000
1000
0000
,  // measure 35
2000
0000
3000
0000
,  // measure 36
0010
0000
0010
0000
,  // measure 37
0020
0000
0030
0000
,  // measure 38
0000
0000
0100
0000
,  // measure 39
0100
0000
0200
0000
,  // measure 40
0300
0000
0001
0000
,  // measure 41
0001
0000
0002
0000
,  // measure 42
0003
0000
1000
0000
,  // measure 43
1000
0000
2000
0000
,  // measure 44
3000
0000
0100
0000
,  // measure 45
0200
0000
0300
0000
,  // measure 46
0200
0000
0300
0000
,  // measure 47
0000
0000
0010
0000
,  // measure 48
0000
0000
0020
0000
,  // measure 49
0030
0000
0001
0000
,  // measure 50
0002
0000
0003
0000
,  // measure 51
1000
0000
1000
0000
,  // measure 52
2000
0000
3000
0000
,  // measure 53
0200
0000
0300
0000
,  // measure 54
0010
0000
0010
0000
,  // measure 55
0020
0000
0030
0000
,  // measure 56
0002
0000
0003
0000
,  // measure 57
2000
0000
3000
0000
,  // measure 58
0010
0000
0010
0000
,  // measure 59
0020
0000
0000
0000
,  // measure 60
0030
0000
1000
0000
,  // measure 61
2000
0000
3000
0000
,  // measure 62
0001
0000
0001
0000
,  // measure 63
0002
0000
0003
0000
,  // measure 64
0200
0000
0300
0000
,  // measure 65
0010
0000
0010
0000
,  // measure 66
0020
0000
0030
0000
,  // measure 67
0100
0000
0100
0000
,  // measure 68
0200
0000
0300
0000
,  // measure 69
0000
0000
0001
0000
,  // measure 70
0000
0000
0002
0000
,  // measure 71
0003
0000
1000
0000
,  // measure 72
0000
0000
2000
0000
,  // measure 73
3000
0000
0010
0000
,  // measure 74
0000
0000
0020
0000
,  // measure 75
0030
0000
0100
0000
,  // measure 76
0200
0000
0300
0000
,  // measure 77
0001
0000
0001
0000
,  // measure 78
0002
0000
0003
0000
,  // measure 79
1000
0000
1000
0000
,  // measure 80
2000
0000
3000
0000
,  // measure 81
0100
0000
0100
0000
,  // measure 82
0200
0000
0300
0000
,  // measure 83
0020
0000
0030
0000
,  // measure 84
0001
0000
0001
0000
,  // measure 85
0002
0000
0003
0000
,  // measure 86
0010
0000
0010
0000
,  // measure 87
0020
0000
0030
0000
,  // measure 88
0001
0000
0001
0000
,  // measure 89
0000
0000
0000
0000
,  // measure 90
2000
0000
3000
0000
,  // measure 91
0001
0000
0001
0000
,  // measure 92
0002
0000
0003
0000
,  // measure 93
0200
0000
0300
0000
,  // measure 94
0010
0000
0010
0000
,  // measure 95
0020
0000
0030
0000
,  // measure 96
1000
0000
1000
0000
,  // measure 97
2000
0000
3000
0000
,  // measure 98
0001
0000
0001
0000
,  // measure 99
0002
0000
0003
0000
,  // measure 100
0010
0000
0010
0000
,  // measure 101
0020
0000
0030
0000
,  // measure 102
0100
0000
0100
0000
,  // measure 103
0200
0000
0300
0000
,  // measure 104
1000
0000
1000
0000
,  // measure 105
2000
0000
3000
0000
,  // measure 106
0001
0000
0001
0000
,  // measure 107
0002
0000
0003
0000
,  // measure 108
0010
0000
0040
0000
,  // measure 109
0030
0000
0000
0000
;
