#TITLE:Shake It!;
#SUBTITLE:;
#ARTIST:Miku Hatsune;
#TITLETRANSLIT:;
#SUBTITLETRANSLIT:;
#ARTISTTRANSLIT:;
#GENRE:;
#CREDIT:Ace Of Arrows;
#BANNER:Shake It! - Bn.png;
#BACKGROUND:Shake It! - Bg.png;
#LYRICSPATH:;
#CDTITLE:Ace Of Arrows.png;
#MUSIC:Shake It!.ogg;
#OFFSET:1.230;
#SAMPLESTART:77.160;
#SAMPLELENGTH:12.000;
#SELECTABLE:YES;
#BPMS:0.000=130.000,234.000=65.000,250.000=130.000,314.000=65.000,330.000=130.000,442.000=65.000;
#STOPS:;
#BGCHANGES:0.000=Shake It! - Bg.jpg=1.000=0=0=1=Centered====,
2.250=Shake It Video.avi=1.000=0=0=1=====,
99999=-nosongbg-=1.000=0=0=0 // don't automatically add -songbackground-
;
#KEYSOUNDS:;

//---------------dance-single - Ace Of Arrows (2019)----------------
#NOTES:
     dance-single:
     Ace Of Arrows (2019):
     Challenge:
     9:
     0.686,0.461,0.356,1.000,0.239: // measure 1
0000
0000
0000
0000
,  // measure 2
0000
0000
0000
0000
0000
0000
0000
1000
,  // measure 3
0010
0000
0100
0000
0010
0000
1000
0000
1002
0000
0000
0103
0020
0000
0000
0000
,  // measure 4
1030
0001
0010
0210
0000
1300
0001
0010
,  // measure 5
0020
0000
0030
0001
2001
0000
3020
0000
,  // measure 6
0130
0001
1000
1200
0000
0310
0100
1000
,  // measure 7
2000
0000
0000
0000
3000
0000
0001
0000
0201
0000
0000
0310
2000
0000
0000
3001
,  // measure 8
0010
0100
1000
1002
0000
0103
0010
1000
,  // measure 9
0001
0010
0100
1000
0002
0103
0020
0130
,  // measure 10
0002
0000
0103
0000
0020
0000
0030
0000
2000
0000
0000
3001
0010
0000
0001
0000
,  // measure 11
1000
0000
0004
0400
0000
0000
0303
0000
0120
0000
0000
0000
2030
0000
0000
0000
,  // measure 12
3001
0010
0100
2100
0000
3001
0100
0010
,  // measure 13
1000
0001
0000
0010
0000
0100
1000
0000
0000
0000
0001
0000
0100
0000
0010
0000
,  // measure 14
0100
0000
0001
0000
1000
0000
0200
0000
0000
0000
0310
0000
0001
1000
0001
0000
,  // measure 15
0100
0010
0000
2010
0000
3001
0010
0200
,  // measure 16
0000
1300
0000
1002
0000
0103
0000
0010
,  // measure 17
1000
0001
0010
0210
0000
1000
0000
0010
,  // measure 18
1000
0320
0000
0031
1000
0010
0100
0002
,  // measure 19
0000
0000
1003
0100
0020
0130
1000
0001
,  // measure 20
0200
0000
0310
1000
0000
0000
0001
0000
0020
0000
0031
0000
1000
0000
0010
0000
,  // measure 21
0200
0000
0301
1000
0000
0000
0002
0000
0000
0000
0013
0000
0100
0000
1000
0000
,  // measure 22
0001
0000
0000
0200
0000
0000
0310
0000
2000
0000
3001
0000
0010
0000
0100
0000
,  // measure 23
2000
0000
3001
0200
0000
0000
0300
0000
0000
0000
0010
0000
0100
0000
0001
0000
,  // measure 24
2000
0000
3001
0020
0000
0000
0130
0000
2000
0000
3001
0000
0100
0000
0010
0000
,  // measure 25
2000
0000
3001
0020
0000
0000
0030
0000
0000
0000
0001
0000
1000
0000
0010
0000
,  // measure 26
0100
0000
0001
2000
0000
0000
3100
0000
0020
0000
0130
0000
1000
0000
0001
0000
,  // measure 27
0200
0000
0310
2000
0000
0000
3000
0000
0000
0000
0002
0000
0000
0000
0013
0000
,  // measure 28
0200
0000
0000
2300
0000
0000
3001
0000
0200
0000
0310
0000
1000
0000
0001
0000
,  // measure 29
0020
0000
0000
0230
0000
0000
2300
0000
3000
0000
0001
0000
0200
0000
0310
0000
,  // measure 30
2000
0000
0000
3002
0000
0000
0013
0000
0200
0000
1300
0000
0002
0000
1003
0010
,  // measure 31
2000
0000
3001
0200
0000
0000
0300
0000
0000
0000
0020
0000
0000
0000
0130
0000
,  // measure 32
0002
0000
0000
2003
0000
0000
3100
0000
0020
0000
0130
0000
1000
0000
0001
0000
,  // measure 33
0200
0000
0310
1000
0000
1000
0002
0000
0003
0000
0010
0000
0100
0000
1000
0000
,  // measure 34
0001
0000
0100
0020
0000
0000
1030
0000
0002
0000
0003
0000
0000
0000
2000
0000
,  // measure 35
3200
0300
0020
0000
0031
1000
0010
0100
,  // measure 36
0002
0000
1003
0200
0000
0000
0310
0000
0200
0000
1300
0000
0001
0000
0100
0000
,  // measure 37
0020
0000
1030
0002
0000
0000
0003
0000
0000
0000
1000
0000
0100
0000
0010
0000
,  // measure 38
0200
0000
1300
0002
0000
0000
0103
0000
0010
0000
1000
0000
0001
0000
1000
0000
,  // measure 39
0200
0000
0310
0002
0000
0000
0003
0000
0000
0000
1000
0000
0010
0000
0100
0000
,  // measure 40
0020
0000
1030
0002
0000
0000
0013
0000
0200
0000
0310
0000
0001
0000
1000
0000
,  // measure 41
0020
0000
0130
0002
0000
0000
0003
0000
0000
0000
2000
0000
3200
0000
0320
0000
,  // measure 42
0032
0000
1003
0020
0000
0000
0230
0000
0002
0000
0000
0000
0300
0000
1003
0000
,  // measure 43
0100
0000
0010
0000
0100
0000
1000
0000
1002
0000
0000
0103
0020
0000
0000
0000
,  // measure 44
2030
3001
0010
0210
0000
1300
0001
0100
,  // measure 45
0020
0030
1010
1000
1002
0000
0023
0000
,  // measure 46
0230
1300
0001
0201
0000
0310
1000
0001
,  // measure 47
0020
0000
0030
0000
0110
0000
0100
0000
2100
0000
0000
3001
0200
0000
0000
0301
,  // measure 48
2000
3100
0010
0012
0000
1003
0010
0100
,  // measure 49
0001
1000
0100
0010
0002
0013
0002
1003
,  // measure 50
0002
1003
0002
0003
2001
0000
3020
0030
,  // measure 51
0210
0000
0000
0000
0302
0000
1003
0000
1200
0000
0000
0310
0002
0000
0000
0000
,  // measure 52
2003
3010
0100
0001
1000
0100
0010
0200
,  // measure 53
0000
1300
0001
0202
0003
0310
1000
2002
,  // measure 54
3000
0013
0100
1000
0001
0100
0010
2000
,  // measure 55
0000
0000
3000
0000
1001
0000
0001
0000
0020
0000
0000
0000
0230
0000
0000
1300
,  // measure 56
0002
0103
0010
2000
0000
3001
0010
0100
,  // measure 57
1000
0100
0010
0001
2000
3001
2000
3010
,  // measure 58
2000
3010
2000
3000
1002
0000
0023
0030
,  // measure 59
0210
0000
0000
0000
0000
0000
0000
0000
2300
0000
0000
0000
3000
0000
0000
0000
0001
0000
0000
0000
0001
0000
0000
0000
0200
0000
0000
0310
0000
0000
2000
0000
,  // measure 60
3002
0000
0000
0103
0000
0000
0020
0000
0000
0000
1030
0000
0000
0002
0000
0000
0013
0000
0000
0000
0010
0000
0000
0000
0200
0000
0000
1300
0000
0000
0001
0000
,  // measure 61
0200
0000
0000
0301
0000
1000
0200
0000
0000
0000
0310
0000
0100
2000
0000
0000
3001
0000
0000
0000
0001
0000
0000
0000
0200
0000
0000
0310
0000
0000
1000
0000
,  // measure 62
0002
0000
0000
0013
0000
0000
0200
0000
0000
0000
1300
0000
0000
0002
0000
0000
0203
0000
0000
0310
0000
0000
1000
0000
0000
0000
1000
0000
0000
0002
0000
0000
,  // measure 63
0023
0000
0000
0130
0000
0000
1000
0000
0000
0000
1000
0000
0000
0000
0001
0000
0201
0000
0000
0000
0000
0000
0000
0000
0320
0000
0000
0000
0000
0000
1030
0000
,  // measure 64
0002
0013
0100
2100
0000
3001
0100
0010
,  // measure 65
2020
3030
1000
0001
,  // measure 66
0021
0000
0000
0130
0000
0000
1000
0000
0002
0000
0000
0103
0000
0000
0120
0000
,  // measure 67
0000
1030
0001
0010
0110
0000
0100
0000
,  // measure 68
2000
3001
0100
0010
1000
0001
0010
0210
,  // measure 69
0000
1300
0001
0100
0010
1000
0004
0013
,  // measure 70
0400
0000
0000
0000
2300
0000
3001
0000
0200
0000
0000
0310
0000
0000
1000
0000
,  // measure 71
0001
0000
0010
0000
0100
0000
2100
0000
0000
0000
0000
3001
0000
0000
0100
0000
,  // measure 72
0010
0000
0100
0000
0001
0000
1000
0000
1200
0000
0000
0310
0000
0000
0011
0000
,  // measure 73
0000
0000
0001
0000
1000
0000
0010
0000
0210
0000
0000
0301
0000
0000
1001
0000
,  // measure 74
1000
0000
0100
0000
0010
0000
0100
0000
2100
0000
0000
3001
0000
0000
0101
0000
,  // measure 75
0100
0000
0010
0000
1000
0000
0001
0000
0021
0000
0000
0130
0000
0000
1100
0000
,  // measure 76
1000
0001
0100
0010
2000
0000
3002
0000
,  // measure 77
1003
0100
0010
0200
1300
1000
0001
0001
,  // measure 78
0100
0000
0100
0000
0010
0000
0010
0000
4000
0004
0000
0000
0000
0000
0000
0000
,  // measure 79
0000
0000
0000
0000
0000
0000
0000
0000
3003
0000
0000
0000
0000
0000
0000
0000
0002
0000
0000
0013
0200
0000
0000
0000
1300
0000
0001
0000
0010
0000
0002
0000
,  // measure 80
0000
1003
0010
1000
0001
0011
0011
0010
0200
0000
2300
0000
3001
0100
0010
2000
,  // measure 81
0000
0000
0000
0000
3010
0000
0100
0000
0001
0000
0101
0000
0101
0000
0100
0000
0020
0000
0000
1030
0002
0000
0000
1003
0100
0000
0010
0000
0001
0000
2000
0000
,  // measure 82
0000
3010
0100
0001
1000
0100
0010
0001
0020
0031
0020
0130
0020
0031
0020
0030
,  // measure 83
0210
0000
2300
3000
1002
0000
0203
0300
0120
0000
0000
1030
0002
0000
0000
0000
,  // measure 84
0013
0100
1000
0001
0100
0010
0100
0102
,  // measure 85
0000
1003
0001
0022
0003
0130
1000
2002
,  // measure 86
3000
0103
0010
1000
0001
0010
0100
2200
,  // measure 87
3300
0000
1001
0000
0000
0000
0001
0000
0201
0000
0000
0000
0320
0000
0000
1030
,  // measure 88
0002
0013
0100
2100
0000
3001
0100
0010
,  // measure 89
1000
0001
0010
0100
2000
3001
2000
3010
,  // measure 90
2000
3001
2000
3000
2200
3000
0320
0031
,  // measure 91
1000
0000
0010
0000
0100
0000
0001
0000
2001
0000
0000
3100
0020
0000
0000
0000
,  // measure 92
0130
1000
0001
0201
0000
0310
1000
0001
,  // measure 93
0020
0030
0110
0100
2000
0000
3002
0000
,  // measure 94
0103
0010
1000
1002
0000
0013
0100
1000
,  // measure 95
2000
0000
3000
0000
1001
0000
0001
0000
0200
0000
0000
0310
2000
0000
0000
3001
,  // measure 96
0010
0100
0010
0002
0000
1003
0010
0100
,  // measure 97
0001
0100
0010
1000
0002
0013
0002
1003
,  // measure 98
0002
0103
0002
0003
2001
0000
3200
0000
,  // measure 99
4300
0004
0000
0000
0000
0000
3003
0000
0201
0000
0000
0310
2000
0000
0000
0000
,  // measure 100
3001
0010
0001
1000
0010
0100
0010
2010
,  // measure 101
0000
3001
0010
0220
0030
1300
0001
0202
,  // measure 102
0003
0310
1000
0001
0010
0001
1000
2200
,  // measure 103
3300
0000
0110
0000
0000
0000
0010
0000
0012
0000
0000
0000
2003
0000
0000
3010
,  // measure 104
0200
0301
1000
1200
0000
0310
0001
1000
,  // measure 105
0010
0100
0010
1000
0002
0013
0002
1003
,  // measure 106
0002
0013
0002
0003
0022
0033
0220
0330
,  // measure 107
2200
3300
2000
3001
0200
0310
0200
0301
,  // measure 108
0200
0310
0200
0300
0202
0303
0220
0330
,  // measure 109
2020
3030
2000
3001
0020
0130
0020
0031
,  // measure 110
0020
0130
0020
0030
0022
0033
2002
3003
,  // measure 111
2020
0000
3030
0000
2002
0000
3003
0000
0001
0010
0100
2000
0000
3100
0010
0002
,  // measure 112
0000
0000
0000
0000
,  // measure 113
0003
0000
0000
0000
;

//---------------dance-single - Ace Of Arrows (2019)----------------
#NOTES:
     dance-single:
     Ace Of Arrows (2019):
     Hard:
     7:
     0.582,0.389,0.043,1.000,0.169:
0000
0000
0000
0000
,
0000
0000
0000
0000
0000
0000
0000
0001
,
0010
0100
1000
0100
0020
0000
0032
0000
,
1003
0010
0100
0020
0000
1030
0001
1000
,
0200
0000
0300
1000
0002
0000
0203
0000
,
0310
0100
0001
2000
0000
3001
0010
0100
,
2000
0000
3000
0001
0200
0000
0302
0000
,
1003
0100
0010
0200
0000
1300
0001
0100
,
0010
0100
0001
1000
0200
1300
0200
0310
,
0200
0000
0310
0000
0200
0000
0300
0000
2000
0000
0000
3001
0000
0000
0010
0000
,
0000
0004
0000
0000
2003
0000
3020
0000
,
0130
0001
1000
0200
0000
1300
0001
0010
,
0001
0000
0000
1000
0000
0000
0001
0000
0000
0000
1000
0000
0010
0000
1000
0000
,
0002
0000
0013
0200
0000
1300
0001
0100
,
0001
1000
0000
2000
0000
3001
0010
0100
,
0020
0000
0031
2000
0000
3001
0100
0010
,
0100
0001
1000
0200
0000
0000
0000
0000
,
0310
0001
1000
0001
0200
0000
0320
0000
,
2030
0000
3002
0000
0003
1000
0100
0010
,
0200
0000
0000
2300
0000
0000
3001
0000
0100
0000
0010
0000
1000
0000
0010
0000
,
0200
0000
0000
0301
0000
0000
2000
0000
0000
0000
3001
0000
0100
0000
0001
0000
,
2000
0000
0000
3200
0000
0000
0310
0000
0001
0000
1000
0000
0001
0000
0100
0000
,
0020
0000
0000
2030
0000
0000
3000
0000
0000
0000
0001
0000
0010
0000
0100
0000
,
0020
0000
0000
0032
0000
0000
1003
0000
0010
0000
0100
0000
0001
0000
0100
0000
,
0020
0000
0000
2030
0000
0000
3000
0000
0000
0000
0001
0000
0010
0000
0001
0000
,
2000
0000
0000
3020
0000
0000
0130
0000
0001
0000
1000
0000
0001
0000
0010
0000
,
0200
0000
0000
2300
0000
0000
3000
0000
0000
0000
0002
0000
0000
0000
1003
0000
,
0020
0000
0000
0130
0000
0000
0001
0000
1000
0000
0100
0000
1000
0000
0001
0000
,
0200
0000
0000
0320
0000
0000
2030
0000
3000
0000
0001
0000
0010
0000
0100
0000
,
0020
0000
0000
0032
0000
0000
1003
0000
0010
0000
0100
0000
0001
0000
0100
0000
,
0020
0000
0000
2030
0000
0000
3000
0000
0000
0000
0020
0000
0000
0000
0130
0000
,
0002
0000
0000
2003
0000
0000
3001
0000
0010
0000
0100
0000
1000
0000
0100
0000
,
0020
0000
0000
0032
0000
0000
2003
0000
3000
0000
0010
0000
0100
0000
0001
0000
,
2000
0000
0000
3200
0000
0000
1300
0000
0002
0000
0003
0000
0000
0000
2000
0000
,
3200
0300
0000
0000
0000
1000
0001
0100
,
0020
0000
0000
0230
0000
0000
0301
0000
1000
0000
0001
0000
0010
0000
0100
0000
,
2000
0000
0000
3002
0000
0000
0003
0000
0000
0000
1000
0000
0010
0000
0100
0000
,
0002
0000
0000
0203
0000
0000
0310
0000
1000
0000
0001
0000
0010
0000
0100
0000
,
2000
0000
0000
3002
0000
0000
0043
0000
0000
0000
0130
0000
1000
0000
0001
0000
,
2000
0000
0000
3020
0000
0000
0130
0000
0001
0000
1000
0000
0001
0000
0010
0000
,
0200
0000
0000
2300
0000
0000
3000
0000
0000
0000
0002
0000
2003
0000
3020
0000
,
2030
0000
0000
3002
0000
0000
0023
0000
0230
0000
0000
0000
0000
0000
1300
0000
,
0001
0100
0001
1000
0020
0000
0230
0000
,
0301
1000
0100
0020
0000
0130
1000
0001
,
0002
0000
0003
1000
0020
0000
0230
0000
,
0301
1000
0100
0020
0000
0130
1000
0001
,
0200
0000
0300
0010
2000
0000
3002
0000
,
0013
0001
1000
0020
0000
0130
0001
1000
,
0100
0010
0001
1000
0002
1003
0002
0103
,
0002
0103
0002
0000
2003
0000
3200
0000
,
0320
0000
0032
1003
0200
0000
0320
0000
,
0130
1000
0001
0100
0001
1000
0100
0020
,
0000
0130
2000
0002
3000
0103
0020
2000
,
0030
3001
0010
0100
1000
0100
0010
0002
,
0000
0003
0000
1000
0020
0000
0230
0000
,
0301
1000
0100
0020
0000
0130
1000
0001
,
1000
0010
0100
0001
2000
3001
2000
3010
,
2000
3010
2000
0000
3002
0000
0023
0000
,
0230
0000
0000
0000
0000
0000
0000
0000
2300
0000
0000
0000
0000
0000
0000
0000
3001
0000
0000
0000
0010
0000
0000
0000
0002
0000
0000
1003
0000
0000
0010
0000
,
0200
0000
0000
0301
0000
0000
2000
0000
0000
0000
3000
0000
0000
0100
0000
0000
0010
0000
0000
0000
0001
0000
0000
0000
2000
0000
0000
3010
0000
0000
0100
0000
,
0002
0000
0000
1003
0000
0000
0200
0000
0000
0000
0000
0000
0300
0000
0000
0000
0010
0000
0000
0000
0001
0000
0000
0000
2000
0000
0000
3010
0000
0000
0100
0000
,
0002
0000
0000
1003
0000
0000
0200
0000
0000
0000
0300
0000
0000
0000
0000
0000
2000
0000
0000
3001
0000
0000
0010
0000
0000
0000
0100
0000
0000
2000
0000
0000
,
3002
0000
0000
0103
0000
0000
0010
0000
0000
0000
0020
0000
0000
0000
1030
0000
0002
0000
0000
0000
0000
0000
0000
0000
0023
0000
0000
0000
0000
0000
0000
0000
,
0130
1000
0001
0200
0000
0310
1000
0001
,
0002
0003
1000
0100
,
0020
0000
0000
0130
0000
0000
1000
0000
0002
0000
0000
1003
0000
0000
0020
0000
,
0000
0130
0000
0001
1000
0000
0100
0000
,
0010
0100
1000
0001
0100
0001
1000
0200
,
0000
0310
0001
1000
0001
0000
0100
0000
,
0020
0000
0000
1030
0000
0000
0001
0000
0020
0000
0000
0130
0000
0000
1000
0000
,
0000
0000
0001
0000
0100
0000
0001
0000
2000
0000
0000
3100
0000
0000
0010
0000
,
0001
0000
1000
0000
0001
0000
0100
0000
0020
0000
0000
1030
0000
0000
0001
0000
,
0000
0000
0010
0000
0000
0000
0100
0000
2000
0000
0000
3001
0000
0000
0100
0000
,
0000
0000
0010
0000
0000
0000
1000
0000
0002
0000
0000
0013
0000
0000
0100
0000
,
0000
0000
1000
0000
0000
0000
0001
0000
0200
0000
0000
0310
0000
0000
1000
0000
,
0000
0001
0000
0010
0200
0000
2300
0000
,
3001
0100
0010
0200
0301
1000
0001
1000
,
0100
0010
0100
0010
0004
0000
0000
1003
,
0010
0000
1000
0000
0001
0000
0010
0000
0200
0000
2300
0000
3001
0100
0001
2000
,
0000
3001
0010
0100
2000
0001
3001
0001
0020
0000
0230
0000
1300
0001
0100
0002
,
0000
0000
1003
0100
0020
0100
0130
0100
2000
0000
3002
0000
0103
0010
1000
0002
,
0000
0013
0100
1000
0100
0010
0001
1000
0020
1030
0020
0130
0020
0130
0020
0000
,
2030
3002
0023
0230
2300
0000
3002
0000
,
0103
0010
1000
0010
0100
0001
1000
0020
,
0000
1030
0002
2000
0003
3100
0020
0002
,
0030
1003
0010
0100
0001
1000
0100
0020
,
0000
0030
0000
0100
2000
0000
3002
0000
,
0103
0010
1000
0002
0000
0013
0100
1000
,
0001
0100
0001
1000
0200
1300
0200
0310
,
0200
0310
0200
0000
2300
0000
3001
0100
,
0010
1000
0001
0010
0210
0000
2300
0000
,
3001
0100
0010
2000
0000
3001
0100
0001
,
2000
0000
3000
0001
0021
0000
0230
0000
,
0310
0001
1000
0020
0000
1030
0001
1000
,
0200
0000
0300
0010
0012
0000
2003
0000
,
3010
0100
0001
2000
0000
3100
0010
0001
,
0010
0100
1000
0001
0020
0031
0020
0130
,
0020
0130
0020
0000
0032
0000
2003
0000
,
3020
0000
0230
0300
0102
0000
2003
0000
,
3100
0010
0100
1000
0001
0100
0010
2000
,
0000
3010
0100
0202
0300
1003
0100
0220
,
0300
0031
1000
0001
0100
0010
1000
0002
,
0000
0003
0000
0010
0210
0000
2300
0000
,
3001
0100
0010
2000
0000
3001
0010
0001
,
1000
0010
0100
0001
2000
3001
2000
3100
,
2000
0000
3100
0000
2000
0000
0000
3000
1002
0000
0000
0000
0203
0000
0000
0000
,
0320
0000
2030
3001
0020
0130
0020
0031
,
0020
0130
0020
0030
0012
0000
2003
0000
,
3020
0000
0230
0301
2000
3100
0020
0130
,
2000
3100
0020
0030
0012
0000
2003
0000
,
3020
0000
0000
0000
0230
0000
0000
0000
0301
1000
0001
2000
0000
3100
0010
0002
,
0000
0000
0000
0000
,
0003
0000
0000
0000
;

//---------------dance-single - Ace Of Arrows (2019)----------------
#NOTES:
     dance-single:
     Ace Of Arrows (2019):
     Medium:
     5:
     0.395,0.364,0.000,0.915,0.020:
0000
0000
0000
0000
,
0000
0000
0000
0000
,
2000
3020
2030
3002
,
2003
0000
3100
0020
0000
0000
0031
1000
,
0002
0003
2000
3020
,
2030
0000
3001
0200
0000
0000
0301
1000
,
0002
0003
0020
0230
,
0320
0000
0031
2000
0000
0000
3001
0100
,
0002
0000
0003
1000
0200
0000
0300
1000
,
0200
0300
0010
0100
,
0020
0030
0001
0010
,
0002
0000
1003
0020
0000
0000
0000
0000
,
1030
0000
0001
1000
0000
0000
0020
0000
,
0000
0000
0030
0200
0000
0000
0000
0000
,
0300
0001
0000
0002
0000
0000
0000
0000
,
0003
0000
1000
0200
0000
0000
0300
1000
,
0002
0000
1003
0200
0000
0000
0000
0000
,
1300
0001
0000
1000
0020
0000
2030
0000
,
3002
0000
0023
0000
0000
0031
1000
0000
,
0002
0000
0003
1000
0010
0000
1000
0000
,
0002
0000
0003
0020
0000
0130
1000
0000
,
0200
0000
0300
0010
0001
0000
1000
0000
,
0002
0000
0003
0000
0000
1000
0010
0000
,
2000
0000
3000
0001
0020
0000
0130
0000
,
2000
0000
3000
0000
0000
0001
1000
0000
,
0020
0000
0030
1000
0001
0000
0100
0000
,
0002
0000
0003
0000
0000
2000
0000
3100
,
0020
0000
0030
0100
2000
0000
3001
0000
,
0200
0000
0300
0010
0000
0100
0001
0000
,
2000
0000
3000
0001
0010
0000
0001
0000
,
2000
0000
3000
0000
0000
0002
0000
1003
,
0020
0000
0030
1000
0001
0000
0010
0000
,
0200
0000
0300
0010
0000
0001
1000
0000
,
0002
0000
0003
1000
0010
0000
0000
1000
,
0010
0000
0000
0000
0000
1000
0001
0000
,
0020
0000
0030
0001
1000
0000
0010
0000
,
2000
0000
3000
0000
0000
0001
0010
0000
,
0200
0000
0300
0010
0001
0000
1000
0000
,
0002
0000
0003
0000
0000
1000
0010
0000
,
2000
0000
3000
0001
0010
0000
0100
0000
,
0020
0000
0030
0000
0000
0001
1000
0000
,
0200
0000
0300
0010
0002
0000
0000
0000
,
1003
0010
1000
0000
0002
0000
0023
0000
,
0230
0000
0310
0002
0000
0000
1003
0001
,
2000
3000
0020
2030
,
3002
0000
0013
0200
0000
0000
1300
0100
,
2000
3000
0002
0203
,
0320
0000
0130
0002
0000
0000
1003
0100
,
2000
0000
3000
0001
0200
0000
0300
0001
,
0200
0300
0020
2030
,
3002
0023
0230
0320
,
0032
0000
1003
0020
0000
0000
1030
0002
,
0000
0000
1003
0200
0000
0000
1300
0002
,
0000
0003
0000
1000
0020
0000
1030
0002
,
0000
0000
0003
0010
0200
0000
2300
0000
,
3002
0000
1003
0020
0000
0000
1030
0001
,
2000
0000
3000
0001
0020
0000
0030
0001
,
0020
0030
0200
2300
,
3002
0000
2003
0000
3010
0010
0020
0030
,
0100
0000
0000
0200
0000
0000
0300
0000
0001
0000
0001
0000
0002
0000
0003
0000
,
1000
0000
0000
2000
0000
0000
3000
0000
0100
0000
0100
0000
0200
0000
0300
0000
,
0010
0000
0000
0020
0000
0000
0030
0000
0001
0000
0000
0001
0000
0000
0000
0000
,
1000
0000
0000
1000
0000
0000
0000
0000
0001
0000
0000
0000
0100
0000
0000
0000
,
0002
0000
1003
0200
0000
0000
1300
0001
,
2000
3000
0001
0100
,
0002
0003
1000
0100
,
2000
3000
0001
1000
,
0002
0000
0103
0000
0020
0000
1030
0002
,
0000
0003
1000
0100
,
4000
3000
0001
0010
,
0002
0003
1000
0001
,
2000
3000
0010
1000
,
0020
0030
0100
0001
,
0200
0300
0001
1000
,
0002
0003
1000
0100
,
2000
3000
0002
0023
,
0032
0003
2000
0000
,
3020
0230
0340
0000
,
1030
0000
0001
0000
1000
0100
2000
0000
,
3001
0010
0001
0000
1000
0001
2000
0000
,
3010
0100
0020
0000
1030
0001
2000
0000
,
3001
0000
0010
0000
0002
0000
0000
1003
0200
0000
0300
1000
0200
0000
0300
0000
,
0020
0032
2003
3002
2003
0000
3200
0000
,
0320
0000
0230
0000
2300
0000
3001
0020
,
0000
0000
0031
2000
0000
0000
3001
0100
,
0000
0000
0001
0000
2000
0000
3001
0020
,
0000
0000
0030
0100
2000
0000
3002
0000
,
0203
0000
0310
2000
0000
0000
3001
0010
,
0002
0000
0003
1000
0020
0000
0030
1000
,
0020
0030
0200
0302
,
1003
0001
1000
0000
0200
0000
0320
0000
,
0032
0000
1003
0020
0000
0000
0130
0010
,
0200
0300
0002
2003
,
3200
0000
0310
0002
0000
0000
1003
0010
,
2000
3000
0002
0023
,
0230
0000
0310
0002
0000
0000
1003
0010
,
2000
0000
3000
0001
0020
0000
0030
0001
,
0020
0030
0200
2300
,
3002
0203
0320
2030
,
3002
0000
0013
0100
0020
0000
0031
2000
,
0000
3001
0100
0002
0000
1003
0100
2000
,
0000
3001
0100
0000
0002
0000
1003
0200
,
0000
0000
0300
0010
0002
0000
2003
0000
,
3020
0000
1030
0002
0000
0000
2003
0000
,
3200
0000
0310
0001
0020
0000
0030
0100
,
2000
3000
0002
0203
,
0320
0000
1030
0001
2000
0000
3000
0001
,
0020
0030
0200
2300
,
3002
0000
0103
0010
0200
0000
0300
0001
,
2000
3000
0002
2003
,
3200
0000
0000
0000
0320
0000
0000
0000
0032
0000
0000
2003
0000
0000
0000
3020
,
0000
0000
0000
0000
,
0030
0000
0000
0000
;

//---------------dance-single - Ace Of Arrows (2019)----------------
#NOTES:
     dance-single:
     Ace Of Arrows (2019):
     Easy:
     3:
     0.229,0.170,0.000,0.347,0.000:
0000
0000
0000
0000
,
0000
0000
0000
0000
,
0002
0003
0010
0010
,
0010
0000
0100
0100
,
0200
0300
1000
1000
,
1000
0000
0001
0001
,
0002
0003
1000
1000
,
1000
0000
0010
0010
,
0020
0030
0100
0100
,
0200
0300
0002
0000
,
0003
0000
1000
1000
,
2000
3000
2000
3000
,
0100
0100
0200
0000
,
0300
0000
0200
0000
,
0300
0000
0020
0000
,
0030
0000
0020
0000
,
0030
0000
0001
0000
,
0001
0000
0002
0000
,
0003
0000
0000
1000
,
2000
3000
0010
0010
,
0020
0030
0100
0100
,
0200
0300
0001
0001
,
0002
0003
0000
0100
,
0200
0300
0010
0010
,
0020
0030
0000
1000
,
2000
3000
0001
0001
,
0002
0003
0000
0010
,
0020
0030
0100
0100
,
0200
0300
0000
1000
,
2000
3000
0001
0001
,
0002
0003
0000
0100
,
0200
0300
0010
0010
,
0020
0030
0000
1000
,
2000
3000
0001
0000
,
0001
0000
0000
0010
,
0020
0030
0100
0100
,
0200
0300
0000
1000
,
2000
3000
0001
0001
,
0002
0003
0000
0100
,
0200
0300
0010
0010
,
0020
0030
0000
1000
,
2000
3000
0002
0000
,
0003
0000
0010
0010
,
0020
0030
0100
0100
,
0100
0000
1000
1000
,
2000
3000
0001
0001
,
0002
0003
0100
0100
,
0200
0300
0010
0010
,
0020
0030
4000
0000
,
0000
3000
0001
0001
,
0002
0003
0010
0010
,
0020
0030
0100
0000
,
0200
0300
2000
3000
,
1000
0000
0001
0001
,
0001
0000
0100
0100
,
0100
0000
0010
0010
,
0020
0030
0400
0000
,
0000
0300
0001
0001
,
0002
0000
0003
0000
1000
1000
1000
0000
,
0100
0000
0200
0300
1000
1000
1000
0000
,
0001
0000
0002
0003
0100
0100
0100
0000
,
0010
0000
0020
0030
1000
0000
1000
0000
,
0001
0000
0002
0003
1000
0000
1000
0000
,
1000
0000
0100
0100
,
0100
0000
0010
0010
,
0010
0000
0002
0000
,
0003
0000
1000
1000
,
1000
0000
0010
0000
,
0020
0030
0100
0100
,
0100
0000
0001
0001
,
0001
0000
1000
1000
,
1000
0000
0100
0100
,
0100
0000
0010
0010
,
0010
0000
0001
0001
,
0001
0000
0002
0003
,
1000
0000
2000
3000
,
0010
0000
0020
0000
,
0030
0000
0400
0000
,
0300
0000
0000
0000
0001
0001
0001
0000
,
1000
1000
2000
3000
0100
0100
0100
0000
,
0010
0010
0020
0030
0001
0001
0002
0003
,
1000
1000
1000
0000
0040
0000
0000
0030
,
0100
0100
0200
0300
0001
0000
0001
0000
,
0002
0003
1000
0000
,
2000
3000
0200
0300
,
0100
0000
0010
0010
,
0020
0030
0001
0001
,
0001
0000
1000
1000
,
1000
0000
0040
0000
,
0000
0030
0100
0100
,
0200
0300
0001
0001
,
0001
0000
1000
1000
,
2000
3000
0100
0100
,
0100
0000
0010
0010
,
0020
0030
0001
0001
,
0002
0003
1000
1000
,
2000
3000
0040
0000
,
0000
0030
0100
0100
,
0200
0300
0001
0001
,
0002
0003
1000
0000
,
2000
3000
0020
0030
,
0010
0000
0100
0100
,
0200
0300
0001
0001
,
0002
0003
1000
1000
,
2000
3000
0400
0000
,
0000
0300
0010
0010
,
0020
0030
0004
0000
,
0000
0003
1000
1000
,
2000
3000
0040
0000
,
0000
0030
0100
0100
,
0200
0300
0001
0001
,
0002
0000
0000
0000
,
0003
0000
0000
0000
;

//---------------dance-single - Ace Of Arrows (2019)----------------
#NOTES:
     dance-single:
     Ace Of Arrows (2019):
     Beginner:
     1:
     0.144,0.097,0.000,0.265,0.000:
0000
0000
0000
0000
,
0000
0000
0000
0000
,
0000
0000
1000
0000
,
1000
0000
2000
0000
,
3000
0000
0010
0000
,
0010
0000
0020
0000
,
0030
0000
0100
0000
,
0100
0000
0200
0000
,
0300
0000
0001
0000
,
0001
0000
0002
0000
,
0003
0000
1000
0000
,
1000
0000
2000
0000
,
3000
0000
0200
0000
,
0300
0000
0200
0000
,
0300
0000
0020
0000
,
0030
0000
0020
0000
,
0030
0000
0002
0000
,
0003
0000
0002
0000
,
0003
0000
1000
0000
,
1000
0000
2000
0000
,
3000
0000
0010
0000
,
0010
0000
0020
0000
,
0030
0000
0100
0000
,
0100
0000
0200
0000
,
0300
0000
0001
0000
,
0001
0000
0002
0000
,
0003
0000
1000
0000
,
1000
0000
2000
0000
,
3000
0000
0100
0000
,
0100
0000
0200
0000
,
0300
0000
0010
0000
,
0010
0000
0020
0000
,
0030
0000
0001
0000
,
0001
0000
0002
0000
,
0003
0000
1000
0000
,
1000
0000
2000
0000
,
3000
0000
0001
0000
,
0001
0000
0002
0000
,
0003
0000
0100
0000
,
0100
0000
0200
0000
,
0300
0000
0010
0000
,
0010
0000
0020
0000
,
0030
0000
1000
0000
,
1000
0000
2000
0000
,
3000
0000
0001
0000
,
0001
0000
0002
0000
,
0003
0000
0010
0000
,
0010
0000
0020
0000
,
0030
0000
0100
0000
,
0100
0000
0200
0000
,
0300
0000
1000
0000
,
1000
0000
2000
0000
,
3000
0000
0001
0000
,
0001
0000
0002
0000
,
0003
0000
0100
0000
,
0100
0000
0200
0000
,
0300
0000
0010
0000
,
0010
0000
0020
0000
,
0030
0000
1000
1000
,
2000
3000
0001
0001
,
0002
0003
0010
0010
,
0020
0030
0100
0100
,
0200
0300
1000
0000
,
1000
0000
2000
0000
,
3000
0000
0001
0000
,
0001
0000
0002
0000
,
0003
0000
0100
0000
,
0100
0000
0200
0000
,
0300
0000
0010
0000
,
0010
0000
0020
0000
,
0030
0000
1000
0000
,
1000
0000
2000
0000
,
3000
0000
0001
0000
,
0001
0000
0002
0000
,
0003
0000
0010
0000
,
0010
0000
0020
0000
,
0030
0000
0100
0000
,
0100
0000
0200
0000
,
0300
0000
0010
0010
,
0020
0030
0001
0001
,
0002
0003
1000
1000
,
2000
3000
0010
0010
,
0020
0030
0100
0000
,
0100
0000
0200
0000
,
0300
0000
0001
0000
,
0001
0000
0002
0000
,
0003
0000
1000
0000
,
1000
0000
2000
0000
,
3000
0000
0100
0000
,
0100
0000
0200
0000
,
0300
0000
0010
0000
,
0010
0000
0020
0000
,
0030
0000
0001
0000
,
0001
0000
0002
0000
,
0003
0000
1000
0000
,
1000
0000
2000
0000
,
3000
0000
0010
0000
,
0010
0000
0020
0000
,
0030
0000
0100
0000
,
0100
0000
0200
0000
,
0300
0000
0001
0000
,
0001
0000
0002
0000
,
0003
0000
1000
0000
,
1000
0000
2000
0000
,
3000
0000
0400
0000
,
0300
0000
0020
0000
,
0030
0000
0004
0000
,
0003
0000
2000
0000
,
3000
0000
0040
0000
,
0030
0000
1000
0000
,
1000
0000
1000
0000
,
2000
0000
0000
0000
,
3000
0000
0000
0000
;
