#TITLE:Royal Rumble;
#SUBTITLE:;
#ARTIST:David Wise;
#TITLETRANSLIT:;
#SUBTITLETRANSLIT:;
#ARTISTTRANSLIT:;
#GENRE:;
#CREDIT:Ace Of Arrows;
#BANNER:Royal Rumble - Bn.png;
#BACKGROUND:Royal Rumble - Bg.jpg;
#LYRICSPATH:;
#CDTITLE:Ace Of Arrows.png;
#MUSIC:Royal Rumble.ogg;
#OFFSET:1.220;
#SAMPLESTART:14.800;
#SAMPLELENGTH:12.000;
#SELECTABLE:YES;
#BPMS:0.000=132.030;
#STOPS:;
#BGCHANGES:;
#KEYSOUNDS:;

//---------------dance-single - AceOfArrows (2019)----------------
#NOTES:
     dance-single:
     AceOfArrows (2019):
     Challenge:
     14:
     1.000,0.343,0.360,0.700,1.000:
0000
0000
0000
0000
,
0001
0010
0001
0000
1000
0010
0000
0200
0000
0301
1000
0000
0100
0010
0001
0010
,
0100
1000
0001
0000
1000
0010
0000
0200
0000
0301
1000
0000
0001
0010
0100
0010
,
0001
0000
1000
0000
0010
0100
0000
0002
0000
1003
0100
0000
0010
0100
1000
0100
,
0010
0001
1000
0000
0010
0100
0000
0002
0000
1003
0100
0010
0001
0010
0100
1000
,
0001
0010
0001
0000
1000
0000
0001
0000
1000
0100
1000
0000
0001
0000
0100
0000
0010
0000
1000
0000
0001
0000
0010
0000
0100
0000
1000
0000
0001
0000
0100
0000
,
0010
0100
0010
0000
1000
0000
0001
0000
0010
0100
0010
0000
0001
0000
1000
0000
0001
0000
0010
0000
0100
0000
1000
0000
0001
0000
0100
0000
0010
0000
1000
0000
,
0001
0100
0001
0000
1000
0000
0001
0000
1000
0100
1000
0000
0001
0000
0100
0000
0010
0000
1000
0000
0001
0000
0010
0000
0100
0000
1000
0000
0001
0000
0100
0000
,
0010
1000
0010
0000
0100
0000
0001
0000
1000
0010
1000
0000
0001
0000
0010
0000
0100
0000
0010
0000
0001
0000
1000
0000
0010
0000
0100
0000
0001
0000
1000
0000
,
0001
0000
0010
0000
0100
0000
1000
0000
0100
0000
0010
0000
0001
0000
1000
0000
0001
0010
0001
0000
1000
0000
0100
0000
0010
0001
0010
0000
0100
0000
1000
0000
,
0000
0001
0100
0010
1000
0001
0010
0200
0000
1300
0001
0100
0010
1000
0001
0010
,
0100
0000
1000
0000
0001
0000
0100
0000
0010
0000
0100
0000
0001
0000
1000
0000
0100
0010
0100
0000
1000
0000
0001
0000
0100
0010
0100
0000
0001
0000
1000
0000
,
1M10
0000
0000
0000
000M
0000
0020
0000
M000
0000
0000
0130
0002
0000
0000
0000
00M3
0000
1001
0000
0M00
0000
0000
0000
100M
0000
0000
0000
M100
0000
0010
0000
,
0M01
1000
0010
0000
0100
0001
0000
2000
0000
3100
0010
0000
0001
1000
0010
0220
,
0030
0301
1000
0000
0100
0010
0000
0002
0000
1003
0010
0000
0100
0001
1000
2020
,
3000
0130
0001
0000
1000
0100
0000
0020
0000
0130
1000
0000
0001
1000
0100
0220
,
0300
0031
1000
0000
0010
0100
0000
0002
0000
1003
0100
0000
1000
0001
0100
0010
,
1000
0000
0001
0000
0010
0000
0100
0000
1000
0000
0001
0000
0100
0000
0001
0000
0100
0010
0100
0000
0001
0000
1000
0000
0100
0000
0010
0000
0100
0000
1000
0000
,
0001
0010
0001
0000
1000
0000
0100
0000
0010
0000
0100
0000
1000
0000
0001
0000
0100
0010
0100
0000
0001
0000
1000
0000
0100
0000
0010
0000
0001
0000
0010
0000
,
0100
1000
0100
0000
0010
0000
0001
0000
1000
0000
0001
0000
0100
0000
0010
0000
1000
0001
1000
0000
0100
0000
0010
0000
0100
0000
1000
0000
0001
0000
0100
0000
,
0010
0100
0010
0000
1000
0000
0001
0000
0010
0000
0100
0000
0010
0000
0001
0000
1000
0010
1000
0000
0001
0000
0100
0000
0010
0000
0100
0000
0001
0000
1000
0000
,
0001
0000
0021
0000
0130
1000
0000
0001
0000
0200
0300
0120
0000
1030
0001
0000
,
1000
0000
1200
0000
0310
0001
0000
2000
0000
3010
0100
0001
1000
0001
0100
0000
,
0010
0000
2010
0000
3001
0010
0000
0100
0000
1000
0001
0100
0000
0120
0000
0030
,
100M
0010
1M00
0001
M010
0001
10M0
0010
1M00
0001
M010
0001
10M0
0001
M010
0100
,
100M
0001
0100
0000
0010
0100
0000
0002
0000
1003
0100
0000
0010
0100
0000
2200
,
0300
3001
0100
0000
0010
0100
0000
0002
0000
1003
0100
0000
0010
0001
1000
2020
,
3000
0130
0001
0000
1000
0100
0000
0020
0000
0130
1000
0000
0001
1000
0100
0220
,
0300
0031
1000
0000
0010
0100
0000
0002
0000
1003
0100
0000
0010
0001
1000
0010
,
0100
0001
1000
0100
1000
0001
0100
0002
0000
1003
0010
0100
0010
1000
0001
0000
,
1000
0100
0010
0001
0010
0100
1000
0200
0000
0310
0001
1000
0010
0100
0010
0000
,
1000
0001
0010
0001
1000
0010
1000
0001
0010
0001
1000
0010
1000
0001
0010
0000
,
0001
0100
0001
1000
0100
1000
0001
0100
0000
0000
0110
0000
1010
0000
1001
0000
,
0021
0000
0130
1000
0100
0000
0010
0001
0010
0000
0001
0010
0100
1000
0100
0010
,
0001
0000
1000
0100
1000
0000
0001
1000
0001
0000
1000
0100
0010
0001
0010
0100
,
1000
0100
0010
0001
1000
0000
0010
0100
0010
0000
1000
0001
0100
0001
1000
0000
,
0001
0010
0100
0010
0001
0000
1000
0002
0000
0000
0023
0000
0130
1000
0001
0000
,
1000
0010
0100
0001
0100
0010
0000
2000
0000
3001
0010
0000
0100
0000
0010
0022
,
0030
1003
0010
0100
0010
1000
0000
0002
0000
0013
0100
1000
0100
0010
0001
2002
,
0003
3010
0100
0001
1000
0100
0000
0020
0000
0130
1000
0000
0001
0100
0010
2020
,
0030
3001
0010
0100
1000
0001
0000
0200
0000
0310
0100
0001
1000
0001
0010
0210
,
1300
0100
1000
0000
0001
0000
0100
0000
0010
1000
0010
0000
0100
0000
0001
0000
1000
0000
0100
0000
0010
0000
0100
0000
1000
0000
0001
0000
0010
0000
0100
0000
,
1000
0001
1000
0000
0010
0000
0100
0000
0001
1000
0001
0000
0010
0000
0100
0000
0010
0000
0001
0000
1000
0000
0010
0000
0100
0000
0001
0000
1000
0000
0100
0000
,
0010
0001
0010
0000
0100
0000
1000
0000
0001
0100
0001
0000
1000
0000
0010
0000
0100
0000
0001
0000
1000
0000
0100
0000
0010
0000
0001
0000
1000
0000
0001
0000
,
0010
0100
0010
0000
0001
0000
1000
0000
0001
0100
0001
0000
1000
0000
0100
0000
0010
0000
0001
0000
0010
0000
0100
0000
1000
0000
0001
0000
0100
0000
0010
0000
,
1000
0000
0001
0000
0010
0000
0100
0000
0010
0000
0001
0000
1000
0000
0001
0000
0010
0100
0010
0000
0001
0000
1000
0000
0010
0100
0010
0000
1000
0000
0001
0000
,
0000
0010
0100
1000
0100
0010
0001
2000
0000
3001
0100
0010
1000
0010
0100
0001
,
1000
0000
0001
0000
0010
0000
0100
0000
1000
0000
0100
0000
0010
0000
0001
0000
1000
0010
1000
0000
0001
0000
0010
0000
0100
1000
0100
0000
0010
0000
0001
0000
,
1M01
0000
0000
0000
00M0
0000
1100
0000
000M
0000
0000
0100
M020
0000
0000
0000
0M30
0000
0001
0000
00M0
0000
0000
0000
1M01
0000
0000
0000
100M
0000
0010
0000
,
M100
0001
1000
0000
0100
0010
0000
0012
0000
1003
0010
0000
0100
0001
1000
2200
,
3000
0310
0001
0000
1000
0010
0000
0220
0030
0301
1000
0000
0100
0010
0001
2002
,
0003
3010
0100
0001
0000
1000
0100
0000
0010
0100
0000
0000
1000
0001
0100
0220
,
0300
1030
0001
0000
0010
0100
0000
2200
0300
3001
0100
0000
0010
0100
0001
1000
,
0100
0000
0010
0000
0100
0000
1000
0000
0001
0000
0100
0000
0010
0000
1000
0000
0010
0100
0010
0000
1000
0000
0001
0000
0010
0000
0100
0000
1000
0000
0100
0000
,
0010
0000
0001
0000
1000
0000
0010
0000
0100
0000
0001
0000
1000
0000
0100
0000
0010
0001
0010
0000
0100
0000
1000
0000
0001
0000
0100
0000
0010
0000
1000
0000
,
0001
0100
0001
0000
1000
0000
0100
0000
0010
0000
0100
0000
1000
0000
0001
0000
0100
0010
0100
0000
0001
0000
1000
0000
0100
0000
0010
0000
0001
0000
0010
0000
,
0100
1000
0100
0000
0010
0000
0001
0000
1000
0000
0010
0000
0100
0000
0001
0000
1000
0010
1000
0000
0001
0000
0010
0000
0100
0000
0010
0000
0001
0000
1000
0000
,
1010
0000
0020
0000
0130
0001
0000
1001
0000
1000
0100
0020
0000
0031
0000
0000
,
1001
0000
2000
0000
3010
0100
0000
0101
0000
0001
1000
0100
0010
0001
0010
0000
,
0110
0000
0200
0000
1300
0001
0000
0101
0000
0100
0010
2000
0000
3001
0000
0000
,
001M
0100
10M0
0001
M100
0010
010M
0001
10M0
0100
M010
0100
10M0
0001
M100
0010
,
200M
0000
3001
0000
0010
0100
0000
2200
0300
3001
0100
0000
0010
0100
0001
2002
,
0003
3100
0010
0000
0100
1000
0001
0202
0003
0310
1000
0000
0001
0010
0100
2200
,
0300
3001
0100
0020
0000
1030
0001
0010
0100
1000
0001
0100
0010
1000
0001
0022
,
0003
0130
1000
0000
0001
0100
0010
2000
0000
3001
0010
0000
0100
1000
0001
0100
,
0010
1000
0001
0010
0100
1000
0001
0200
0000
0310
1000
0001
0010
0100
1000
0000
,
0001
0100
0010
0100
0001
1000
0100
0020
0000
0130
1000
0001
0100
0010
1000
0000
,
0001
0010
0100
1000
0100
0010
0001
1000
0010
0100
0001
1000
0100
0010
0001
0000
,
1000
0010
0100
0001
1000
0001
0100
0010
0000
0000
1010
0000
1001
0000
0011
0000
,
0220
0000
0030
0000
1300
0000
0100
0000
1000
0000
0000
0000
0001
0000
1000
0000
0001
0000
0000
0000
0100
0000
0010
0000
0100
0000
0001
0000
1000
0100
1000
0100
,
1000
0001
1000
0010
0100
0000
0001
0100
0001
0000
1000
0100
0010
0001
0010
0100
,
1000
0001
0100
0010
0100
0000
0001
1000
0001
0000
1000
0100
0010
0001
0010
0100
,
1000
0001
0100
0010
0100
0000
0010
2000
0000
0000
3001
0000
0010
0100
2000
0000
,
3001
0100
0010
1000
0001
0010
0000
0220
0030
1300
0001
0100
0010
1000
0001
0022
,
0003
0130
1000
0001
0100
0010
0000
2020
0030
3001
0010
0100
1000
0001
0100
0220
,
0300
1030
0001
0010
0100
1000
0000
2002
3000
0103
0010
0000
1000
0001
0010
0220
,
0030
1300
0001
0100
0010
1000
0000
2002
3000
0013
0100
1000
0100
0010
0001
1000
,
2002
0000
3003
0000
;

//---------------dance-single - Ace Of Arrows (2019)----------------
#NOTES:
     dance-single:
     Ace Of Arrows (2019):
     Hard:
     11:
     0.937,0.316,0.020,0.558,1.000: // measure 1
0000
0000
0000
0000
,  // measure 2
1000
0100
1000
0000
0001
0010
0000
0200
0000
0310
0001
0000
0001
2000
0000
0000
,  // measure 3
3010
0100
0010
0000
1000
0001
0000
0020
0000
0031
1000
0000
0010
0100
0010
0000
,  // measure 4
1000
0000
0001
0000
0010
0100
0000
2000
0000
3001
0100
0000
0010
1000
0010
0000
,  // measure 5
0100
0000
0001
0000
1000
0100
0000
0020
0000
0000
0031
0010
0100
1000
0100
0010
,  // measure 6
0004
0000
1003
0010
4000
0000
3001
0010
0001
1000
0100
1000
0001
0000
0100
0010
,  // measure 7
0400
0000
0301
1000
0004
0000
1003
0100
1000
0001
0010
0001
1000
0000
0010
0100
,  // measure 8
0040
0000
0130
0001
0400
0000
0310
1000
0001
0100
0010
0100
0002
0000
1003
0100
,  // measure 9
4000
0000
3001
0010
0004
0000
0013
0100
0010
0001
1000
0001
0010
0000
0100
1000
,  // measure 10
0100
0010
0001
0010
0100
1000
0001
1000
0040
0000
0000
0130
0004
0000
1003
0100
,  // measure 11
0000
0010
0001
0000
1000
0010
1000
0002
0000
1003
0100
0010
0100
1000
0001
0000
,  // measure 12
1000
0001
0100
0010
0100
0000
0001
1000
0004
0000
0000
0013
0400
0000
0000
1300
,  // measure 13
00M1
0000
0M00
0010
M000
0000
02M0
0000
000M
1300
00M0
0000
M001
0000
020M
0000
,  // measure 14
0310
0000
1000
0000
0001
0010
0000
0200
0000
0310
0001
0000
0001
1000
0010
2000
,  // measure 15
0000
3001
0100
0000
0100
0010
0000
2000
0000
3010
1000
0000
1000
0001
0010
0002
,  // measure 16
0000
0013
0200
0000
0000
1300
0001
0000
1000
0010
0000
0000
0100
0001
0100
0020
,  // measure 17
0000
1030
0001
0000
0010
0100
0000
2000
0000
3001
0100
0000
0010
0100
0010
1000
,  // measure 18
0001
0010
0100
0010
0001
1000
0010
1000
0004
0000
0000
0000
1003
0100
1000
0000
,  // measure 19
0001
0100
0010
0100
0001
1000
0100
0010
0400
0000
0000
0000
1300
0001
1000
0000
,  // measure 20
0001
0010
0100
1000
0100
0010
0001
1000
0004
0000
0000
0000
0013
0100
0010
0000
,  // measure 21
0001
1000
0010
1000
0001
1000
0100
1000
0004
0000
0000
0000
1003
0010
1000
0000
,  // measure 22
0001
0000
0020
0000
0130
1000
0000
0001
0000
0200
0000
0310
0000
1000
0000
0000
,  // measure 23
0001
0000
0020
0000
0130
1000
0000
0001
0000
0100
0010
1000
0010
0000
0100
0000
,  // measure 24
0001
0000
2000
0000
3100
0010
0000
0200
0000
1300
0002
0000
0103
0010
0000
0000
,  // measure 25
100M
0010
1M00
0010
M100
0001
01M0
0001
10M0
0100
100M
0100
M010
0001
0M10
0002
,  // measure 26
0000
0000
1003
0000
0010
1000
0000
0002
0000
0013
0100
0000
1000
0001
1000
0020
,  // measure 27
0000
0130
0001
0000
0001
1000
0000
0200
0000
0310
0001
0000
0001
1000
0001
0020
,  // measure 28
0000
0031
1000
0002
0000
1003
0010
0000
0010
0100
0000
0001
1000
0001
0010
0002
,  // measure 29
0000
1003
0100
0000
0100
0010
0000
0002
0000
1003
0010
0000
0010
0100
0010
1000
,  // measure 30
0001
0010
0001
0010
0100
1000
0000
0002
0000
1003
0010
0100
0001
0100
0010
0000
,  // measure 31
1000
0001
0100
0001
1000
0100
0000
0020
0000
0130
1000
0100
0010
0001
1000
0000
,  // measure 32
0100
0010
0001
0010
0100
1000
0000
0002
0000
0000
1003
0010
0100
0010
1000
0000
,  // measure 33
0001
0010
0100
1000
0100
0010
0001
2000
0000
0000
3010
0000
0100
0000
0001
0000
,  // measure 34
2001
0000
3010
0100
0010
0000
1000
0001
1000
0000
0001
0010
0100
1000
0100
0010
,  // measure 35
0001
0000
1000
0001
1000
0000
0010
0100
0010
0000
1000
0010
0100
0001
0100
0010
,  // measure 36
1000
0000
0001
0010
0001
0000
1000
0100
1000
0000
0001
0010
0100
1000
0100
0010
,  // measure 37
0001
0000
1000
0010
1000
0000
0001
0200
0000
0000
0310
0000
1000
0001
2000
0000
,  // measure 38
3001
0010
0100
1000
0100
0010
0000
0002
0000
0000
1003
0000
0010
0100
0010
0200
,  // measure 39
0000
0000
0301
1000
0100
1000
0000
0002
0000
1003
0010
0000
1000
0001
0010
0200
,  // measure 40
0000
0000
0310
0001
0010
0100
0000
2000
0000
0000
3100
0000
1000
0001
1000
0002
,  // measure 41
0000
0000
0103
0010
1000
0010
0000
0200
0000
0301
1000
0000
0001
0010
0001
0000
,  // measure 42
4000
0000
3100
0010
0400
0000
1300
0001
1000
0010
0100
0010
1000
0000
0001
0010
,  // measure 43
0004
0000
0013
0100
0040
0000
0130
1000
0001
0100
0001
1000
0100
0000
1000
0001
,  // measure 44
4000
0000
3001
0100
0004
0000
1003
0001
0010
0100
1000
0100
0010
0000
0001
1000
,  // measure 45
0004
0000
0103
0010
0400
0000
0301
1000
0100
0010
0001
0010
0100
0000
1000
0001
,  // measure 46
1000
0010
0100
0001
0100
0010
1000
0001
4000
0000
0000
3001
0040
0000
0130
1000
,  // measure 47
0000
0001
0100
0000
0010
0100
0010
2000
0000
3001
0010
0100
1000
0100
0010
0000
,  // measure 48
0001
1000
0010
0100
0010
1000
0001
0100
0040
0000
0000
0130
0004
0000
1003
0100
,  // measure 49
M010
0000
000M
0100
00M0
0000
2M00
0000
00M0
3001
0M00
0000
M100
0000
001M
0000
,  // measure 50
2000
0000
3001
0000
0010
0100
0000
2000
0000
3001
0100
0000
0100
0010
0000
2000
,  // measure 51
0000
0000
3001
0000
0010
0100
0000
2000
0000
3001
0100
0000
0010
0100
0010
2000
,  // measure 52
0000
3001
0020
0000
0000
0130
1000
0000
1000
0002
0000
0000
0103
0010
0100
0002
,  // measure 53
0000
1003
0100
0000
0100
1000
0000
0002
0000
1003
0010
0000
0010
0100
0001
0100
,  // measure 54
0001
1000
0010
1000
0001
1000
0010
1000
0004
0000
0000
0000
1003
0010
1000
0000
,  // measure 55
1000
0100
1000
0001
0100
0001
1000
0100
4000
0000
0000
0000
3001
0010
0001
0000
,  // measure 56
0040
0000
0130
1000
0100
0010
0100
1000
0004
0000
1003
0010
0100
0010
1000
0001
,  // measure 57
0040
0000
0031
1000
0001
0100
0001
1000
0400
0000
0310
0100
1000
0100
0010
0001
,  // measure 58
1000
0000
0020
0000
0130
0001
0000
1000
0000
0200
0000
0320
0000
0031
0000
0000
,  // measure 59
1000
0000
0020
0000
0130
0001
0000
2000
0000
3001
0010
0100
1000
0100
0010
0000
,  // measure 60
0001
0000
2000
0000
3010
0100
0000
0001
0000
2000
0000
3200
0000
0310
0000
0000
,  // measure 61
M001
0010
0M01
0010
010M
1000
01M0
1000
00M1
0100
M001
0100
001M
1000
0M10
2000
,  // measure 62
0000
0000
3001
0000
0010
0100
0000
2000
0000
3001
0100
0000
0100
0010
0100
0020
,  // measure 63
0000
1030
0001
0000
0001
0010
0000
0200
0000
1300
0001
0000
0001
1000
0100
2000
,  // measure 64
0000
3001
0100
0002
0000
1003
0100
0000
0100
1000
0000
0000
0001
0100
0001
2000
,  // measure 65
0000
0000
3100
0000
0010
0001
0000
2000
0000
3010
0100
0000
0100
0001
0100
0010
,  // measure 66
1000
0001
0010
0100
1000
0001
0000
0200
0000
0310
0100
0001
0100
0010
1000
0000
,  // measure 67
0001
0010
0100
1000
0100
0010
0000
0002
0000
1003
0010
1000
0001
0010
0001
0000
,  // measure 68
1000
0010
0100
0001
0100
0010
1000
0001
0010
0001
1000
0010
1000
0001
0010
0000
,  // measure 69
0100
1000
0001
0100
0001
1000
0100
0010
0000
0000
0001
0000
1000
0000
0010
0000
,  // measure 70
0210
0000
0301
1000
0001
0000
0010
0001
0010
0000
0100
1000
0400
0000
0000
0000
,  // measure 71
0310
0000
0001
1000
0001
0000
1000
0010
1000
0000
0001
0100
0010
1000
0010
0100
,  // measure 72
0001
0000
1000
0100
1000
0000
0001
0010
0001
0000
1000
0100
0010
0001
0010
0100
,  // measure 73
1000
0000
0001
1000
0001
0000
0100
0020
0000
0000
1030
0000
0001
0010
0002
0000
,  // measure 74
1003
0100
0010
0001
0010
0100
0000
2000
0000
3001
0100
0000
0010
0100
0010
1000
,  // measure 75
0001
0010
0001
1000
0001
0010
0000
0200
0000
1300
0001
0100
0001
1000
0100
0000
,  // measure 76
0010
0001
1000
0010
1000
0001
0000
0020
0000
0130
1000
0001
0100
0001
1000
0000
,  // measure 77
0100
0010
0100
1000
0001
1000
0000
0200
0000
0310
0001
1000
0001
0100
0001
0000
,  // measure 78
2002
0000
3003
0000
;

//---------------dance-single - Ace Of Arrows (2019)----------------
#NOTES:
     dance-single:
     Ace Of Arrows (2019):
     Medium:
     9:
     0.760,0.237,0.048,0.802,0.711: // measure 1
0000
0000
0000
0000
,  // measure 2
0001
0000
1000
0000
0010
1000
0000
0002
0000
0000
0013
0000
0100
0000
1000
0000
,  // measure 3
0001
0000
0100
0000
0010
1000
0000
0002
0000
0000
0013
0000
0100
0000
1000
0000
,  // measure 4
0001
0000
0100
0000
0001
1000
0000
0200
0000
0000
0310
0000
0001
0000
1000
0000
,  // measure 5
0010
0000
1000
0000
0001
0100
0000
0020
0000
0000
1030
0000
0001
0000
0010
0000
,  // measure 6
0400
0000
1300
0001
4000
0000
3001
0010
0001
0000
1000
0000
0010
0000
1000
0000
,  // measure 7
0004
0000
0013
0100
0040
0000
0031
1000
0001
0000
0100
0000
0010
0000
1000
0000
,  // measure 8
0004
0000
0103
0001
0400
0000
0301
1000
0001
0000
0010
0000
0100
0000
1000
0000
,  // measure 9
0400
0000
0310
0001
0040
0000
0031
1000
0001
0000
0100
0000
0010
0000
1000
0000
,  // measure 10
0001
0010
0001
0000
1000
0000
0010
0000
0100
0000
0001
1000
0002
0000
0013
0100
,  // measure 11
0000
0100
1000
0000
0001
0000
1000
0020
0000
0000
0130
0000
0001
0000
1000
0000
,  // measure 12
0001
0010
0001
0000
1000
0000
0100
0000
0010
0001
0010
0000
0200
0000
1300
0001
,  // measure 13
1M00
0000
0000
0100
M000
0000
0020
0000
000M
0130
0000
0000
1M00
0000
0002
0000
,  // measure 14
0103
0000
0010
0000
1000
0001
0000
0020
0000
0000
0130
0000
1000
0000
0001
0020
,  // measure 15
0000
0000
0031
0000
1000
0010
0000
0200
0000
0000
0301
0000
0000
1000
0100
2000
,  // measure 16
0000
0000
3002
0000
0000
0203
0000
0300
0002
0000
0000
0000
0000
1003
0001
2000
,  // measure 17
0000
0000
3001
0000
0010
0100
0000
2000
0000
0000
3002
0000
0000
0013
0001
0020
,  // measure 18
0000
0000
0031
1000
0001
0000
0010
0000
0400
0000
0000
0000
0300
0000
1000
0000
,  // measure 19
0002
0000
1003
0010
1000
0000
0001
0000
0040
0000
0000
0000
0030
0000
0100
0000
,  // measure 20
2000
0000
3001
0100
0001
0000
1000
0000
0200
0000
1300
0001
1000
0000
0010
0000
,  // measure 21
2000
0000
3001
0010
0001
0000
1000
0000
0040
0000
0000
0000
0130
0000
0001
0000
,  // measure 22
1000
0000
0200
0000
0310
0001
0000
1000
0000
0020
0000
2030
0000
3001
0000
0000
,  // measure 23
0010
0000
0200
0000
1300
0001
0000
0020
0000
0031
1000
0000
0002
0000
0103
0000
,  // measure 24
0020
0000
2030
0000
3001
0100
0000
0020
0000
2030
0000
3002
0000
2003
0000
0000
,  // measure 25
3M01
0010
0001
0010
010M
1000
0100
1000
00M1
0100
0001
0100
001M
1000
0010
2000
,  // measure 26
0000
0000
3001
0000
0010
0100
0000
2000
0000
0000
3001
0000
0000
1000
0100
2000
,  // measure 27
0000
0000
3001
0000
0100
0010
0000
2000
0000
0000
3001
0000
0000
0010
0100
0020
,  // measure 28
0000
0000
0032
0000
0000
2003
0000
0000
0000
3002
0000
0000
0000
1003
0010
2000
,  // measure 29
0000
0000
3001
0000
0010
0100
0000
0020
0000
0000
0032
0000
0000
1003
0200
0000
,  // measure 30
0310
0001
0010
0000
0100
0000
0010
0002
0000
0000
1003
0000
0010
1000
0010
0000
,  // measure 31
1000
0001
1000
0000
0001
0000
0010
0200
0000
0000
1300
0000
0001
0100
0001
0000
,  // measure 32
1000
0001
1000
0000
0100
0000
0010
0002
0000
0000
1003
0000
0010
0100
0010
0000
,  // measure 33
1000
0001
1000
0000
0100
0000
0010
0002
0000
0000
1003
0000
0010
0000
0100
0000
,  // measure 34
0002
0000
1003
0100
0010
0001
1000
0010
,  // measure 35
0110
0100
0001
1000
0001
0010
0100
1000
,  // measure 36
1001
0001
0100
0010
1000
0001
0010
0100
,  // measure 37
1100
0000
1000
0000
0001
0000
0100
0020
0000
0000
1030
0000
0001
0000
0010
0000
,  // measure 38
0100
0010
0100
0000
1000
0001
0000
0200
0000
0000
0310
0000
1000
0000
0001
0000
,  // measure 39
1000
0100
1000
0000
0001
0100
0000
0020
0000
0000
0130
0000
0001
0000
1000
0000
,  // measure 40
0001
0010
0001
0000
1000
0100
0000
0020
0000
0000
0130
0000
1000
0000
0001
0000
,  // measure 41
1000
0010
1000
0000
0001
0010
0000
0200
0000
0000
1300
0000
0001
0000
0100
0000
,  // measure 42
0040
0000
1030
0001
4000
0000
3001
0010
0001
0000
1000
0000
0010
0000
0100
0000
,  // measure 43
0004
0000
1003
0100
4000
0000
3001
1000
0001
0000
0010
0000
0100
0000
1000
0000
,  // measure 44
0004
0000
0103
0010
0400
0000
0310
1000
0010
0000
0100
0000
0001
0000
1000
0000
,  // measure 45
0004
0000
0013
0100
0040
0000
0031
1000
0001
0000
0100
0000
0010
0000
1000
0000
,  // measure 46
0010
0100
0010
0000
1000
0000
0001
0000
0020
0000
0031
1000
0002
0000
1003
0100
,  // measure 47
0000
0100
1000
0000
0002
0000
0103
0020
0000
0000
1030
0000
0001
0000
0010
0000
,  // measure 48
0100
1000
0100
0000
0010
0000
0001
0000
2000
0000
3001
0100
0002
0000
1003
0100
,  // measure 49
100M
0000
0000
0001
M000
0000
0200
0000
000M
0310
0000
0000
1M00
0000
0002
0000
,  // measure 50
0013
0000
0100
0000
1000
0001
0000
0200
0000
0000
0310
0000
1000
0001
0000
0020
,  // measure 51
0000
0000
0031
0000
1000
0010
0000
0200
0000
0000
0301
0000
0000
1000
0100
2000
,  // measure 52
0000
0000
3002
0000
0000
0203
0000
0000
0000
0320
0000
0000
0000
1030
0001
2000
,  // measure 53
0000
0000
3100
0000
0010
0001
0000
2000
0000
0000
3002
0000
0000
0103
0020
0000
,  // measure 54
1030
0001
1000
0000
0100
0000
0010
0000
0400
0000
0000
0000
0300
0000
0010
0000
,  // measure 55
0001
1000
0001
0000
0100
0000
0010
0000
4000
0000
0000
0000
3000
0000
0001
0000
,  // measure 56
0040
0000
0000
0000
0130
1000
0100
0000
4000
0000
0000
0000
3001
0100
0001
0000
,  // measure 57
0400
0000
0000
0000
0301
1000
0001
0000
0040
0000
0000
0000
0130
0000
1000
0000
,  // measure 58
0001
0000
0200
0000
0310
1000
0000
0001
0000
0020
0000
0230
0000
1300
0000
0000
,  // measure 59
0001
0000
0200
0000
0310
1000
0000
0001
0000
0010
0200
0000
1300
0001
1000
0000
,  // measure 60
0010
0000
0200
0000
0301
1000
0000
0100
0000
0020
0000
0032
0000
2003
0000
0000
,  // measure 61
30M1
0100
0001
0100
001M
1000
0010
1000
0M01
0010
0001
0010
010M
1000
0100
2000
,  // measure 62
0000
0000
3001
0000
0100
0010
0000
2000
0000
0000
3001
0000
0010
0200
0000
2300
,  // measure 63
0000
0000
3001
0000
0100
0010
0000
2000
0000
0000
3001
0000
0000
0010
0100
0020
,  // measure 64
0000
0000
0032
0000
0000
2003
0000
0000
0000
3020
0000
0000
0000
1030
0001
2000
,  // measure 65
0000
0000
3001
0000
0010
0100
0000
0020
0000
0000
0032
0000
0000
1003
0200
0000
,  // measure 66
0310
0001
0010
0000
0100
1000
0000
0002
0000
1003
0010
0000
0100
0000
0001
0000
,  // measure 67
1000
0100
1000
0000
0001
0010
0000
0200
0000
1300
0001
0000
0100
0000
0010
0000
,  // measure 68
0100
0001
0100
0000
0010
1000
0000
0002
0000
0013
0100
0000
1000
0000
0001
0000
,  // measure 69
2000
0000
3010
0000
0100
0000
0001
2000
0000
0000
3002
0000
0023
0000
0230
0000
,  // measure 70
2300
3001
0100
0010
1000
0001
0010
0100
,  // measure 71
1100
1000
0001
0100
0001
1000
0100
0010
,  // measure 72
0011
0001
1000
0010
0100
0001
1000
0100
,  // measure 73
0110
0000
0010
0000
0001
0000
1000
0200
0000
0000
0310
0000
0001
1000
0001
0000
,  // measure 74
1000
0010
1000
0000
0001
0010
0000
0200
0000
0000
1300
0000
0001
0000
0100
0020
,  // measure 75
0000
0000
1030
0000
0001
0010
0000
0200
0000
0000
1300
0000
0000
0001
0010
0002
,  // measure 76
0000
0000
1003
0000
0010
1000
0000
0002
0000
0000
0013
0000
0100
0000
0000
2000
,  // measure 77
0000
0000
3001
0000
0100
0001
0000
2000
0000
0000
3100
0000
1000
0001
1000
0000
,  // measure 78
2002
0000
3003
0000
;

//---------------dance-single - Ace Of Arrows (2019)----------------
#NOTES:
     dance-single:
     Ace Of Arrows (2019):
     Beginner:
     4:
     0.255,0.105,0.007,0.326,0.000:
0000
0000
0000
0000
,
1000
1000
2000
3000
,
0010
0010
0020
0030
,
0100
0100
0200
0300
,
0001
0001
0002
0003
,
4000
3000
1000
1000
,
0400
0300
0100
0100
,
0040
0030
0010
0010
,
0004
0003
0001
0001
,
1000
1000
4000
0000
,
3000
0001
0002
0003
,
0010
0010
0040
0000
,
0130
0000
0200
0000
,
1300
1000
2000
3000
,
0001
0001
0002
0003
,
0100
0100
0200
0300
,
0010
0010
0020
0030
,
1000
1000
4000
3000
,
0001
0001
0004
0003
,
0040
0000
0030
0000
,
0040
0000
0030
0000
,
0100
0100
0200
0300
,
1000
1000
2000
3000
,
0001
0001
0002
0003
,
4000
0000
000M
0000
,
3010
0010
0020
0030
,
0100
0100
0200
0300
,
0001
0001
0002
0003
,
1000
1000
2000
3000
,
0100
0100
0200
0300
,
0010
0010
0020
0030
,
0001
0001
0002
0003
,
1000
1000
2000
3000
,
0010
0010
0010
0000
,
0100
0100
0100
0000
,
0001
0001
0001
0000
,
1000
1000
1000
0000
,
0001
0001
0002
0003
,
0010
0010
0020
0030
,
0100
0100
0200
0300
,
1000
1000
2000
3000
,
0004
0003
0001
0001
,
0400
0300
0100
0100
,
0040
0030
0010
0010
,
4000
3000
1000
1000
,
0001
0001
0004
0000
,
0003
0010
0020
0030
,
0100
0100
0400
0000
,
1300
1000
2000
3000
,
0001
0001
0002
0003
,
0100
0100
0200
0300
,
0001
0001
0002
0003
,
1000
1000
2000
3000
,
0100
0100
0400
0300
,
0010
0010
0040
0030
,
0004
0000
0003
0000
,
0004
0000
0003
0000
,
1000
1000
2000
3000
,
0010
0010
0020
0030
,
0100
0100
0200
0300
,
0004
0000
0M00
0000
,
0003
1000
2000
3000
,
0100
0100
0200
0300
,
1000
1000
2000
3000
,
0001
0001
0002
0003
,
0100
0100
0200
0300
,
0010
0010
0020
0030
,
1000
1000
2000
3000
,
0001
0001
0002
0003
,
0010
0010
0010
0000
,
0100
0100
0100
0000
,
1000
1000
1000
0000
,
0001
0001
0001
0000
,
0100
0100
0200
0300
,
0010
0010
0020
0030
,
1000
1000
2000
3000
,
0001
0001
0002
0003
,
2002
0000
3003
0000
;

//---------------dance-single - Ace Of Arrows (2019)----------------
#NOTES:
     dance-single:
     Ace Of Arrows (2019):
     Easy:
     6:
     0.489,0.158,0.007,0.700,0.218:
0000
0000
0000
0000
,
1000
0000
0010
0000
1000
0000
0000
0002
0000
0000
0000
0000
1003
0000
0000
0000
,
0001
0000
0100
0000
0001
0000
0000
0200
0000
0000
0000
0000
0310
0000
0000
0000
,
1000
0000
0001
0000
1000
0000
0000
0200
0000
0000
0000
0000
0310
0000
0000
0000
,
0001
0000
0010
0000
0001
0000
0000
2000
0000
0000
0000
0000
3010
0000
0000
0000
,
4000
0000
3004
0000
1003
0100
2000
0000
,
3004
0000
0403
0000
0301
1000
0002
0000
,
4003
0000
3400
0000
0310
0001
0020
0000
,
0034
0000
4003
0000
3010
1000
0020
0000
,
1030
0001
1000
0000
0004
0000
0043
0000
,
0030
0000
0001
0000
1000
0000
0000
0002
0000
0000
0000
0000
0013
0000
0000
0000
,
0100
1000
0100
0000
0040
0000
0430
0000
,
13M0
0000
0000
0001
0000
0000
2000
0000
0M00
3001
0000
0000
0010
0000
0100
0000
,
001M
0000
0000
0000
0001
0000
0000
2000
0000
0000
3001
0000
0100
0000
0000
0000
,
0001
0000
1000
0000
0001
0000
0000
0020
0000
0000
0031
0000
1000
0000
0000
0000
,
0020
0000
0000
2030
0000
3020
0000
0000
0030
2000
0000
0000
3002
0000
0000
0023
,
0000
0000
0031
0000
1000
0000
0000
0002
0000
0000
1003
0000
0010
0000
0000
0000
,
1000
0001
2000
0000
3400
0000
0310
0000
,
0001
1000
0001
0000
0040
0000
0130
0000
,
4000
3002
0403
0302
,
4003
3200
0340
0032
,
1003
0000
0010
0000
2000
0000
0000
3001
0000
0020
0000
0000
0032
0000
0000
0000
,
1003
0000
0001
0000
2000
0000
0000
3002
0000
0000
1003
0000
0200
0000
0000
0000
,
0310
0000
0100
0000
0020
0000
0000
0031
0000
0000
1000
0000
0002
0000
0000
0000
,
1M03
0000
0010
0000
1000
0000
0000
0000
00M1
0000
1000
0000
0001
0000
0000
0020
,
000M
0000
0000
0000
0130
0000
0000
2000
0000
0000
3001
0000
0100
0000
0000
0000
,
0001
0000
1000
0000
0001
0000
0000
0020
0000
0000
0031
0000
1000
0000
0000
0000
,
0020
0000
0000
2030
0000
0000
0000
3002
0000
0000
0000
0000
2003
0000
0000
3002
,
0000
0000
0000
0000
0013
0000
0000
0200
0000
0000
1300
0000
0001
0000
0000
0000
,
1000
0000
0010
0000
1000
0000
0000
0002
0000
0000
1003
0000
0100
0000
0000
0000
,
0010
0000
0100
0000
0010
0000
0000
0002
0000
0000
1003
0000
0020
0000
0000
0000
,
1030
0000
0001
0000
1000
0000
0000
0200
0000
0000
0310
0000
0002
0000
0000
0000
,
1003
0000
0010
0000
1000
0000
0000
0002
0000
0000
0000
0000
1003
0000
0100
0000
,
2000
0000
3001
0000
0100
0000
0001
1000
,
0001
0000
0010
0000
0100
0000
0010
0001
,
0010
0000
0001
0000
1000
0000
0010
0100
,
0010
0000
0000
0000
1000
0000
0000
0002
0000
0000
1003
0000
0200
0000
0000
0000
,
0310
0000
0001
0000
0010
0000
0000
0200
0000
0000
0000
0000
1300
0000
0000
0000
,
0001
0000
0100
0000
0001
0000
0000
2000
0000
0000
0000
0000
3100
0000
0000
0000
,
0010
0000
0001
0000
0010
0000
0000
0200
0000
0000
0000
0000
1300
0000
0000
0000
,
0001
0000
1000
0000
0001
0000
0000
0200
0000
0000
0000
0000
0310
0000
0000
0000
,
4000
0000
3040
0000
0130
0001
0200
0000
,
0340
0000
0430
0000
0301
1000
0002
0000
,
0043
0000
0430
0000
1300
0001
2000
0000
,
3004
0000
0043
0000
0031
1000
0002
0000
,
1003
0010
2000
0000
3004
0000
4003
0000
,
3000
0000
0001
0000
0010
0000
0000
0002
0000
0000
1003
0000
0020
0000
0000
0000
,
1030
0001
2000
0000
3400
0000
0340
0000
,
0M31
0000
0000
1000
0000
0000
0002
0000
00M0
1003
0000
0000
0010
0000
1000
0000
,
001M
0000
0000
0000
1000
0000
0000
0002
0000
0000
1003
0000
0100
0000
0000
0000
,
0010
0000
0001
0000
0010
0000
0000
0200
0000
0000
1300
0000
0001
0000
0000
0000
,
2000
0000
0000
3020
0000
0000
0000
2030
0000
0000
0000
0000
3020
0000
0000
0230
,
0000
0000
0301
0000
1000
0000
0000
0002
0000
0000
0013
0000
0100
0000
0000
0000
,
1000
0001
2000
0000
3040
0000
1030
0000
,
0001
0010
0002
0000
4003
0000
3100
0000
,
0040
0031
4000
3001
,
1000
0010
1000
0000
0004
0000
0013
0000
,
0100
0000
1000
0000
0200
0000
0000
0310
0000
0002
0000
0000
0023
0000
0000
0000
,
0130
0000
0010
0000
0100
0000
0000
1000
0000
0002
0000
0000
2003
0000
0000
0000
,
3010
0000
1000
0000
0020
0000
0000
0130
0000
0002
0000
0000
2003
0000
0000
0000
,
3M01
0000
0010
0000
0001
0000
0000
0000
100M
0000
0100
0000
1000
0000
0000
0002
,
M000
0000
0000
0000
1003
0000
0000
0200
0000
0000
0310
0000
0001
0000
0000
0000
,
1000
0000
0010
0000
1000
0000
0000
0002
0000
0000
1003
0000
0100
0000
0000
0000
,
0020
0000
0000
0230
0000
0000
0000
0320
0000
0000
0000
0000
0230
0000
0000
2300
,
0000
0000
3001
0000
0100
0000
0000
0002
0000
0000
1003
0000
0100
0000
0000
0000
,
1000
0000
0001
0000
1000
0000
0000
0020
0000
0000
1030
0000
0002
0000
0000
0000
,
1003
0000
0100
0000
1000
0000
0000
0200
0000
0000
0310
0000
0002
0000
0000
0000
,
1003
0010
1000
0000
0001
0010
0001
0000
,
1000
0000
0001
0000
1000
0000
0000
0020
0000
0000
0000
0000
1030
0000
0001
0000
,
2000
0000
3100
0000
0010
0000
0001
0010
,
0001
0000
1000
0000
0010
0000
0100
0001
,
0100
0000
0010
0000
1000
0000
0001
0010
,
0001
0000
0000
0000
1000
0000
0000
0200
0000
0000
1300
0000
0001
0000
0000
0000
,
0010
0000
0100
0000
0010
0000
0000
0002
0000
0000
0000
0000
1003
0000
0000
0000
,
0010
0000
1000
0000
0010
0000
0000
0200
0000
0000
0000
0000
0301
0000
0000
0000
,
1000
0000
0010
0000
1000
0000
0000
0002
0000
0000
0000
0000
0013
0000
0000
0000
,
0100
0000
1000
0000
0100
0000
0000
0020
0000
0000
0000
0000
0031
0000
0000
0000
,
2002
0000
3003
0000
;
