#TITLE:Ready Steady Go!;
#SUBTITLE:(Afterglow Cover);
#ARTIST:L'Arc En Ciel;
#TITLETRANSLIT:;
#SUBTITLETRANSLIT:;
#ARTISTTRANSLIT:;
#GENRE:;
#CREDIT:Ace Of Arrows;
#BANNER:Ready Steady Go! (AG) - Bn.png;
#BACKGROUND:Ready Steady Go! (AG) - Bg.png;
#LYRICSPATH:;
#CDTITLE:Ace Of Arrows.png;
#MUSIC:Ready Steady Go! (Afterglow Cover).ogg;
#OFFSET:1.550;
#SAMPLESTART:48.900;
#SAMPLELENGTH:12.000;
#SELECTABLE:YES;
#BPMS:0.000=144.000;
#STOPS:;
#BGCHANGES:;
#KEYSOUNDS:;

//---------------dance-single - AceOfArrows (2019)----------------
#NOTES:
     dance-single:
     AceOfArrows (2019):
     Challenge:
     10:
     0.957,0.270,0.418,1.000,0.695: // measure 1
0000
0000
0000
0000
,  // measure 2
0001
0010
0100
1000
0001
0100
0010
2000
,  // measure 3
0000
0000
3000
0000
,  // measure 4
0001
0100
0010
1000
0001
1000
0010
0200
,  // measure 5
0000
0000
0300
0000
,  // measure 6
0101
0001
1000
0010
0110
0100
0101
0001
,  // measure 7
1000
0100
0010
0001
0010
0100
1000
0001
0100
0010
0100
0001
2000
0000
0000
0000
,  // measure 8
3002
0000
0013
0000
0200
0000
1300
0001
0000
0001
0200
0000
0320
0000
2030
0000
,  // measure 9
3002
0000
2003
0000
3200
0000
0310
0100
0000
0100
2000
0000
3002
0000
0203
0000
,  // measure 10
0320
0000
2030
0000
3002
0000
0103
0010
0000
0010
2000
0000
3002
0000
0023
0000
,  // measure 11
0230
0000
0320
0000
0032
0000
1003
0100
0000
0100
2000
0000
3001
0010
0100
0010
,  // measure 12
0002
0000
2003
0000
3020
0000
0130
0001
0000
0001
2000
0000
3200
0000
0320
0000
,  // measure 13
0230
0000
2300
0000
3002
0000
1003
0010
0000
0010
0200
0000
0302
0000
2003
0000
,  // measure 14
3200
0000
0320
0000
0230
0000
1300
0001
0000
0001
1000
0010
0100
0001
0100
0010
,  // measure 15
2000
0000
3001
0000
0010
0000
0100
0000
1000
0001
0100
0001
1000
0100
1000
0000
,  // measure 16
0001
0010
0100
1000
0001
0100
0010
2000
,  // measure 17
0000
0000
3004
0000
0000
0000
0013
0000
0100
0000
1000
0001
0010
0001
2000
0000
,  // measure 18
3010
0100
0001
1000
0100
0010
0100
2000
,  // measure 19
0000
0000
3001
0000
0100
0000
0010
0000
1000
0000
0001
0010
0001
0000
1000
0000
,  // measure 20
1020
0000
0130
0001
0100
0000
0010
0000
2000
0000
3001
0010
0000
0000
0410
0000
,  // measure 21
0000
0000
0000
0300
0000
1000
0001
1000
,  // measure 22
1200
0310
0002
0003
2001
3010
0100
0001
,  // measure 23
2001
0000
3100
0010
0200
0000
1300
0001
2000
0000
3010
0100
0010
1000
0001
1000
,  // measure 24
0100
0000
0010
0001
0010
0000
0100
0000
1000
0001
1000
0000
0010
0000
0210
0000
,  // measure 25
0000
0000
0301
1000
0100
1000
0001
1000
0200
0000
0310
0001
0010
0100
2000
0000
,  // measure 26
3001
0000
0100
0010
0100
0000
0001
0000
1000
0100
1000
0000
0001
0000
0201
0000
,  // measure 27
0000
0000
0310
1000
0001
1000
0010
1000
0002
0000
0013
0000
0100
1000
0100
0000
,  // measure 28
0120
0000
0031
1000
0001
0000
0100
0000
0120
0000
1030
0001
0000
0000
0022
0000
,  // measure 29
0000
0000
0000
0000
0000
0000
0033
0000
0000
0000
0010
0100
0010
0000
0001
0000
,  // measure 30
1000
0000
0010
0100
0010
0000
1000
0000
0001
0100
0001
0000
1000
0100
0010
0100
,  // measure 31
2000
3000
2002
3003
0022
0033
0220
0330
,  // measure 32
2200
0000
0000
0000
0000
0010
0000
0010
,  // measure 33
0002
0000
0003
0000
3300
0000
2002
3000
,  // measure 34
0200
0303
0220
0300
1030
1001
0101
0110
,  // measure 35
2020
0000
3030
0202
0000
0000
0000
0303
0000
0000
0001
1000
0100
0010
0100
1000
,  // measure 36
0001
0000
1000
0001
1000
0000
0100
0000
0010
0100
0010
0000
0001
0000
1000
0000
,  // measure 37
0010
0000
0100
0010
0100
0000
0001
0000
1000
0000
0001
0010
0001
0000
1000
0000
,  // measure 38
1200
0000
0310
0002
0000
0003
2001
0000
0000
0000
3020
0000
0130
0000
0001
1000
,  // measure 39
0002
0000
1003
0000
0100
0010
0100
1000
0001
1000
0001
0100
0010
1000
0001
0200
,  // measure 40
0002
0000
0000
0000
0000
0010
0000
0010
,  // measure 41
2000
0000
3000
0000
0303
0000
2002
0003
,  // measure 42
0200
3300
0220
0300
0031
1001
1100
0110
,  // measure 43
0022
0000
0033
2200
0000
0000
3300
0000
0000
0000
1000
0001
0100
0010
0100
0001
,  // measure 44
2000
0000
3100
0010
0100
0000
1000
0000
0002
0000
0103
0010
0100
0000
0001
1000
,  // measure 45
0001
0000
1000
0100
1000
0000
0001
0000
0200
0000
0310
1000
0001
1000
0010
0000
,  // measure 46
0200
0000
0000
0000
0300
0000
0000
0000
0102
0000
0000
1003
0000
0000
1020
0000
,  // measure 47
0130
0001
1000
0001
0010
0100
0010
0001
1000
0001
0100
0010
1000
0001
0010
0100
,  // measure 48
2000
0000
3001
0010
0001
0000
1000
0000
1020
0000
0130
0001
0000
0000
2002
0000
,  // measure 49
0003
0000
3100
0010
0001
0010
0100
1000
0001
0100
0001
1000
0100
0010
0100
1000
,  // measure 50
0001
0000
0100
0010
0000
0010
1000
0000
0001
0010
0100
1000
0100
0010
0002
0000
,  // measure 51
1003
0000
0010
0100
0000
0100
0001
0000
0001
1000
0100
0010
0001
0010
0200
0000
,  // measure 52
1300
0000
0001
1000
0000
1000
0010
0000
0010
0100
0001
1000
0001
0100
0020
0000
,  // measure 53
1030
0000
0001
0010
0000
0010
0100
0000
1000
0001
0100
0010
0100
0001
1000
0002
,  // measure 54
0000
0003
0000
0000
0000
0000
0000
0000
;

//---------------dance-single - AceOfArrows (2019)----------------
#NOTES:
     dance-single:
     AceOfArrows (2019):
     Hard:
     8:
     0.586,0.270,0.237,0.689,0.147: // measure 1
0000
0000
0000
0000
,  // measure 2
1000
0100
0010
0001
0010
0100
1000
0002
,  // measure 3
0000
0000
0003
0000
,  // measure 4
1000
0010
0100
0001
0100
0010
1000
0002
,  // measure 5
0000
0000
0003
0000
,  // measure 6
1000
0001
0010
0001
1000
0010
1000
0001
,  // measure 7
4000
0400
0000
0000
0000
0000
0000
0000
0000
0000
0000
0000
3300
0000
0000
0000
,  // measure 8
1000
0000
0001
0000
1000
0000
0100
0020
0000
0000
0130
0000
1000
0000
0001
0000
,  // measure 9
0100
0000
0010
0000
1000
0000
0001
0020
0000
0000
0130
0000
1000
0000
0001
0000
,  // measure 10
0100
0000
0010
0000
1000
0000
0001
0200
0000
0000
0310
0000
1000
0000
0001
0000
,  // measure 11
0010
0000
0100
0000
1000
0000
0100
0020
0000
0000
0031
0000
4000
0000
0000
0000
,  // measure 12
3010
0000
0100
0000
0001
0000
1000
0200
0000
0000
0310
0000
0100
0000
1000
0000
,  // measure 13
0001
0000
0100
0000
0010
0000
1000
0002
0000
0000
0013
0000
0100
0000
1000
0000
,  // measure 14
0001
0000
0100
0000
0010
0000
0100
0002
0000
0000
4003
0000
0000
0000
0000
0000
,  // measure 15
3200
0000
0340
0030
,  // measure 16
0001
0010
0100
1000
0100
0010
0001
2001
,  // measure 17
0000
3040
0000
0000
0000
0030
0000
0000
,  // measure 18
0100
0001
1000
0100
1000
0001
0100
0120
,  // measure 19
0000
2030
0000
0000
3000
0001
0010
0100
,  // measure 20
2100
0000
0000
0000
0000
0000
3001
0000
0200
0000
0000
0310
0000
0000
4010
0000
,  // measure 21
0000
0000
0000
3000
0000
0001
0100
0010
,  // measure 22
1010
1000
0002
0000
0013
0100
1000
0001
,  // measure 23
0021
0230
0000
4300
,  // measure 24
3001
0100
0010
1000
0010
0100
0001
2001
,  // measure 25
0000
3400
0000
0000
0000
0000
0300
0000
,  // measure 26
0010
0100
1000
0001
0100
0010
1000
1002
,  // measure 27
0000
0023
0000
0030
0000
0100
1000
0001
,  // measure 28
0201
0000
0000
0000
0000
0000
0310
0000
2000
0000
0000
3001
0000
0000
0021
0000
,  // measure 29
0000
0000
0000
0030
0000
0100
1000
0001
,  // measure 30
0101
0100
0010
1000
0001
0010
0100
1000
,  // measure 31
0002
0000
2003
0000
3020
0000
0230
0300
,  // measure 32
0202
0000
0000
0300
0000
0010
0000
1000
,  // measure 33
0203
0000
0000
0000
0300
0000
0020
0030
,  // measure 34
2010
0000
0001
0000
3200
0310
0001
1000
,  // measure 35
1020
0000
0000
0200
0000
0000
0000
0330
0000
0000
0010
0000
1000
0000
0001
0000
,  // measure 36
0010
0100
1000
0100
0010
0001
1000
0100
,  // measure 37
1000
0001
0100
0001
1000
0100
1000
0001
,  // measure 38
0200
0000
0000
0310
0000
0000
2010
0000
0000
0000
3002
0000
0000
0000
0000
0000
,  // measure 39
0003
0000
0000
0000
2000
0000
0000
0000
3004
4000
0000
0000
0000
0000
3003
0000
,  // measure 40
2200
0000
0000
0300
0000
0010
0000
0001
,  // measure 41
3200
0000
0000
0000
0300
0000
0020
0030
,  // measure 42
0012
0000
1000
0000
0023
0130
1000
0001
,  // measure 43
0021
0000
0000
0200
0000
0000
0330
0000
0000
0000
0010
0000
0001
0000
1000
0000
,  // measure 44
0010
0100
0001
0100
0010
1000
0001
0010
,  // measure 45
0100
1000
0100
0010
0001
0010
0100
1000
,  // measure 46
0002
0000
0000
0000
0003
0000
0000
0000
0201
0000
0000
0310
0000
0000
2010
0000
,  // measure 47
0000
0000
3004
0400
0000
0000
0000
0000
0303
0000
0200
0000
0000
0000
0000
0000
,  // measure 48
0320
0000
0030
0000
2010
0000
0000
3002
,  // measure 49
0000
0000
4003
0004
0000
0000
0000
0000
0000
0000
0000
0000
3003
0000
0000
0000
,  // measure 50
2000
0000
3001
0010
0000
0010
0001
0000
1000
0000
0010
0000
0100
0000
0001
0000
,  // measure 51
0200
0000
0310
1000
0000
1000
0010
0000
0100
0000
0001
0000
1000
0000
0100
0000
,  // measure 52
0020
0000
0130
1000
0000
1000
0100
0000
0010
0000
0001
0000
1000
0000
0002
0000
,  // measure 53
0203
0000
0310
0100
0000
0100
0010
0000
1000
0000
0001
0000
0010
0000
0100
2000
,  // measure 54
0000
3000
0000
0000
0000
0000
0000
0000
;

//---------------dance-single - Ace Of Arrows (2019)----------------
#NOTES:
     dance-single:
     Ace Of Arrows (2019):
     Medium:
     6:
     0.431,0.210,0.034,0.712,0.034: // measure 1
0000
0000
0000
0000
,  // measure 2
1000
0010
1000
0000
0001
0000
0010
0200
,  // measure 3
0000
0000
0300
0000
,  // measure 4
0010
0001
0010
0000
0001
0000
1000
0020
,  // measure 5
0000
0000
0030
0000
,  // measure 6
1000
0001
1000
0000
0010
0000
0100
0010
,  // measure 7
0400
0000
0000
0300
,  // measure 8
0001
1000
0001
0000
1000
0100
2000
0000
,  // measure 9
3001
1000
0001
0000
0010
0001
0020
0000
,  // measure 10
0031
1000
0001
0000
1000
0100
2000
0000
,  // measure 11
3001
0100
0001
0000
1000
0010
4000
0000
,  // measure 12
3001
0100
0001
0000
1000
0001
2000
0000
,  // measure 13
3100
0010
0100
0000
1000
0100
2000
0000
,  // measure 14
3001
1000
0001
0000
0040
0000
0000
0000
,  // measure 15
0230
0000
0300
0000
,  // measure 16
1000
0001
2000
0000
3002
0000
0013
0200
,  // measure 17
0000
4300
0000
0000
0000
0000
3000
0000
,  // measure 18
0001
1000
0001
0000
0200
0000
0310
2000
,  // measure 19
0000
3002
0000
0000
0003
0000
1000
0100
,  // measure 20
2000
0000
0000
0000
0000
0000
3000
0000
0001
0000
0000
0001
0000
0000
0004
0000
,  // measure 21
0000
0000
0000
0003
0000
1000
0020
0000
,  // measure 22
1030
0001
2000
0000
3001
0010
0002
0000
,  // measure 23
2003
3200
0000
0340
,  // measure 24
0031
1000
0002
0000
0103
0000
0010
2000
,  // measure 25
0000
3004
0000
0000
0000
0000
0003
0000
,  // measure 26
0010
0100
0020
0000
0032
0000
1003
0020
,  // measure 27
0000
0230
0000
0300
0000
0000
0001
1000
,  // measure 28
0002
0000
0000
0000
0000
0000
0003
0000
1000
0000
0000
1000
0000
0000
2000
0000
,  // measure 29
0000
0000
0000
3000
0000
0010
1000
0000
,  // measure 30
0001
0010
0002
0000
1003
0001
1000
0000
,  // measure 31
0020
0000
0230
0000
0302
0000
2003
3000
,  // measure 32
2200
0000
3000
0000
0000
0010
0000
0000
,  // measure 33
0020
0000
0330
0020
,  // measure 34
0032
0000
0000
0000
0000
1003
0100
0000
,  // measure 35
0010
0000
0000
0020
0000
0000
0000
0030
0000
0000
0001
0000
1000
0000
0000
0000
,  // measure 36
0001
0010
0002
0000
1003
0100
2000
0000
,  // measure 37
3001
1000
0002
0000
0013
0100
0020
0000
,  // measure 38
0130
0000
0000
0100
0000
0000
0200
0000
0000
0000
0000
0000
0000
0000
0000
0000
,  // measure 39
0300
0000
2000
0000
3002
0000
0203
0300
,  // measure 40
0220
0000
0300
0000
0000
1000
0000
0000
,  // measure 41
2000
0000
3030
2000
,  // measure 42
3002
0000
0000
0000
0000
0013
0100
0000
,  // measure 43
1000
0000
0000
2000
0000
0000
0000
3000
0000
0000
0000
0000
0001
0000
0010
0000
,  // measure 44
0001
0000
1000
0001
1000
0000
0010
1000
,  // measure 45
0010
0000
0100
0001
0100
0000
0001
1000
,  // measure 46
0002
0000
0000
0000
0003
0000
0000
0000
0020
0000
0000
0130
0000
0000
0220
0000
,  // measure 47
0000
0000
0000
0000
0330
0200
0000
0000
,  // measure 48
2300
0000
3000
0000
0002
0000
0003
4000
,  // measure 49
0000
0000
0000
0000
0000
0000
0000
3000
,  // measure 50
0001
0000
1000
0000
0010
0100
0020
0000
,  // measure 51
1030
0000
0001
0000
1000
0100
2000
0000
,  // measure 52
3001
0000
0010
0000
0100
0010
0200
0000
,  // measure 53
1300
0001
0400
0000
,  // measure 54
0300
0000
0000
0000
;

//---------------dance-single - Ace Of Arrows (2019)----------------
#NOTES:
     dance-single:
     Ace Of Arrows (2019):
     Easy:
     4:
     0.263,0.150,0.000,0.373,0.006: // measure 1
0000
0000
0000
0000
,  // measure 2
0001
0000
0001
0000
0001
0000
0000
0020
,  // measure 3
0000
0000
0030
0000
,  // measure 4
0100
0000
0100
0000
0100
0000
0000
2000
,  // measure 5
0000
0000
3000
0000
,  // measure 6
0001
0001
0001
0001
,  // measure 7
0004
0000
0000
0003
,  // measure 8
0010
0010
0020
0030
,  // measure 9
0100
0100
0200
0300
,  // measure 10
1000
1000
2000
3000
,  // measure 11
0001
0001
0002
0003
,  // measure 12
0010
0010
0020
0030
,  // measure 13
0001
0001
0002
0003
,  // measure 14
1000
1000
4000
3000
,  // measure 15
0020
0000
0030
0000
,  // measure 16
1000
0000
1000
0000
1000
0000
0000
0001
,  // measure 17
0000
0004
0000
0000
0000
0000
0003
0000
,  // measure 18
0010
0000
0010
0000
0010
0000
0000
0100
,  // measure 19
0000
0200
0000
0000
0300
0000
1000
0000
,  // measure 20
2000
0000
3000
0000
0001
0000
0000
0004
,  // measure 21
0000
0000
0000
0003
0000
0000
0010
0000
,  // measure 22
0010
0010
0100
0100
,  // measure 23
0100
0200
0000
0300
,  // measure 24
1000
0000
1000
0000
1000
0000
0000
0001
,  // measure 25
0000
0004
0000
0000
0000
0000
0003
0000
,  // measure 26
0100
0000
0100
0000
0100
0000
0000
0010
,  // measure 27
0000
0020
0000
0000
0030
0000
1000
0000
,  // measure 28
2000
0000
3000
0000
0010
0000
0000
0020
,  // measure 29
0000
0000
0000
0030
0000
0000
1000
0000
,  // measure 30
1000
1000
2000
0000
,  // measure 31
3000
0001
0001
0001
,  // measure 32
0002
0000
0000
0000
0000
1000
0000
0000
,  // measure 33
2003
0000
3000
0010
,  // measure 34
0020
0000
0030
0100
,  // measure 35
0200
0000
0300
0001
,  // measure 36
0001
0001
0002
0003
,  // measure 37
1000
1000
2000
3000
,  // measure 38
0100
0000
0000
0200
0000
0000
0000
0000
,  // measure 39
0300
0010
0010
0010
,  // measure 40
0020
0000
0000
0000
0000
0001
0000
0000
,  // measure 41
0032
0000
0003
1000
,  // measure 42
2000
0000
3000
0010
,  // measure 43
0020
0030
0000
0100
,  // measure 44
0100
0100
0200
0300
,  // measure 45
0001
0001
0001
0002
,  // measure 46
0003
0000
0000
0000
0000
0000
0000
0000
1000
0000
0000
1000
0000
0000
2000
0000
,  // measure 47
0000
0000
0000
0000
3000
0001
0000
0000
,  // measure 48
0001
0000
0000
0000
0010
0000
0000
0040
,  // measure 49
0000
0000
0000
0030
,  // measure 50
0100
0100
0200
0300
,  // measure 51
1000
1000
2000
3000
,  // measure 52
0001
0001
0002
0003
,  // measure 53
0100
0100
0400
0000
,  // measure 54
0300
0000
0000
0000
;

//---------------dance-single - Ace Of Arrows (2019)----------------
#NOTES:
     dance-single:
     Ace Of Arrows (2019):
     Beginner:
     2:
     0.155,0.060,0.000,0.294,0.000: // measure 1
0000
0000
0000
0000
,  // measure 2
1000
0000
1000
0000
,  // measure 3
2000
0000
3000
0000
,  // measure 4
0001
0000
0001
0000
,  // measure 5
0002
0000
0003
0000
,  // measure 6
0010
0000
0010
0000
,  // measure 7
0040
0000
0030
0000
,  // measure 8
0002
0000
0003
0000
,  // measure 9
0002
0000
0003
0000
,  // measure 10
0002
0000
0003
0000
,  // measure 11
0002
0000
0003
0000
,  // measure 12
2000
0000
3000
0000
,  // measure 13
2000
0000
3000
0000
,  // measure 14
2000
0000
3000
0000
,  // measure 15
0200
0000
0300
0000
,  // measure 16
0010
0000
0010
0000
,  // measure 17
0020
0000
0030
0000
,  // measure 18
0001
0000
0001
0000
,  // measure 19
0002
0000
0003
0000
,  // measure 20
1000
0000
1000
0000
,  // measure 21
4000
0000
3000
0000
,  // measure 22
0100
0000
0100
0000
,  // measure 23
0200
0000
0300
0000
,  // measure 24
0010
0000
0010
0000
,  // measure 25
0040
0000
0030
0000
,  // measure 26
0001
0000
0001
0000
,  // measure 27
0002
0000
0003
0000
,  // measure 28
1000
0000
1000
0000
,  // measure 29
2000
0000
3000
0000
,  // measure 30
0010
0000
0020
0000
,  // measure 31
0030
0000
1000
0000
,  // measure 32
2000
0000
0000
0000
,  // measure 33
0000
0000
3000
0000
,  // measure 34
0001
0000
0001
0000
,  // measure 35
0002
0000
0003
0000
,  // measure 36
1000
0000
1000
0000
,  // measure 37
2000
0000
3000
0000
,  // measure 38
0100
0000
0200
0000
,  // measure 39
0300
0000
0010
0000
,  // measure 40
0020
0000
0000
0000
,  // measure 41
0000
0000
0030
0000
,  // measure 42
0001
0000
0001
0000
,  // measure 43
0002
0000
0003
0000
,  // measure 44
1000
0000
1000
0000
,  // measure 45
2000
0000
3000
0000
,  // measure 46
0100
0000
0100
0000
,  // measure 47
0200
0000
0300
0000
,  // measure 48
0010
0000
0010
0000
,  // measure 49
0040
0000
0030
0000
,  // measure 50
0001
0000
0002
0000
,  // measure 51
0003
0000
1000
0000
,  // measure 52
2000
0000
3000
0000
,  // measure 53
0100
0000
0400
0000
,  // measure 54
0300
0000
0000
0000
;
