#TITLE:Princess Brave!;
#SUBTITLE:;
#ARTIST:Kotoko;
#TITLETRANSLIT:;
#SUBTITLETRANSLIT:;
#ARTISTTRANSLIT:;
#GENRE:;
#CREDIT:Ace Of Arrows;
#BANNER:Princess Brave - Bn.png;
#BACKGROUND:Princess Brave - Bg.jpg;
#LYRICSPATH:;
#CDTITLE:Ace Of Arrows.png;
#MUSIC:Princess Brave!.ogg;
#OFFSET:0.775;
#SAMPLESTART:46.600;
#SAMPLELENGTH:12.000;
#SELECTABLE:YES;
#BPMS:0.000=190.000;
#STOPS:;
#BGCHANGES:2.000=Princess Brave OP.avi=1.000=0=0=1=====,
99999=-nosongbg-=1.000=0=0=0 // don't automatically add -songbackground-
;
#KEYSOUNDS:;

//---------------dance-single - Ace Of Arrows (2019)----------------
#NOTES:
     dance-single:
     Ace Of Arrows (2019):
     Hard:
     8:
     0.723,0.000,0.011,1.000,0.000: // measure 1
0000
0000
0000
0000
,  // measure 2
0000
0000
0000
0000
,  // measure 3
2000
0000
3020
0000
0230
0000
0301
2000
,  // measure 4
0000
3100
0020
0000
0031
0010
0100
0010
,  // measure 5
0002
0000
2003
0000
3001
0100
0010
0200
,  // measure 6
0000
0301
2000
0000
3001
0100
0001
1000
,  // measure 7
0200
0000
0320
0000
0130
1000
0001
0200
,  // measure 8
0000
0301
2000
0000
3001
0010
0001
1000
,  // measure 9
0020
0000
0230
0000
0301
1000
0001
0020
,  // measure 10
0000
0130
2000
0000
3001
0100
0001
1000
,  // measure 11
0002
0000
0013
0100
0010
0001
1000
0010
,  // measure 12
1000
0002
0000
0023
0000
0230
0000
1300
,  // measure 13
0002
0000
0103
0010
0100
0001
1000
0001
,  // measure 14
0010
0200
0000
2300
0000
3002
0000
0103
,  // measure 15
0020
0000
1030
0001
4000
0000
3000
0001
,  // measure 16
0010
0100
0010
0002
0000
2003
0000
3010
,  // measure 17
0200
0000
0302
0000
2003
0000
3100
0020
,  // measure 18
0000
0130
1000
0001
0200
0000
0300
0000
,  // measure 19
0010
1000
0001
0020
0000
0130
0010
0001
,  // measure 20
1000
0002
0000
0203
0000
0320
0000
1030
,  // measure 21
0002
0000
0013
0100
1000
0100
0010
0001
,  // measure 22
1000
0002
0000
0203
0000
0320
0000
1030
,  // measure 23
0002
0000
0013
0100
0040
0000
0030
0001
,  // measure 24
1000
0010
0100
0002
0000
2003
0000
3100
,  // measure 25
0020
0000
0230
0000
2300
0000
3001
0200
,  // measure 26
0000
0310
1000
0001
0020
0000
0230
0000
,  // measure 27
2300
0000
3M00
0001
0200
0000
030M
0010
,  // measure 28
1000
0001
M010
0001
2000
0000
301M
0100
,  // measure 29
0002
0000
1M03
0100
0010
0001
M010
0200
,  // measure 30
0000
0310
0M01
1000
0004
0000
00M3
0000
,  // measure 31
2000
0000
300M
0010
0200
0000
03M0
0001
,  // measure 32
1000
0100
M010
0100
2000
0000
3M01
0100
,  // measure 33
0010
1000
0001
0010
0001
1000
0002
0000
,  // measure 34
0103
0010
1000
0001
0010
0200
0000
0300
,  // measure 35
1000
0001
0200
0000
0310
1000
0001
0010
,  // measure 36
0100
0010
0001
1000
0001
0100
0010
2000
,  // measure 37
0000
0000
3001
0000
0010
0100
1000
0001
,  // measure 38
0400
0000
0000
0000
0310
1000
0001
0020
,  // measure 39
0000
0130
2000
0000
3001
0100
0010
0200
,  // measure 40
0000
0301
2000
0000
3001
0010
0100
0020
,  // measure 41
0000
0130
1000
0001
1000
0200
0000
0340
,  // measure 42
0000
0000
0030
0000
0001
1000
0010
0200
,  // measure 43
0000
0301
2000
0000
3100
0010
0001
0020
,  // measure 44
0000
0130
2000
0000
3001
0100
0010
0200
,  // measure 45
0000
0301
1000
0100
0010
0200
0000
4300
,  // measure 46
0000
3000
0002
0203
,  // measure 47
0320
2030
3002
0023
,  // measure 48
0130
1000
0001
0100
0010
0100
0002
0000
,  // measure 49
2003
0000
3400
0000
0310
0001
1000
0002
,  // measure 50
0000
0103
0020
0000
2030
0000
3002
0000
,  // measure 51
0013
0100
1000
0100
0010
0002
0000
2003
,  // measure 52
0000
3010
0100
0010
1000
0001
0010
0200
,  // measure 53
0000
1300
0002
0000
1003
0010
0100
0001
,  // measure 54
1000
0100
0010
0100
1000
0001
0100
0010
,  // measure 55
2000
0000
3002
0000
0013
0100
0010
0002
,  // measure 56
0000
1003
0020
0000
0130
0001
1000
0100
,  // measure 57
0020
0000
0230
0000
1300
0001
0100
0002
,  // measure 58
0000
1003
0200
0000
0310
0100
1000
0001
,  // measure 59
0200
0000
0320
0000
1030
0001
0010
0002
,  // measure 60
0000
1003
0100
0010
0001
0010
0100
1000
,  // measure 61
0002
0000
0203
0000
0310
1000
0001
0020
,  // measure 62
0000
0130
2000
0000
3100
0010
0002
0003
,  // measure 63
2002
0000
0000
0000
,  // measure 64
0000
0000
0000
0000
,  // measure 65
0000
0000
0000
0000
,  // measure 66
0000
0000
0000
0000
,  // measure 67
0000
0000
0000
0000
,  // measure 68
0000
3003
0000
0000
;

//---------------dance-single - Ace Of Arrows (2019)----------------
#NOTES:
     dance-single:
     Ace Of Arrows (2019):
     Challenge:
     10:
     0.881,0.000,0.843,1.000,0.028:
0000
0000
0000
0000
,
0000
0000
0000
0000
,
0021
0000
0230
0000
2300
0000
3001
0201
,
0000
0310
2000
0000
3001
0100
0010
1000
,
1002
0000
0023
0000
0130
1000
0001
0201
,
0000
0310
2000
0000
3001
1000
0001
0010
,
0210
0000
2300
0000
3001
0100
0010
2010
,
0000
3001
0020
0000
0031
1000
0010
0100
,
0102
0000
2003
0000
3100
0010
0001
2001
,
0000
3010
0200
0000
0301
1000
0100
0010
,
0012
0000
1003
0010
0100
0010
1000
0001
,
0011
0020
0030
0210
0000
1300
0001
0100
,
0120
0000
1030
0001
0010
0100
0010
0001
,
1001
2000
3000
1020
0000
0230
0000
0301
,
2001
0000
3100
0010
0004
0000
0003
1000
,
1010
0010
0100
0002
0000
2003
0000
3100
,
0120
0000
0032
0003
2001
0000
3010
0210
,
0000
0301
1000
0100
0010
0100
1000
0001
,
0101
0100
0010
2000
0000
3001
0010
0001
,
1001
2000
3000
1020
0000
0230
0000
0301
,
2001
0000
3100
0010
0001
1000
0001
0100
,
0110
0020
0030
2010
0000
3002
0000
0013
,
0210
0000
1300
0001
0040
0000
0030
0001
,
1001
1000
0010
0210
0000
0302
0000
1003
,
1200
0000
0320
0000
0032
0000
1003
1020
,
0000
0130
0001
1000
1100
0100
0020
0030
,
0M12
1003
001M
0100
01M2
1003
M100
0010
,
0M11
0001
100M
0010
M210
0301
10M0
0100
,
M120
0000
0M31
1000
101M
0010
M100
0102
,
00M0
1003
010M
0010
0M14
1003
001M
0000
,
M210
0000
03M1
1000
120M
0000
M310
0001
,
10M1
1000
001M
0100
01M2
0000
1M03
0100
,
0120
0031
1000
0010
0100
0001
2000
3000
,
1001
0001
0010
0100
1000
0002
0000
0003
,
0101
0100
0020
0030
1010
1000
0001
0010
,
0100
1000
0001
1000
0010
0100
0001
1000
,
1200
0000
0320
0030
0011
0001
2000
3001
,
0010
0100
0010
0000
0001
0000
1000
0000
0010
0000
0100
0000
0001
0000
2001
0000
,
0000
3100
0020
0000
0130
1000
0001
0201
,
0000
0310
2000
0000
3001
0010
0100
2100
,
0000
3001
0100
0010
1010
2000
3000
1004
,
0000
0000
0003
0000
0010
0100
1000
1002
,
0000
0103
0020
0000
1030
0001
0010
0210
,
0000
1300
0002
0000
1003
0001
0010
0210
,
0000
1300
0001
0100
0110
0020
0030
4010
,
0000
0000
3001
0010
0001
0000
1000
0000
0010
0100
0010
0000
1000
0000
0001
0010
,
0002
0000
2003
0000
3020
0000
0230
0300
,
0101
0001
1000
0100
0010
0001
2000
3000
,
1020
0000
0430
0000
0301
1000
0001
0021
,
0000
0130
4000
0000
3002
0000
0203
0300
,
0110
0010
1000
0001
0010
0200
0300
2100
,
0000
3001
0100
0010
1000
0001
0010
0210
,
0000
1300
0002
0000
1003
0010
0100
0102
,
0000
0000
1003
0000
0100
0000
0010
0000
0001
0010
0001
0000
1000
0000
0010
0000
,
0210
0000
0302
0000
1003
0001
0010
0210
,
0000
1300
0002
0003
0101
0100
0010
1000
,
1002
0000
0023
0000
0130
1000
0001
0201
,
0000
0310
2000
0000
3001
0100
0001
1000
,
1200
0000
0320
0000
0031
1000
0010
0210
,
0000
0301
2000
0000
3100
0010
0001
1000
,
1020
0000
0230
0000
0301
1000
0001
0021
,
0000
0130
2000
0000
3001
0100
0010
1000
,
2002
0000
0000
0000
,
0000
0000
0000
0000
,
0000
0000
0000
0000
,
0000
0000
0000
0000
,
0000
0000
0000
0000
,
0000
3003
0000
0000
;

//---------------dance-single - Ace Of Arrows (2019)----------------
#NOTES:
     dance-single:
     Ace Of Arrows (2019):
     Medium:
     6:
     0.507,0.000,0.000,1.000,0.000:
0000
0000
0000
0000
,
0000
0000
0000
0000
,
0001
0000
1000
0000
0002
0000
0000
0023
,
0000
0000
0230
0000
1300
0002
0000
0000
,
0103
0000
0010
0000
0200
0000
0000
0302
,
0000
0000
2003
0000
3001
0020
0000
0000
,
0130
0000
1000
0000
0200
0000
0000
0320
,
0000
0000
0032
0000
1003
0020
0000
0000
,
1030
0000
0001
0000
2000
0000
0000
3200
,
0000
0000
0320
0000
0031
2000
0000
0000
,
3010
1000
0020
0000
,
1030
0002
0000
2003
0000
3002
0000
0000
,
0013
0100
0020
0000
,
0031
2000
0000
3002
0000
0203
0000
0000
,
0320
0000
1030
0001
2000
0000
3000
0000
,
0002
0000
0013
0200
0000
2300
0000
0000
,
3001
0000
0100
0000
0002
0000
1003
0200
,
0000
0000
1300
0001
2000
0000
3000
0000
,
0001
0000
0000
2000
0000
3020
0000
0000
,
1030
0002
0000
0023
0000
0230
0000
0000
,
1300
0001
2000
0000
,
3001
0200
0000
0302
0000
2003
0000
0000
,
3200
0000
0310
0001
0020
0000
0030
0001
,
2000
0000
3001
0200
0000
0302
0000
0000
,
1003
0000
0100
0000
2000
0000
0000
3002
,
0000
0103
0010
0000
1000
0000
0001
0000
,
2000
0000
3000
0001
0020
0000
0030
0001
,
2000
0000
3001
0010
0002
0000
0003
0000
,
1000
0000
0100
0000
1000
0000
0001
0020
,
0000
0000
0031
1000
0002
0000
0003
0000
,
2000
0000
3000
0001
0200
0000
0300
0001
,
2000
0000
3001
0010
0001
0000
0010
0000
,
0001
0000
1000
0000
0001
0100
0002
0000
,
1003
0000
0100
0000
0010
0200
0000
0000
,
1300
0000
0001
0000
1000
0010
2000
0000
,
3001
0000
0010
0000
0001
0000
1000
0200
,
0000
0000
0000
0000
,
0340
0000
0000
0000
0031
0000
0000
2000
,
0000
3001
0100
0000
0010
0000
0000
0200
,
0000
0301
1000
0000
0001
0000
0000
0020
,
0000
0130
1000
0000
0001
0100
0000
0004
,
0000
0000
0003
0000
1000
0000
0000
0200
,
0000
0310
0001
0000
1000
0000
0000
0002
,
0000
1003
0010
0000
0100
0000
0000
0002
,
0000
1003
0100
0000
1000
0001
0000
0040
,
0000
0030
0001
1000
,
0002
0003
1000
0010
,
1000
0001
2000
0000
3001
0010
0002
0000
,
0013
0000
0100
0000
0010
0000
0001
2000
,
0000
3002
0000
0000
1003
0000
0010
0000
,
1000
0000
0001
0000
0010
0200
0000
0320
,
0000
0031
2000
0000
3001
0200
0000
0302
,
0000
1003
0200
0000
0000
0000
0300
0000
,
0040
0000
0030
0000
,
0001
0000
1000
0000
0002
0000
0000
0023
,
0000
0000
0032
0000
1003
0020
0000
0000
,
1030
0000
0001
0000
2000
0000
0000
3200
,
0000
0000
0320
0000
0031
2000
0000
0000
,
3010
0000
0100
0000
0020
0000
0000
2030
,
0000
0000
3002
0000
0013
0200
0000
0000
,
1300
0000
0001
0000
2000
0000
0000
3020
,
0000
0000
0230
0000
0301
2000
0000
0000
,
3200
0000
0000
0000
,
0000
0000
0000
0000
,
0000
0000
0000
0000
,
0000
0000
0000
0000
,
0000
0000
0000
0000
,
0000
0300
0000
0000
;

//---------------dance-single - Ace Of Arrows (2019)----------------
#NOTES:
     dance-single:
     Ace Of Arrows (2019):
     Easy:
     4:
     0.249,0.000,0.000,0.211,0.000:
0000
0000
0000
0000
,
0000
0000
0000
0000
,
1000
0000
1000
0000
1000
0000
0000
0020
,
0000
0000
0030
0000
,
0100
0000
0100
0000
0100
0000
0000
0002
,
0000
0000
0003
0000
,
1000
0000
1000
0000
1000
0000
0000
0200
,
0000
0000
0300
0000
,
0010
0000
0010
0000
0010
0000
0000
0002
,
0000
0000
0003
0000
,
1000
1000
1000
0000
,
0010
0000
0000
0010
0000
0000
0000
0000
,
0100
0100
0100
0000
,
0001
0000
0000
0001
0000
0000
0000
0000
,
1000
1000
1000
0000
,
0100
0000
0000
0100
0000
0000
0000
0000
,
0010
0000
0010
0000
0010
0000
0000
0001
,
0000
0001
0001
0000
,
1000
0000
0000
1000
0000
0000
0000
0000
,
0010
0000
0000
0010
0000
0000
0000
0000
,
0100
0100
0100
0000
,
0001
0000
0000
0001
0000
0000
0000
0000
,
1000
1000
1000
0000
,
0001
0000
0000
0001
0000
0000
0000
0000
,
0010
0000
0010
0000
0010
0000
0000
0100
,
0000
0100
0200
0300
,
1000
0000
1000
0000
,
0001
0001
0001
0000
,
0100
0000
0100
0000
0100
0000
0000
0010
,
0000
0010
0010
0000
,
0100
0000
0100
0000
,
0001
0001
0001
0000
,
1000
1000
1000
0000
,
0100
0100
0100
0000
,
0010
0010
0010
0000
,
0100
0000
0100
0000
0100
0000
0000
2000
,
0000
0000
0000
0000
,
3000
0000
0000
0000
0001
0000
0000
0002
,
0000
0000
0003
0000
1000
0000
0000
2000
,
0000
0000
3000
0000
0010
0000
0000
0020
,
0000
0000
0030
0000
0100
0000
0000
0400
,
0000
0000
0300
0000
0001
0000
0000
0002
,
0000
0000
0003
0000
1000
0000
0000
2000
,
0000
0000
3000
0000
0100
0000
0000
0200
,
0000
0000
0300
0000
0010
0000
0000
0040
,
0000
0030
0001
0000
,
0001
0001
0001
0000
,
1000
1000
1000
0000
,
0010
0000
0010
0000
0010
0000
0000
0200
,
0000
0300
0001
0000
,
1000
0000
1000
0000
1000
0000
0000
0100
,
0000
0000
0100
0000
0100
0000
0000
0020
,
0000
0000
0000
0000
,
0030
0000
0000
0000
,
0001
0000
0001
0000
0001
0000
0000
2000
,
0000
0000
3000
0000
,
0010
0000
0010
0000
0010
0000
0000
0200
,
0000
0000
0300
0000
,
0001
0000
0001
0000
0001
0000
0000
2000
,
0000
0000
3000
0000
,
0010
0000
0010
0000
0010
0000
0000
0020
,
0000
0000
0030
0000
,
0200
0000
0000
0000
,
0000
0000
0000
0000
,
0000
0000
0000
0000
,
0000
0000
0000
0000
,
0000
0000
0000
0000
,
0000
0300
0000
0000
;

//---------------dance-single - Ace Of Arrows (2019)----------------
#NOTES:
     dance-single:
     Ace Of Arrows (2019):
     Beginner:
     2:
     0.190,0.000,0.000,0.377,0.000:
0000
0000
0000
0000
,
0000
0000
0000
0000
,
0001
0000
0001
0000
,
0002
0000
0003
0000
,
1000
0000
1000
0000
,
2000
0000
3000
0000
,
0100
0000
0100
0000
,
0200
0000
0300
0000
,
0010
0000
0010
0000
,
0020
0000
0030
0000
,
0001
0000
0001
0000
,
0002
0000
0003
0000
,
1000
0000
1000
0000
,
2000
0000
3000
0000
,
0020
0000
0030
0000
,
0020
0000
0030
0000
,
0100
0000
0100
0000
,
0200
0000
0300
0000
,
0001
0000
0001
0000
,
0002
0000
0003
0000
,
1000
0000
1000
0000
,
2000
0000
3000
0000
,
0200
0000
0300
0000
,
0200
0000
0300
0000
,
0010
0000
0010
0000
,
0020
0000
0030
0000
,
0001
0000
0001
0000
,
0002
0000
0003
0000
,
1000
0000
1000
0000
,
2000
0000
3000
0000
,
0010
0000
0010
0000
,
0020
0000
0030
0000
,
0100
0000
0100
0000
,
0200
0000
0300
0000
,
0002
0000
0003
0000
,
1000
0000
1000
0000
,
2000
0000
0000
0000
,
3000
0000
0100
0000
,
0100
0000
0200
0000
,
0300
0000
0010
0000
,
0010
0000
0020
0000
,
0030
0000
0001
0000
,
0001
0000
0002
0000
,
0003
0000
1000
0000
,
1000
0000
2000
0000
,
3000
0000
0000
0000
,
0010
0000
0010
0000
,
0020
0000
0030
0000
,
0100
0000
0100
0000
,
0200
0000
0300
0000
,
0001
0000
0001
0000
,
0002
0000
0003
0000
,
2000
0000
3000
0000
,
2000
0000
3000
0000
,
0100
0000
0100
0000
,
0200
0000
0300
0000
,
0010
0000
0010
0000
,
0020
0000
0030
0000
,
0001
0000
0001
0000
,
0002
0000
0003
0000
,
1000
0000
1000
0000
,
2000
0000
3000
0000
,
0200
0000
0000
0000
,
0000
0000
0000
0000
,
0000
0000
0000
0000
,
0000
0000
0000
0000
,
0000
0000
0000
0000
,
0000
0300
0000
0000
;
