#TITLE:Peter Pan;
#SUBTITLE:;
#ARTIST:M2U;
#TITLETRANSLIT:;
#SUBTITLETRANSLIT:;
#ARTISTTRANSLIT:;
#GENRE:;
#CREDIT:Ace Of Arrows;
#BANNER:Peter Pan - Bn.png;
#BACKGROUND:Peter Pan - Bg.png;
#LYRICSPATH:;
#CDTITLE:Ace Of Arrows.png;
#MUSIC:Peter Pan.ogg;
#OFFSET:1.650;
#SAMPLESTART:74.800;
#SAMPLELENGTH:12.000;
#SELECTABLE:YES;
#BPMS:0.000=128.000;
#STOPS:;
#BGCHANGES:;
#KEYSOUNDS:;

//---------------dance-single - Ace Of Arrows (2019)----------------
#NOTES:
     dance-single:
     Ace Of Arrows (2019):
     Hard:
     9:
     0.650,0.000,0.293,0.832,0.285: // measure 1
0000
0000
0000
0000
,  // measure 2
0000
0000
0000
0000
,  // measure 3
0000
0000
0000
0000
,  // measure 4
1000
0100
0010
0001
0020
0031
1000
0001
,  // measure 5
0100
0010
1000
0001
2000
3100
0010
0001
,  // measure 6
1000
0100
1000
0000
0001
0010
0001
0000
1000
0001
1000
0000
0010
1000
0010
0000
,  // measure 7
1000
0001
0100
0001
1000
0000
0001
0000
0010
0000
0100
0000
1000
0000
0001
0000
,  // measure 8
4000
0400
0000
0000
0000
0000
0000
0000
0000
0000
0000
0000
0000
0000
0000
0000
0000
0000
0000
0000
0000
3300
0000
0000
,  // measure 9
0100
0000
0000
0100
0000
0000
0010
0000
0001
0010
0100
0010
0002
0000
0003
0000
,  // measure 10
1000
0000
0000
0000
2000
0000
0000
3010
0000
0000
0100
0000
0001
0000
1000
0000
,  // measure 11
0001
0000
0010
0000
0100
2000
0000
3001
0000
0000
0100
0000
0010
0000
1000
0000
,  // measure 12
0001
0000
0000
0000
0002
0000
0000
0013
0000
0000
0100
0000
0010
0000
0001
0000
,  // measure 13
1000
0000
0001
0000
0100
0020
0000
1030
0000
0000
0001
0000
0010
0000
0100
0000
,  // measure 14
0010
0000
0000
0000
0020
0000
0000
0031
0000
0000
1000
0000
0010
0000
0100
0000
,  // measure 15
0001
0000
1000
0000
0001
0020
0000
0130
0000
0000
1000
0000
0001
0000
0100
0000
,  // measure 16
0001
0000
0000
0000
0002
0000
0000
1003
0000
0000
0100
0000
0010
0000
0001
0000
,  // measure 17
0010
0000
0100
0000
1000
0002
0000
0103
0000
0000
0010
0000
0100
0000
0001
0000
,  // measure 18
2001
0000
3200
0000
0310
0100
1000
0001
,  // measure 19
0201
0000
0310
2000
0000
3001
0010
0100
,  // measure 20
2100
0000
3001
0100
0020
0000
0130
0101
,  // measure 21
0000
0001
4000
0000
0000
0000
3001
0010
,  // measure 22
0110
0000
0200
0000
1300
0001
0100
0010
,  // measure 23
2010
0000
3001
0020
0000
0130
1000
0001
,  // measure 24
0201
0000
0000
0000
0310
0000
1000
0000
0001
0000
0010
0000
0100
0000
1000
0100
,  // measure 25
2000
0000
3001
0000
0010
0000
0100
0000
1000
0100
0010
0100
2000
0000
3000
0000
,  // measure 26
1001
0000
0002
0000
0103
0010
1000
0010
,  // measure 27
0210
0000
0301
2000
0000
3001
0010
0100
,  // measure 28
2100
0000
3001
0100
0010
1000
0010
0210
,  // measure 29
0000
0000
0001
0000
0301
1000
0000
0100
0000
1000
0001
0000
0100
0000
0010
0000
,  // measure 30
1000
0000
1002
0000
0013
0100
1000
0001
,  // measure 31
0201
0000
0310
2000
0000
3001
0010
0001
,  // measure 32
2001
0000
0000
0000
3010
0000
0200
0000
0000
0000
0301
0000
1000
0000
0100
0010
,  // measure 33
0200
0000
1300
0000
0001
0100
0001
0000
1000
0100
0010
0100
2000
0000
3000
0000
,  // measure 34
1002
0000
0000
0000
0203
0000
0000
0310
0000
0000
1000
0000
0001
0000
0021
0000
,  // measure 35
0000
0000
0130
0000
2000
0000
3001
0100
0000
0000
0020
0000
0000
2030
0000
3000
,  // measure 36
1002
0000
0023
0130
1000
0001
0100
0120
,  // measure 37
1030
0002
0023
0230
2300
3002
0203
0310
,  // measure 38
2010
0000
0000
0000
3002
0000
0000
0013
0000
0001
1000
0000
0020
0000
0230
0000
,  // measure 39
0000
0301
1000
1100
0000
0000
0100
0010
,  // measure 40
0002
0000
0000
0000
1003
0000
0020
0000
0000
0000
0130
0000
0001
0000
1000
0001
,  // measure 41
4000
0040
0000
0000
0000
0000
0000
0000
0000
0000
0000
0000
3030
0000
0000
0000
0000
0000
0010
0000
0000
0100
0000
0000
,  // measure 42
0102
0000
0000
0000
2003
0000
0000
3200
0000
0000
0310
0000
0001
0000
1000
0000
,  // measure 43
1010
0000
0020
0000
0130
0001
0000
2000
0000
0000
3001
0000
0020
0000
0130
0000
,  // measure 44
2100
0000
0000
0000
3002
0000
0000
0203
0000
0000
0310
0000
2000
0000
3001
0000
,  // measure 45
0011
0000
0020
0000
0130
1000
0000
0002
0000
0000
0103
0000
0010
0000
1000
0000
,  // measure 46
1002
0000
0000
0000
0023
0000
0000
0230
0000
0000
1300
0000
0001
0000
0100
0000
,  // measure 47
0110
0000
0020
0000
1030
0001
0000
0020
0000
0000
0130
0000
1000
0000
0001
0000
,  // measure 48
0201
0000
0000
0000
0320
0000
0000
2030
0000
0000
3001
0000
0010
0000
0100
0000
,  // measure 49
1100
0000
1000
0002
0000
0203
0000
0000
0310
0100
0010
0000
2000
0000
3001
0000
,  // measure 50
0021
0000
0000
0000
0230
0000
0000
2300
0000
0000
3001
0000
0200
0000
0310
0000
,  // measure 51
1010
0000
2000
0000
3001
0010
0000
0200
0000
0000
0310
0000
0001
0000
1000
0000
,  // measure 52
1020
0000
0000
0000
0230
0000
0000
0302
0000
0000
1003
0000
0100
0000
0010
0000
,  // measure 53
0011
0000
0002
0000
0013
0100
0000
2000
0000
0000
3001
0000
0100
0000
0010
0000
,  // measure 54
2010
0000
0000
0000
3002
0000
0000
0023
0000
0000
0130
0000
1000
0000
0001
0000
,  // measure 55
0101
0000
0200
0000
0310
1000
0000
0002
0000
0000
0013
0000
0100
0000
1000
0000
,  // measure 56
1002
0000
0000
0000
0203
0000
0000
0320
0000
0000
1030
0000
0001
0000
0010
0000
,  // measure 57
0110
0000
0100
4000
0000
0000
3004
0000
0000
0000
0103
0000
0001
0000
1000
0000
,  // measure 58
1200
0000
0310
0001
2000
3001
0100
0010
,  // measure 59
0200
0301
1000
0001
0020
0130
1000
0001
,  // measure 60
0200
0310
1000
0001
0020
0130
1000
0001
,  // measure 61
0200
0310
1000
0001
0020
0130
1000
0001
,  // measure 62
0010
0001
0010
0000
0001
1000
0001
0000
1000
0010
1000
0000
0001
1000
0001
0000
,  // measure 63
0010
0100
1000
0100
0010
0000
0001
0000
1000
0000
0010
0000
0100
0000
0001
0000
,  // measure 64
4000
3004
0403
0340
,  // measure 65
1030
0000
0000
0000
0000
0000
0000
0000
0000
0001
0000
0000
0000
0000
0000
0000
0000
0000
1000
0000
0000
0000
0000
0000
0001
0000
0010
0000
0001
0000
0010
0000
0000
0000
0000
0000
0100
0000
1000
0000
0100
0000
1000
0000
0000
0000
0000
0000
,  // measure 66
0001
0000
0202
0300
0400
0000
0000
0000
,  // measure 67
0000
0000
0000
0000
,  // measure 68
0303
0000
0000
0000
;

//---------------dance-single - Ace Of Arrows (2019)----------------
#NOTES:
     dance-single:
     Ace Of Arrows (2019):
     Challenge:
     11:
     0.885,0.000,0.578,0.963,0.751:
0000
0000
0000
0000
,
0000
0000
0000
0000
,
0000
0000
0000
0000
,
0001
0010
0100
0010
0002
1003
0001
0100
,
0010
1000
0010
0100
0002
1003
0100
0010
,
0001
0010
0001
0010
0100
1000
0100
1000
0001
0100
0001
0100
0010
1000
0010
1000
,
0001
1000
0001
1000
0100
0010
0100
0010
0001
0010
0001
0010
0100
1000
0100
1000
,
0004
0400
0000
0000
0000
0000
0000
0000
0000
0000
0000
0000
0000
0000
0000
0000
0000
0000
0000
0000
0000
0303
0000
0000
,
0110
0000
0010
1000
0000
0000
0001
0000
0010
0100
1000
0100
0120
0000
0030
0000
,
0012
0000
0000
0000
2003
0000
3000
1010
0000
0010
0100
0001
0100
0010
1000
0001
,
0010
0000
0200
0000
1300
0002
0003
0101
0000
0100
0020
0000
0130
0000
0002
0003
,
2001
0000
0000
0000
3200
0000
0300
0110
0000
0010
0001
0010
0100
1000
0001
0100
,
0010
0000
2000
0000
3001
0020
0030
0110
0000
0000
0100
0000
1100
0000
2000
3000
,
1002
0000
0000
0000
0203
0000
0300
0110
0000
0010
1000
0010
0100
0001
1000
0001
,
0010
0000
0200
0000
1300
0002
0003
0101
0000
0100
0010
0100
0001
1000
0001
0010
,
0200
0000
0000
0000
2300
0000
3000
1001
0000
0001
0100
0010
1000
0010
0100
0001
,
1000
0000
0200
0000
0310
0002
0003
1001
0000
1000
0010
0000
0200
0000
0301
0000
,
1001
0000
0000
0000
2000
0000
0000
0000
3100
0010
0100
0000
1000
0000
0001
0000
,
0201
0000
0000
0310
1000
0000
1002
0000
0000
0000
0013
0100
0010
0000
0001
0000
,
2001
0000
3010
0100
0010
0000
1000
0000
0002
0000
0000
0013
0100
0000
1100
0000
,
0000
0000
1000
0000
0002
0000
0103
0010
0100
0000
0001
0000
1000
0000
0100
0000
,
0110
0000
0000
0000
0020
0000
0000
0000
0031
0010
0001
0000
1000
0000
0010
0000
,
0210
0000
0000
0301
1000
0000
0400
0000
0000
0000
0310
0001
0010
0000
0100
0000
,
2100
0000
0000
3001
0100
0000
0010
0000
1010
0000
1000
0000
0001
0000
0010
0100
,
2000
0000
3001
0100
0001
0000
1000
0000
0100
0010
0001
0010
0200
0000
1300
0000
,
1002
0000
0103
0010
0100
0000
0001
0000
1000
0100
1000
0000
0001
0000
0010
0000
,
0210
0000
1300
0001
1000
0000
0020
0000
0000
0000
0130
0000
0101
0000
0001
0000
,
2001
0000
3100
0010
0100
0000
1000
0000
0002
0000
0103
0010
0100
0000
0102
0000
,
0000
0000
1003
0000
0100
0020
0030
0011
0000
0001
1000
0000
1010
0000
0020
0000
,
0130
0000
0001
1000
0001
0000
0010
0000
0100
1000
0100
0000
0010
0000
0001
0000
,
2001
0000
0000
3010
0100
0000
0102
0000
1003
0000
0100
0010
0100
0000
1000
0000
,
1002
0000
0103
0010
0100
0000
0001
0000
1000
0000
0001
0100
0001
0000
1000
0100
,
2000
0000
3001
0000
0100
0010
0100
0000
0001
1000
0010
1000
0002
0000
0013
0000
,
0210
0000
0000
0000
2300
0000
3000
1001
0000
0001
0100
0000
0010
1000
0010
0000
,
0210
0000
0301
0000
2000
0000
3100
0010
0100
0000
2100
0000
0000
3002
0000
0003
,
0201
0000
0000
0000
0320
0000
0030
1010
0000
1000
0002
0000
0013
0100
0010
0000
,
0012
0000
1003
0000
0010
0000
0100
0000
0102
0000
1003
0100
1000
0000
0001
0000
,
0021
0000
0000
0000
0230
0000
0300
1100
0000
1000
0001
0000
0100
0010
0100
0000
,
0102
0000
1003
0000
0100
0000
0010
0001
0000
0000
2001
0000
0000
3020
0000
0030
,
0210
0000
0301
2000
0000
3000
1200
0000
0000
0000
0310
0000
0001
0000
1000
0001
,
1000
0000
0100
0000
1000
0000
0100
0000
1000
0000
0100
0000
0010
0000
0001
0000
0010
0000
0001
0000
0010
0000
0001
0000
1000
0000
0000
0010
0000
0000
0100
0000
0000
0010
0000
0000
2000
0000
0000
0000
0000
0000
3001
0000
0000
0000
0000
0000
,
0021
0000
0000
0000
0000
0000
0130
0000
0000
1000
0000
0000
0200
0000
0000
0000
0000
0000
0310
0000
0000
0002
0000
0000
0000
0000
0000
0000
0000
0000
1003
0000
0010
0000
1000
0000
0010
0000
0000
0000
0000
0000
0100
0000
0000
0000
0000
0000
,
0102
0000
2003
0000
3100
0010
0000
0012
0000
1003
0010
0000
0200
0000
0301
0000
,
2001
0000
0000
0000
0000
0000
3100
0000
0000
0010
0000
0000
0200
0000
0000
0000
0000
0000
1300
0000
0000
0002
0000
0000
0000
0000
0000
0000
0000
0000
0013
0000
0100
0000
0010
0000
0100
0000
0000
0000
0000
0000
1000
0000
0000
0000
0000
0000
,
1002
0000
0203
0000
0310
2000
3000
1002
0000
0103
0010
0000
1010
0000
2000
3000
,
1002
0000
0000
0000
0000
0000
0013
0000
0000
0100
0000
0000
0010
0000
0000
0000
0000
0000
0001
0000
0000
2000
0000
0000
0000
0000
0000
0000
0000
0000
3001
0000
0100
0000
0001
0000
0100
0000
0000
0000
0000
0000
0010
0000
0000
0000
0000
0000
,
2010
0000
3002
0000
0013
0100
0000
2100
0000
3001
0100
0000
0010
0100
0020
0030
,
2010
0000
0000
0000
0000
0000
3001
0000
0000
0010
0000
0000
0001
0000
0000
0000
0000
0000
1000
0000
0000
0020
0000
0000
0000
0000
0000
0000
0000
0000
1030
0000
0001
0000
1000
0000
0001
0000
0000
0000
0000
0000
0010
0000
0000
0000
0000
0000
,
0210
0000
1300
0001
1000
0100
0010
0001
0010
0100
1000
0100
0020
0000
0031
0000
,
2001
0000
0000
0000
0000
0000
3010
0000
0000
0100
0000
0000
0010
0000
0000
0000
0000
0000
1000
0000
0000
0002
0000
0000
0000
0000
0000
0000
0000
0000
1003
0000
0100
0000
1000
0000
0100
0000
0000
0000
0000
0000
0010
0000
0000
0000
0000
0000
,
0012
0000
2003
0000
3010
0200
0300
0102
0000
1003
0100
0000
0010
0000
0002
0003
,
2001
0000
0000
0000
0000
0000
3100
0000
0000
0010
0000
0000
0100
0000
0000
0000
0000
0000
1000
0000
0000
0002
0000
0000
0000
0000
0000
0000
0000
0000
0103
0000
0010
0000
0100
0000
0010
0000
0000
0000
0000
0000
1000
0000
0000
0000
0000
0000
,
1001
0000
0002
0000
0013
0200
0300
2100
0000
3001
0200
0000
0310
0000
2000
3000
,
1002
0000
0000
0000
0000
0000
0013
0000
0000
0100
0000
0000
0020
0000
0000
0000
0000
0000
0031
0000
0000
2000
0000
0000
0000
0000
0000
0000
0000
0000
3001
0000
0100
0000
0001
0000
0100
0000
0000
0000
0000
0000
0010
0000
0000
0000
0000
0000
,
2010
0000
3002
0000
0013
0100
0000
2100
0000
3001
0100
0000
0010
0100
0010
0000
,
2010
0000
0000
0000
0000
0000
3001
0000
0000
0010
0000
0000
0001
0000
0000
0000
0000
0000
1000
0000
0000
0020
0000
0000
0000
0000
0000
0000
0000
0000
1030
0000
0001
0000
1000
0000
0001
0000
0000
0000
0000
0000
0010
0000
0000
0000
0000
0000
,
0210
0000
1300
0004
0000
0000
0400
0000
0003
0000
0310
0000
1000
0000
0001
0000
,
0021
0000
0130
1000
0002
0103
1000
0100
,
0002
1003
0100
0010
0002
0013
1000
0010
,
0002
1003
0010
0100
0002
0103
1000
0100
,
0002
1003
0100
0010
0002
0013
1000
0010
,
0001
0010
0001
0010
0100
1000
0100
1000
0001
0100
0001
0100
0010
1000
0010
1000
,
0010
0100
0010
0100
0001
1000
0001
1000
0100
1000
0100
1000
0001
0010
0001
0010
,
0400
0000
4300
0000
0004
3000
0400
0303
,
0110
0000
0000
0000
0000
0000
0000
0000
0000
1010
0000
0000
0000
0000
0000
0000
0000
0000
1001
0000
0000
0000
0000
0000
0001
0000
0010
0000
0001
0000
0010
0000
0001
0000
0010
0000
0100
0000
1000
0000
0100
0000
1000
0000
0100
0000
1000
0000
,
0100
0000
0220
0300
0400
0000
0000
0000
,
0000
0000
0000
0000
,
0330
0000
0000
0000
;

//---------------dance-single - Ace Of Arrows (2019)----------------
#NOTES:
     dance-single:
     Ace Of Arrows (2019):
     Medium:
     6:
     0.424,0.000,0.008,0.948,0.100:
0000
0000
0000
0000
,
0000
0000
0000
0000
,
0000
0000
0000
0000
,
0001
0000
1000
0100
2000
0000
3001
0000
,
0100
0000
0010
0100
0020
0000
1030
0000
,
0001
0010
0002
0000
1003
0000
0100
0000
,
0010
0000
0001
1000
0002
0000
0103
0000
,
0040
0000
0000
0030
,
1000
0000
0000
1000
0000
0000
2000
0000
0000
0000
0000
0000
3000
0000
0000
0000
,
0002
0000
0000
0000
0023
0000
0000
0031
0000
0000
0000
0000
0000
0000
0000
0000
,
1000
0000
0010
0000
2000
0000
0000
3001
0000
0000
0000
0000
0000
0000
0000
0000
,
0020
0000
0000
0000
0230
0000
0000
0310
0000
0000
0000
0000
0000
0000
0000
0000
,
0001
0000
1000
0000
0002
0000
0000
0103
0000
0000
0000
0000
0000
0000
0000
0000
,
0020
0000
0000
0000
2030
0000
0000
3010
0000
0000
0000
0000
0000
0000
0000
0000
,
1000
0000
0001
0000
2000
0000
0000
3010
0000
0000
0000
0000
0000
0000
0000
0000
,
0200
0000
0000
0000
0302
0000
0000
0103
0000
0000
0000
0000
0000
0000
0000
0000
,
0010
0000
0100
0000
0020
0000
0000
1030
0000
0000
0000
0000
0000
0000
0000
0000
,
0000
0000
0002
0000
2003
0000
3001
0010
,
0002
0000
1003
0200
0000
0300
0000
0010
,
0002
0000
1003
0001
2000
0000
3100
0020
,
0000
0130
4000
0000
0000
0000
3000
0000
,
0000
0000
0002
0000
0203
0000
0310
1000
,
0020
0000
1030
0002
0000
0003
0000
0010
,
0200
0000
1300
0001
2000
0000
3001
0020
,
0000
0030
0400
0300
,
0000
0000
2000
0000
3001
0010
0002
0000
,
2003
0000
3010
0200
0000
0300
0000
0001
,
2000
0000
3100
0010
0200
0000
1300
0002
,
0000
1003
0040
0000
0000
0000
0000
0000
,
0030
0000
2000
0000
3001
0010
0002
0000
,
2003
0000
3010
0200
0000
0000
0300
0001
,
2000
0000
3100
0020
0000
0031
1000
0002
,
0000
0003
0020
0000
0230
0000
2300
0000
,
3002
0000
0203
0000
0300
0010
1000
0020
,
0000
1030
0001
2000
0000
3000
0000
0000
,
0002
0000
1003
0100
2000
0000
3001
0400
,
0000
0000
0000
0300
,
0020
0000
2030
0000
3002
0000
0013
0200
,
0000
1300
0001
1000
0000
0000
0010
0100
,
0020
0000
1030
0002
0000
0103
0010
0200
,
0000
0000
0000
0000
0300
0000
0001
1000
,
0002
0000
0000
0000
2003
0000
0000
3020
0000
0000
1030
0000
0002
0000
0000
0000
,
0013
0000
0100
0000
0020
0000
0000
0032
0000
0000
0000
0000
1003
0000
0000
0000
,
0020
0000
0000
0000
2030
0000
0000
3002
0000
0000
0013
0000
0200
0000
0000
0000
,
0310
0000
0001
0000
0020
0000
0000
0230
0000
0000
1300
0000
0002
0000
0000
0000
,
0203
0000
0000
0000
0320
0000
0000
2030
0000
0000
3001
0000
0020
0000
0000
0000
,
0031
0000
1000
0000
0002
0000
0000
0203
0000
0000
0310
0000
2000
0000
0000
0000
,
3002
0000
0000
0000
0023
0000
0000
0230
0000
0000
1300
0000
0002
0000
0000
0000
,
2003
0000
0000
3020
0000
0000
2030
0000
0000
0000
0000
0000
3002
0000
0000
0000
,
0203
0000
0000
0000
0320
0000
0000
2030
0000
0000
3001
0000
0020
0000
0000
0000
,
0031
0000
1000
0000
0002
0000
0000
0203
0000
0000
0310
0000
2000
0000
0000
0000
,
3002
0000
0000
0000
0023
0000
0000
0230
0000
0000
0310
0000
0002
0000
0000
0000
,
1003
0000
0010
0000
2000
0000
0000
3002
0000
0000
0000
0000
0013
0000
0100
0000
,
0020
0000
0000
0000
0032
0000
0000
2003
0000
0000
3001
0000
0200
0000
0000
0000
,
0310
0000
1000
0000
0020
0000
0000
0230
0000
0000
0301
0000
2000
0000
0000
0000
,
3002
0000
0000
0000
0023
0000
0000
0032
0000
0000
1003
0000
0200
0000
0000
0000
,
0320
0000
0000
0032
0000
0000
2003
0000
0000
0000
0000
0000
3001
0000
0100
0000
,
0002
0000
0000
0000
0000
0000
0000
0000
0000
0000
0000
0000
0000
0000
0000
0000
0000
0000
0000
0000
0000
0000
0000
0003
0004
0000
0000
0000
0000
0000
0000
0000
,
0000
0000
0000
0003
,
1000
0000
0010
0100
0020
0000
1030
0000
,
0001
0000
1000
0100
2000
0000
3001
0000
,
0100
0000
0010
1000
0020
0000
0130
0000
,
0001
0000
1000
0100
2000
0000
3001
0000
,
0040
0000
0000
0030
0400
0000
0000
0300
,
1000
0000
0000
1000
0000
0000
4000
0000
0000
0000
0000
0000
0000
0000
0000
0000
,
3000
0000
2002
0003
0004
0000
0000
0000
,
0000
0000
0000
0000
,
3003
0000
0000
0000
;

//---------------dance-single - Ace Of Arrows (2019)----------------
#NOTES:
     dance-single:
     Ace Of Arrows (2019):
     Easy:
     4:
     0.217,0.000,0.000,0.285,0.085:
0000
0000
0000
0000
,
0000
0000
0000
0000
,
0000
0000
0000
0000
,
1000
1000
2000
3000
,
0010
0010
0020
0030
,
0100
0100
0200
0300
,
0001
0001
0002
0003
,
4000
0000
3000
0000
,
0001
0000
0000
0002
0000
0000
0003
0000
,
1000
0000
0000
0000
1000
0000
0000
1000
0000
0000
0000
0000
0000
0000
0000
0000
,
0100
0000
0000
0000
0100
0000
0000
0100
0000
0000
0000
0000
0000
0000
0000
0000
,
1000
0000
0000
0000
1000
0000
0000
1000
0000
0000
0000
0000
0000
0000
0000
0000
,
0001
0000
0000
0000
0001
0000
0000
0001
0000
0000
0000
0000
0000
0000
0000
0000
,
0010
0000
0000
0000
0010
0000
0000
0010
0000
0000
0000
0000
0000
0000
0000
0000
,
0100
0000
0000
0000
0100
0000
0000
0100
0000
0000
0000
0000
0000
0000
0000
0000
,
1000
0000
0000
0000
1000
0000
0000
1000
0000
0000
0000
0000
0000
0000
0000
0000
,
0001
0000
0000
0000
0001
0000
0000
0001
0000
0000
0000
0000
0000
0000
0000
0000
,
0000
1000
1000
0000
,
0010
0000
0000
0020
0000
0000
0030
0000
,
0100
0000
0100
0000
0100
0000
0000
0001
,
0000
0004
0000
0003
,
0000
1000
1000
0000
,
0100
0000
0000
0200
0000
0000
0300
0000
,
0010
0000
0000
0010
0000
0000
0000
0020
,
0000
0030
0004
0003
,
0000
1000
1000
0000
,
0001
0000
0000
0002
0000
0000
0003
0000
,
0100
0000
0100
0000
0100
0000
0000
0010
,
0000
0040
0000
0000
,
0030
1000
1000
0000
,
0001
0000
0000
0002
0000
0000
0003
0000
,
0010
0000
0000
0010
0000
0000
0000
0010
,
0000
0100
0200
0300
,
1000
0000
2000
0000
3000
0000
0000
0002
,
0000
0003
0000
0002
0000
0000
0003
0000
,
0100
0000
0100
0000
0100
0000
0000
0040
,
0000
0000
0000
0030
,
1000
0000
1000
0000
2000
0000
3000
0001
,
0000
0001
0000
0001
0000
0000
0010
0000
,
0010
0000
0000
0100
0000
0000
0000
0200
,
0000
0000
0300
0000
,
1000
0000
0000
0000
1000
0000
0000
2000
0000
0000
0000
0000
3000
0000
0000
0000
,
0001
0000
0000
0000
0001
0000
0000
0002
0000
0000
0000
0000
0003
0000
0000
0000
,
0100
0000
0000
0000
0100
0000
0000
0200
0000
0000
0000
0000
0300
0000
0000
0000
,
0010
0000
0000
0000
0010
0000
0000
0020
0000
0000
0000
0000
0030
0000
0000
0000
,
1000
0000
0000
0000
1000
0000
0000
2000
0000
0000
0000
0000
3000
0000
0000
0000
,
0001
0000
0000
0000
0001
0000
0000
0002
0000
0000
0000
0000
0003
0000
0000
0000
,
0010
0000
0000
0000
0010
0000
0000
0020
0000
0000
0000
0000
0030
0000
0000
0000
,
0100
0000
0000
0200
0000
0000
0300
0000
,
0010
0000
0000
0000
0010
0000
0000
0020
0000
0000
0000
0000
0030
0000
0000
0000
,
0001
0000
0000
0000
0001
0000
0000
0002
0000
0000
0000
0000
0003
0000
0000
0000
,
1000
0000
0000
0000
1000
0000
0000
2000
0000
0000
0000
0000
3000
0000
0000
0000
,
0010
0000
0000
0000
0010
0000
0000
0020
0000
0000
0000
0000
0030
0000
0000
0000
,
0100
0000
0000
0000
0100
0000
0000
0200
0000
0000
0000
0000
0300
0000
0000
0000
,
0001
0000
0000
0000
0001
0000
0000
0002
0000
0000
0000
0000
0003
0000
0000
0000
,
1000
0000
0000
0000
1000
0000
0000
2000
0000
0000
0000
0000
3000
0000
0000
0000
,
0010
0000
0000
0010
0000
0000
0010
0000
,
0020
0000
0000
0000
0000
0000
0000
0000
0000
0000
0000
0000
0000
0000
0000
0000
0000
0000
0000
0000
0000
0000
0000
0030
0040
0000
0000
0000
0000
0000
0000
0000
,
0000
0000
0000
0030
,
1000
1000
2000
3000
,
0001
0001
0002
0003
,
0010
0010
0020
0030
,
0100
0100
0200
0300
,
4000
0000
0000
3000
0004
0000
0000
0003
,
0010
0000
0000
0010
0000
0000
0100
0000
,
0000
0000
0200
0300
0400
0000
0000
0000
,
0000
0000
0000
0000
,
0300
0000
0000
0000
;

//---------------dance-single - Ace Of Arrows (2019)----------------
#NOTES:
     dance-single:
     Ace Of Arrows (2019):
     Beginner:
     2:
     0.127,0.000,0.000,0.224,0.000:
0000
0000
0000
0000
,
0000
0000
0000
0000
,
0000
0000
0000
0000
,
0001
0000
0001
0000
,
0002
0000
0003
0000
,
1000
0000
1000
0000
,
2000
0000
3000
0000
,
0040
0000
0030
0000
,
0020
0000
0030
0000
,
1000
0000
1000
0000
,
2000
0000
3000
0000
,
0001
0000
0001
0000
,
0002
0000
0003
0000
,
0010
0000
0010
0000
,
0020
0000
0030
0000
,
0100
0000
0100
0000
,
0200
0000
0300
0000
,
0000
0000
1000
0000
,
2000
0000
3000
0000
,
0001
0000
0001
0000
,
0002
0000
0000
0000
,
0003
0000
0100
0000
,
0200
0000
0300
0000
,
0010
0000
0010
0000
,
0020
0000
0030
0000
,
0000
0000
1000
0000
,
2000
0000
3000
0000
,
0010
0000
0010
0000
,
0020
0000
0000
0000
,
0030
0000
0100
0000
,
0200
0000
0300
0000
,
0001
0000
0001
0000
,
0002
0000
0003
0000
,
2000
0000
3000
0000
,
0200
0000
0300
0000
,
0010
0000
0010
0000
,
0040
0000
0030
0000
,
0001
0000
0001
0000
,
0002
0000
0003
0000
,
1000
0000
1000
0000
,
2000
0000
3000
0000
,
0010
0000
0010
0000
,
0020
0000
0030
0000
,
0100
0000
0100
0000
,
0200
0000
0300
0000
,
0001
0000
0001
0000
,
0002
0000
0003
0000
,
1000
0000
1000
0000
,
2000
0000
3000
0000
,
0100
0000
0100
0000
,
0200
0000
0300
0000
,
0010
0000
0010
0000
,
0020
0000
0030
0000
,
0001
0000
0001
0000
,
0002
0000
0003
0000
,
1000
0000
1000
0000
,
4000
0000
3000
0000
,
0020
0000
0000
0000
,
0000
0000
0030
0000
,
0100
0000
0100
0000
,
0200
0000
0300
0000
,
0001
0000
0001
0000
,
0002
0000
0003
0000
,
4000
0000
3000
0000
,
0001
0000
0004
0000
,
0003
0040
0000
0000
,
0000
0000
0000
0000
,
0030
0000
0000
0000
;
