#TITLE:Peach Fuzz;
#SUBTITLE:;
#ARTIST:Sampling Masters Aya;
#TITLETRANSLIT:;
#SUBTITLETRANSLIT:;
#ARTISTTRANSLIT:;
#GENRE:;
#CREDIT:Ace Of Arrows;
#BANNER:Peach Fuzz - Bn.png;
#BACKGROUND:Peach Fuzz - Bg.png;
#LYRICSPATH:;
#CDTITLE:Ace Of Arrows.png;
#MUSIC:Peach Fuzz.ogg;
#OFFSET:1.070;
#SAMPLESTART:55.500;
#SAMPLELENGTH:12.000;
#SELECTABLE:YES;
#BPMS:0.000=182.000;
#STOPS:;
#BGCHANGES:;
#KEYSOUNDS:;

//---------------dance-single - Ace Of Arrows (2019)----------------
#NOTES:
     dance-single:
     Ace Of Arrows (2019):
     Challenge:
     9:
     0.692,0.291,0.799,1.000,0.017:
0000
0000
0000
0000
,
2002
0000
3003
0202
0000
0000
0003
0000
,
0310
1000
0001
0010
0001
1000
0010
0000
,
0220
0000
0330
0202
0000
0303
2002
0000
,
0003
0000
3100
0010
0100
0000
1000
0000
0001
0000
0100
0000
0001
1000
0001
0000
,
0022
0000
0033
0220
0000
0000
0030
0000
,
1300
0002
0000
0203
0000
0310
1000
0001
,
0202
0000
0303
2020
0000
3030
2002
3000
,
0013
0100
1000
0001
0100
0001
2002
0000
,
0000
0003
0000
3200
0000
0310
0022
0000
,
0030
0000
1003
0000
0010
0000
0100
0000
0001
0000
1000
0000
0001
0010
0001
0000
,
2002
0003
3010
0000
0000
0100
0000
0102
,
0000
1003
0000
0000
1100
0200
0000
0300
,
0120
0000
0031
0000
0000
1000
0000
1020
,
0000
0130
0000
0000
0101
0002
0000
0003
,
2001
0000
3100
0000
0000
0010
0000
0012
,
0000
1003
0010
0100
,
0102
1003
0000
0100
0000
0010
0000
0012
,
0000
0000
0000
2003
0000
0000
3000
0000
,
1020
0000
0130
0000
0000
0001
0000
2001
,
0000
3100
0000
0000
0110
0020
0000
0030
,
0012
0000
1003
0000
0000
0010
0000
0210
,
0000
0301
0000
0000
1001
2000
0000
3000
,
1200
0000
0310
0000
0000
0001
0000
2001
,
0000
3010
0100
0001
,
2001
3100
0000
0010
0000
0001
0000
2001
,
0000
0000
3001
0010
0001
0000
2000
0000
0000
0000
0000
0000
3000
0000
0000
0000
,
1002
0000
0103
0000
0000
0010
0000
2010
,
0000
3001
0010
0100
,
2200
0000
3300
2002
0000
3003
0202
0000
,
0000
0000
0000
0000
0003
0000
0320
0030
,
2020
0000
0030
3001
0000
0010
0000
0220
,
0000
0030
1300
0000
0001
0000
0100
0000
,
0220
0000
0000
0000
,
0000
0000
0330
0000
,
2010
0000
3001
0000
0000
1000
0000
2200
,
0000
3000
0310
0000
0001
0000
1000
0000
,
2020
0000
3000
0000
0130
0001
0000
2002
,
0000
0000
3003
1000
,
1200
0320
0032
2003
,
3020
0000
0000
0130
,
0102
2003
3200
0320
,
0032
0000
0000
2003
0000
0000
3000
0000
,
2020
0000
3030
0220
0000
0330
0202
0000
,
0000
0000
0300
0000
1003
0100
0010
0011
,
0000
0002
0000
0000
0000
0000
1003
0010
,
0200
0000
0300
0101
0000
2002
0000
3003
,
2200
0000
3300
0220
0000
0330
0022
0000
,
0000
0000
0030
0000
1003
0010
0100
0101
,
0000
0002
0000
0000
0000
0000
1003
2200
,
0000
0000
3000
0000
0320
0000
0032
0003
,
2002
0000
3003
0000
0000
1000
0010
2000
,
0000
0000
0000
3000
0000
0000
0002
0003
,
0021
0000
0230
0000
2300
0000
3002
0003
,
0202
0000
0303
2002
0000
3003
2220
0000
,
0000
0000
0000
0000
,
0000
0000
3330
0222
,
0000
0000
0000
0000
,
0000
0000
0000
0333
,
0012
0000
1003
0010
0200
0000
0300
0102
,
0000
1003
0100
0010
0001
0010
0100
1000
,
1002
0000
0103
0010
1000
0001
0010
0210
,
0000
1300
0001
0100
0001
1000
0100
0010
,
0012
1003
0010
0100
0010
1000
0001
0021
,
0000
0130
1000
0100
0010
0001
1000
0001
,
0202
0000
0303
0220
0000
0330
2020
0000
,
3030
2002
0000
3003
,
0022
0000
0033
0220
0000
0330
2200
0000
,
0000
0000
0300
0000
3001
0100
0010
1010
,
0000
2000
0000
0000
0000
0000
3001
0010
,
0210
0000
0300
1100
0000
2000
0000
3000
,
2002
0000
3003
0202
0000
0303
0220
0000
,
0000
0000
0300
0000
1030
0001
0010
0110
,
0000
0200
0000
0000
0000
0000
1300
2002
,
0000
0000
3003
0000
0002
0000
2003
3000
,
2020
0000
3030
0000
0000
0010
0100
0002
,
0000
0000
0003
0000
0000
0000
2000
3000
,
1200
0000
0320
0000
0032
0000
2003
3000
,
2020
0000
3030
0220
0000
0330
0202
0303
,
2002
0000
3003
0000
0000
1000
0100
0020
,
0000
0000
0000
0000
0030
0000
0002
0003
,
2001
0000
3020
0000
0230
0000
0302
0003
,
2002
0000
3003
2200
0000
3300
0022
0000
,
0000
0000
0000
0000
,
0000
0000
0000
0033
,
0000
0002
0000
2003
0000
3200
0000
0310
,
0002
0003
2002
0000
3003
0000
0000
0000
;

//---------------dance-single - Ace Of Arrows (2019)----------------
#NOTES:
     dance-single:
     Ace Of Arrows (2019):
     Hard:
     7:
     0.472,0.145,0.134,1.000,0.000: // measure 1
0000
0000
0000
0000
,  // measure 2
2000
0000
0000
3200
0000
0000
0000
0000
,  // measure 3
0000
0310
0001
0020
0000
0000
0130
0000
,  // measure 4
2000
0000
0000
3002
0000
0000
0203
0000
,  // measure 5
0000
0340
0000
0000
0030
0000
1000
0001
,  // measure 6
2000
0000
0000
3200
0000
0000
0000
0000
,  // measure 7
0000
0320
0000
0032
0000
0000
1003
0010
,  // measure 8
2000
0000
0000
3002
0000
0000
0023
0000
,  // measure 9
0031
2000
0000
3020
0000
1030
0002
0000
,  // measure 10
0000
0000
0000
0023
0000
0130
2000
0000
,  // measure 11
0000
3001
0200
0000
0301
1000
0004
0000
,  // measure 12
0003
0000
0010
0000
0000
0100
0000
2000
,  // measure 13
0000
3001
0000
0000
1000
0200
0000
0000
,  // measure 14
0300
0000
0010
0000
0000
0001
0000
2000
,  // measure 15
0000
3010
0000
0000
0100
0002
0000
0000
,  // measure 16
0003
0000
1000
0000
0000
0100
0000
0020
,  // measure 17
0000
0130
1000
0001
,  // measure 18
1000
0010
0000
1000
0000
0001
0000
0200
,  // measure 19
0000
0000
0000
0302
0000
0000
0000
0000
,  // measure 20
0003
0000
1000
0000
0000
0100
0000
0020
,  // measure 21
0000
0130
0000
0000
1000
0002
0000
0000
,  // measure 22
0003
0000
1000
0000
0000
0010
0000
2000
,  // measure 23
0000
3001
0000
0000
0010
0200
0000
0000
,  // measure 24
0300
0000
1000
0000
0000
0001
0000
0200
,  // measure 25
0000
0301
1000
0001
,  // measure 26
0010
0100
0000
1000
0000
0001
0000
0200
,  // measure 27
0000
0000
0301
2000
0000
0000
0000
0000
,  // measure 28
3000
0000
0100
0000
0000
0010
0000
0002
,  // measure 29
0000
1003
0010
0100
,  // measure 30
0002
0000
0000
2003
0000
0000
0200
0000
,  // measure 31
0000
0000
3300
2000
,  // measure 32
3002
0000
0000
0203
0000
0320
0000
2030
,  // measure 33
0000
3001
1000
0001
,  // measure 34
0022
0000
0000
0000
,  // measure 35
0000
0000
0033
0000
,  // measure 36
0000
0000
0010
0000
0000
0100
0000
2000
,  // measure 37
0000
3001
0100
0010
,  // measure 38
2000
0000
0000
0000
3001
0010
0000
0200
,  // measure 39
0000
0000
0300
1000
,  // measure 40
0002
0203
0320
0230
,  // measure 41
0302
0000
0000
1003
,  // measure 42
0200
0320
0032
2003
,  // measure 43
3002
0000
0000
0203
0000
0000
0300
0000
,  // measure 44
0120
0000
0000
2030
0000
3000
1002
0000
,  // measure 45
0000
0000
0000
0000
1003
0100
0010
0001
,  // measure 46
0000
2000
0000
0000
0000
0000
3001
0100
,  // measure 47
0002
0000
0000
1003
0000
0200
0000
0300
,  // measure 48
0120
0000
0000
0032
0000
0003
2001
0000
,  // measure 49
0000
0000
0000
0000
3001
0010
0100
1000
,  // measure 50
0000
0002
0000
0000
0000
0000
1003
0020
,  // measure 51
0000
0000
0230
0302
,  // measure 52
2003
0000
3000
0000
0000
0001
0010
0002
,  // measure 53
0000
0000
0000
0003
0000
0000
2000
0000
,  // measure 54
3020
0230
0302
2003
,  // measure 55
3002
0000
0000
2003
0000
3000
2020
0000
,  // measure 56
0000
0000
0000
0000
,  // measure 57
0000
0000
3030
0202
,  // measure 58
0000
0000
0000
0000
,  // measure 59
0000
0000
0000
0303
,  // measure 60
0002
0000
0000
0000
1003
0100
0010
0200
,  // measure 61
0000
1300
0001
1000
,  // measure 62
0002
0000
0000
0000
1003
0010
0100
0020
,  // measure 63
0000
1030
0001
0010
,  // measure 64
0002
0000
0000
0000
0013
0100
1000
0200
,  // measure 65
0000
0310
0001
1000
,  // measure 66
0002
0000
0000
0203
0000
0000
0320
0000
,  // measure 67
0030
2020
0000
3030
,  // measure 68
1002
0000
0000
0023
0000
0030
0210
0000
,  // measure 69
0000
0000
0000
0000
1300
0100
0010
0001
,  // measure 70
0000
2000
0000
0000
0000
0000
3001
0100
,  // measure 71
0002
0000
0000
1003
0000
0200
0000
0300
,  // measure 72
0120
0000
0000
0032
0000
0003
2001
0000
,  // measure 73
0000
0000
0000
0000
3001
0100
0010
1000
,  // measure 74
0000
0002
0000
0000
0000
0000
0013
0200
,  // measure 75
0000
0300
2000
3002
,  // measure 76
0203
0000
0300
0000
0000
0001
1000
0002
,  // measure 77
0000
0003
0000
2000
,  // measure 78
3200
0320
0032
0013
,  // measure 79
0210
0000
0000
2300
0000
0000
3002
0000
,  // measure 80
0203
0000
0300
0000
0000
0010
1000
0020
,  // measure 81
0000
0000
0030
2000
,  // measure 82
3002
0203
0302
1003
,  // measure 83
1200
0000
0000
0320
0000
0030
0022
0000
,  // measure 84
0000
0000
0000
0000
,  // measure 85
0000
0000
0000
0033
,  // measure 86
0000
0002
0000
2003
0000
3020
0000
1030
,  // measure 87
0001
2002
3003
0000
;

//---------------dance-single - Ace Of Arrows (2019)----------------
#NOTES:
     dance-single:
     Ace Of Arrows (2019):
     Medium:
     5:
     0.396,0.145,0.000,1.000,0.000:
0000
0000
0000
0000
,
0002
0000
0000
2003
0000
0000
0000
0000
,
0000
0000
3000
0000
,
0002
0000
0000
0023
0000
0000
0032
0000
,
0000
0000
0003
0000
,
2000
0000
0000
3020
0000
0000
0000
0000
,
0000
0000
0030
0000
,
0200
0000
0000
0302
0000
0000
2003
0000
,
0000
0000
3000
0002
,
0000
0000
0000
0023
,
0000
0000
0000
0030
,
0000
0000
0001
0000
0000
1000
0000
0002
,
0000
1003
0000
0000
0001
0200
0000
0000
,
0300
0000
0001
0000
0000
1000
0000
0002
,
0000
0013
0000
0000
0100
2000
0000
0000
,
3000
0000
0010
0000
0000
1000
0000
0020
,
0000
1030
0001
1000
,
0001
0010
0000
0001
0000
1000
0000
0002
,
0000
0000
0000
0023
0000
0000
0000
0000
,
0030
0000
0100
0000
0000
1000
0000
0002
,
0000
1003
0000
0000
0010
2000
0000
0000
,
3000
0000
0001
0000
0000
0010
0000
0002
,
0000
1003
0000
0000
0001
0200
0000
0000
,
0300
0000
0001
0000
0000
1000
0000
0002
,
0000
0013
0100
0010
,
0100
1000
0000
0001
0000
1000
0000
0002
,
0000
0000
1003
0020
0000
0000
0000
0000
,
0030
0000
0100
0000
0000
0001
0000
0200
,
0000
0301
1000
0001
,
0200
0000
0000
0320
0000
0000
0230
0000
,
0000
0000
0300
0002
,
2003
0000
0000
3100
0000
0010
0000
0200
,
0000
1300
0001
1000
,
0020
0000
0000
0000
,
0000
0000
0030
0000
,
0000
0000
1000
0000
0000
0001
0000
0020
,
0000
0031
1000
0001
,
0200
0000
0000
0000
0301
1000
0000
0002
,
0000
0000
0003
1000
,
0002
0023
0032
0023
,
0230
0000
0000
1300
,
0002
0203
0302
0203
,
0320
0000
0000
2030
0000
0000
0000
0000
,
3002
0000
0000
0023
0000
0000
0032
0000
,
0000
0000
0000
0000
2003
0000
3001
0010
,
0000
0200
0000
0000
0000
0000
1300
0000
,
0002
0000
0000
0203
0000
0302
0000
0000
,
2003
0000
0000
3200
0000
0000
2300
0000
,
0000
0000
0000
0000
3002
0000
0103
0010
,
0000
0200
0000
0000
0000
0000
0301
2000
,
0000
0000
3002
0023
,
0032
0000
0003
0000
0000
0000
1000
0020
,
0000
0000
0030
2000
,
3002
0023
0032
2003
,
3002
0000
0000
0023
0000
0000
0032
0000
,
0000
0000
0000
0000
,
0000
0000
0003
2000
,
0000
0000
0000
0000
,
0000
0000
0000
3000
,
0020
0000
0000
0000
1030
0000
0000
0002
,
0000
0000
0013
0100
,
0020
0000
0000
0000
0032
0000
0000
2003
,
0000
0000
3001
0100
,
0002
0000
0000
0000
2003
0000
0000
3200
,
0000
0000
0310
0001
,
0020
0000
0000
0230
0000
0000
2300
0000
,
3000
0002
0000
0003
,
2000
0000
0000
3020
0000
0000
2030
0000
,
0000
0000
0000
0000
3002
0000
0103
0010
,
0000
0200
0000
0000
0000
0000
0301
0000
,
2000
0000
0000
3100
0000
0020
0000
0000
,
0032
0000
0000
2003
0000
0000
3002
0000
,
0000
0000
0000
0000
0023
0000
0130
1000
,
0000
0200
0000
0000
0000
0000
0310
0002
,
0000
0003
2000
3020
,
2030
0000
3000
0000
0000
0000
0001
0020
,
0000
0000
0030
0002
,
2003
3020
2030
3020
,
0230
0000
0000
0302
0000
0000
2003
0000
,
3002
0000
0003
0000
0000
0000
1000
0020
,
0000
0000
0030
2000
,
3002
2003
3002
2003
,
3020
0000
0000
0230
0000
0000
0302
0000
,
0000
0000
0000
0000
,
0000
0000
0000
0003
,
0000
1000
0000
0100
0000
2000
0000
3001
,
0200
0320
0030
0000
;

//---------------dance-single - Ace Of Arrows (2019)----------------
#NOTES:
     dance-single:
     Ace Of Arrows (2019):
     Easy:
     4:
     0.259,0.109,0.000,0.504,0.000:
0000
0000
0000
0000
,
0001
0000
0000
0002
0000
0000
0000
0000
,
0000
0003
0000
0000
,
1000
0000
0000
1000
0000
0000
2000
0000
,
0000
0000
3000
0000
,
0010
0000
0000
0020
0000
0000
0000
0000
,
0000
0000
0030
0000
,
0100
0000
0000
0100
0000
0000
0200
0000
,
0000
0000
0300
0002
,
0000
0000
0003
0002
,
0000
0000
0000
0003
,
0000
0000
1000
0000
0000
1000
0000
2000
,
0000
3000
0000
0000
0002
0000
0000
0000
,
0003
0000
0010
0000
0000
0010
0000
0020
,
0000
0030
0000
0000
0200
0000
0000
0000
,
0300
0000
1000
0000
0000
1000
0000
2000
,
0000
3000
2000
3000
,
0100
0000
0000
0100
0000
0100
0000
0200
,
0000
0300
0000
0020
0000
0000
0000
0000
,
0030
0000
0001
0000
0000
0001
0000
0002
,
0000
0003
0002
0000
,
0003
0000
1000
0000
0000
1000
0000
2000
,
0000
3000
2000
0000
,
3000
0000
0010
0000
0000
0010
0000
0020
,
0000
0030
0020
0030
,
0100
0000
0000
0100
0000
0100
0000
0200
,
0000
0300
0000
0002
0000
0000
0003
0000
,
0000
0000
1000
0000
0000
1000
0000
2000
,
0000
3000
0001
0001
,
0002
0003
0000
0200
,
0000
0000
0300
0010
,
0020
0000
0000
0000
0030
1000
0000
2000
,
0000
3000
0001
0001
,
0002
0000
0000
0000
,
0000
0000
0003
0000
,
0000
0000
0010
0000
0000
0010
0000
0020
,
0000
0030
0100
0100
,
0200
0000
0300
0000
1000
0000
0000
2000
,
0000
0000
3000
0000
,
0002
0003
0100
0100
,
0200
0000
0300
0000
,
0020
0030
1000
1000
,
2000
0000
3000
0000
,
0001
0000
0000
0001
0000
0000
0002
0000
,
0000
0000
0003
0000
1000
0000
0000
1000
,
0000
2000
0000
0000
0000
0000
3000
0000
,
0200
0000
0300
0000
,
0010
0000
0000
0010
0000
0000
0020
0000
,
0000
0000
0030
0000
0001
0000
0000
0001
,
0000
0002
0000
0000
0003
0000
0000
2000
,
0000
3000
0010
0010
,
0020
0000
0030
0000
0000
0100
0000
0200
,
0000
0300
0000
0000
,
0001
0001
0001
0000
,
1000
0000
0000
1000
0000
0000
2000
0000
,
0000
0000
0000
0000
,
0000
0000
3000
0002
,
0000
0000
0000
0000
,
0000
0000
0000
0003
,
0010
0000
0000
0000
0010
0000
0000
0020
,
0000
0000
0030
0000
,
0100
0000
0000
0000
0100
0000
0000
0200
,
0000
0000
0300
0000
,
1000
0000
0000
0000
1000
0000
0000
2000
,
0000
0000
3000
0000
,
0001
0000
0000
0001
0000
0000
0001
0000
,
0000
0020
0000
0030
,
0100
0000
0000
0100
0000
0000
0200
0000
,
0000
0000
0300
0000
1000
0000
0000
1000
,
0000
2000
0000
0000
3000
0000
0000
0000
,
0001
0000
0000
0001
0000
0001
0000
0000
,
0100
0000
0000
0100
0000
0000
0200
0000
,
0000
0000
0300
0000
0010
0000
0000
0010
,
0000
0020
0000
0000
0030
0000
0000
2000
,
0000
3000
0001
0001
,
0002
0000
0003
0000
0000
0010
0000
0020
,
0000
0030
0000
0000
,
0100
0100
0100
0000
,
1000
0000
0000
1000
0000
0000
1000
0000
,
2000
0000
0000
0000
3000
0001
0000
0002
,
0000
0000
0003
0000
,
1000
1000
1000
0000
,
0100
0000
0000
0100
0000
0000
0200
0000
,
0000
0000
0000
0000
,
0000
0000
0000
0300
,
0000
1000
0000
1000
0000
1000
0000
0000
,
0001
0002
0003
0000
;

//---------------dance-single - Ace Of Arrows (2019)----------------
#NOTES:
     dance-single:
     Ace Of Arrows (2019):
     Beginner:
     2:
     0.192,0.109,0.000,0.479,0.000:
0000
0000
0000
0000
,
1000
0000
2000
0000
,
0000
3000
0000
0000
,
0002
0000
0000
0003
0000
0000
0002
0000
,
0000
0000
0003
0000
,
0100
0000
0200
0000
,
0000
0000
0300
0000
,
0002
0000
0000
0003
0000
0000
0002
0000
,
0000
0000
0003
2000
,
0000
0000
3000
2000
,
0000
0000
0000
3000
,
0000
0010
0000
0000
,
0010
0000
0020
0030
,
0000
0100
0000
0000
,
0100
0000
0200
0300
,
0000
0001
0000
0000
,
0002
0000
0003
0000
,
1000
0000
1000
0000
,
2000
0000
0000
0000
,
3000
0010
0000
0000
,
0010
0000
0020
0030
,
0000
0100
0000
0000
,
0100
0000
0200
0300
,
0000
0001
0000
0000
,
0002
0000
0003
0000
,
1000
0000
1000
0000
,
2000
0000
0000
0000
,
3000
0001
0000
0000
,
0002
0000
0003
0000
,
0100
0000
0000
0200
,
0000
0000
0300
0000
,
0002
0000
0003
0000
,
1000
0000
1000
0000
,
2000
0000
0000
0000
,
0000
0000
3000
0000
,
0000
0100
0000
0000
,
0200
0000
0300
0000
,
0010
0000
0010
0000
,
0020
0000
0030
0000
,
0100
0000
0100
0000
,
0200
0000
0300
0000
,
2000
0000
3000
0000
,
0002
0000
0003
0000
,
0020
0000
0000
0030
0000
0000
0020
0000
,
0000
0030
0100
0000
,
0200
0000
0300
0000
,
2000
0000
3000
0000
,
0002
0000
0000
0003
0000
0000
0002
0000
,
0000
0003
1000
0000
,
2000
0000
3000
0000
,
0020
0000
0030
0000
,
0100
0000
0000
0000
,
0200
0000
0300
0000
,
0001
0000
0001
0000
,
0002
0000
0003
2000
,
0000
0000
0000
0000
,
0000
0000
3000
0002
,
0000
0000
0000
0000
,
0000
0000
0000
0003
,
0200
0000
0300
0000
,
0010
0000
0010
0000
,
0020
0000
0030
0000
,
1000
0000
1000
0000
,
2000
0000
3000
0000
,
0001
0000
0001
0000
,
0002
0000
0003
0100
,
0000
0200
0000
0300
,
0020
0000
0000
0030
0000
0000
0020
0000
,
0000
0030
1000
0000
,
2000
0000
3000
0000
,
0002
0000
0003
0000
,
0020
0000
0000
0030
0000
0000
0020
0000
,
0000
0030
0100
0000
,
0200
0000
0300
0000
,
2000
0000
3000
0000
,
0001
0000
0000
0000
,
0002
0000
0003
0000
,
2000
0000
3000
0000
,
0010
0000
0010
0000
,
0020
0000
0030
0000
,
0200
0000
0300
0000
,
0001
0000
0001
0000
,
0002
0000
0003
0200
,
0000
0000
0000
0000
,
0000
0000
0000
0300
,
0000
0001
0000
0001
,
0000
0002
0003
0000
;
