#TITLE:Passionate Starmine;
#SUBTITLE:;
#ARTIST:Roselia;
#TITLETRANSLIT:;
#SUBTITLETRANSLIT:;
#ARTISTTRANSLIT:;
#GENRE:;
#CREDIT:Ace Of Arrows;
#BANNER:Passionate Starmine - Bn.png;
#BACKGROUND:Passionate Starmine - Bg.jpg;
#LYRICSPATH:;
#CDTITLE:Ace Of Arrows.png;
#MUSIC:Passionate Starmine.ogg;
#OFFSET:0.210;
#SAMPLESTART:83.000;
#SAMPLELENGTH:12.000;
#SELECTABLE:YES;
#BPMS:0.000=187.000,244.000=93.500,252.000=187.000;
#STOPS:;
#BGCHANGES:;
#KEYSOUNDS:;

//---------------dance-single - Ace Of Arrows (2019)----------------
#NOTES:
     dance-single:
     Ace Of Arrows (2019):
     Challenge:
     10:
     0.943,0.301,0.724,1.000,0.200:
0000
0000
0000
0000
,
0001
0100
0002
0000
1003
0100
2000
0000
,
3001
1000
0002
0000
0103
0010
0200
0000
,
0302
0000
0000
0000
,
0003
2000
3200
0320
,
0032
0000
1003
0010
2000
0000
3001
0200
,
0000
0320
0000
1030
0002
0000
0023
0030
,
0210
0000
0000
1300
0002
0000
0000
0000
,
2003
3200
0320
0230
,
2300
0000
3001
0100
0002
0000
1003
0200
,
0000
0320
0000
0031
2000
0000
3020
0030
,
0210
0000
0000
0301
2000
0000
0000
0000
,
0000
0000
3002
0000
0023
0000
0230
0300
,
2100
0000
3001
0010
0002
0000
1003
0020
,
0000
0130
0002
0003
2001
0000
3000
0000
,
1200
0000
0310
0100
0020
0000
0031
2001
,
0000
3010
0200
0000
0302
0000
0003
0000
,
2001
3200
0320
0032
,
2003
0000
3020
0000
0230
0000
0302
0003
,
1001
1000
0000
0001
0011
0000
0010
0110
,
0000
0200
2000
0000
0001
0000
0001
3300
,
1001
0001
0000
0100
0110
0000
0010
0110
,
0000
0100
0202
0000
1000
0000
2000
0000
,
0000
3000
0000
0003
,
0310
0000
0000
0000
0010
0000
0000
0000
1000
0000
0001
0010
0100
0010
0002
0000
,
0000
1003
0020
0000
0130
0001
1000
0200
,
0000
0000
0320
0000
0031
1000
0010
0210
,
0000
0301
2000
0000
3100
0010
0001
2001
,
0000
0000
3010
0100
0020
0000
0000
0000
1030
0001
0100
0001
1000
0100
0020
0000
,
0000
0000
0130
1000
0001
0100
0010
2010
,
0000
0000
0000
0000
3001
0000
0010
0000
0100
0010
0001
0010
0100
0000
2100
0000
,
0000
3001
0200
0000
0310
1000
0001
0020
,
0130
0000
1000
0000
0002
0000
0103
0010
0200
0000
0301
0000
1000
0000
1200
0000
,
0000
0000
0000
0000
0320
0000
0031
1000
0001
0000
0100
0000
0010
0000
2010
0000
,
0000
0000
3001
0010
0001
0000
1000
0010
0100
0010
1000
0000
0001
0100
0010
0100
,
0001
1000
0100
0010
0200
0000
1300
1002
,
0000
0000
0003
0000
0202
0303
0220
0330
,
2010
0000
3001
0010
0210
0000
1300
1002
,
0000
0000
0003
0000
0022
0033
0220
0330
,
0100
1000
0001
0100
0020
0000
1030
1002
,
0000
0000
0023
0000
0230
0000
1300
1001
,
0001
0100
0010
1000
0001
0010
0100
2100
,
0000
0000
3001
0000
0201
0000
0000
0000
0310
1000
0001
1000
0010
0000
0000
0000
,
0110
0100
0001
1000
0100
0010
0001
2001
,
0000
3010
0100
0001
1000
0100
0010
0100
,
1100
1000
0001
0100
0010
1000
0001
0021
,
0000
0000
0130
0000
4000
0000
3001
0010
0001
0000
1000
0000
0010
0000
0100
0000
,
0101
0001
1000
0100
0020
0031
1000
1200
,
0000
0310
0001
1000
0020
0130
0001
2001
,
0000
0000
3100
0000
0010
0000
0100
0000
1000
0000
0001
0000
1000
0000
0100
0010
,
0100
0000
1000
0000
0002
0000
1003
0010
0100
0010
1000
0000
0001
0000
0021
0000
,
0000
0000
0130
0000
1000
0100
0010
0100
1000
0000
0001
0000
0100
0000
0120
0000
,
0000
0000
1030
0000
0001
0000
0010
0100
1000
0100
0010
0000
0001
0000
1001
0000
,
2000
3010
0100
0001
1000
0100
0010
0012
,
0000
1003
0010
0100
0101
0000
0000
0000
,
1001
1000
0100
0010
0001
1000
0010
0210
,
0000
0301
1000
0001
0101
0001
1000
0000
,
1100
0100
0010
0001
1000
0010
0100
0102
,
0000
1003
0001
0010
0110
0000
0000
0000
,
1100
1000
0001
0100
0010
1000
0001
0201
,
0000
0000
0310
0000
1000
0000
0001
0010
0100
0010
0001
0000
1000
0000
0010
0000
,
2010
0000
3002
0000
0023
0000
0130
2000
0000
3001
0200
0000
0320
0000
2030
0000
,
3002
0000
0000
0013
0040
0000
0000
0000
0400
0000
0000
0000
0000
0000
0330
0000
,
2100
0000
3001
0100
0020
0000
1030
0002
,
0000
0023
0000
0130
2000
0000
3002
0003
,
0201
0000
0310
1000
0002
0000
0013
0000
,
0210
0000
1300
0001
0200
0000
0320
0030
,
2010
0000
3001
0100
0020
0000
1030
0002
,
0000
0023
0000
0130
0020
0000
0032
0003
,
2001
0000
3010
0100
0002
0000
1003
0100
,
0010
0000
0001
0010
0001
0000
1000
0000
0001
0100
0010
1000
0010
0100
0001
0000
,
2001
0000
3100
0010
0002
0000
1003
1020
,
0000
0000
0130
0000
0002
0000
0003
0000
2001
0000
0000
0000
3001
0010
0100
0010
,
0002
0000
1003
0010
0200
0000
0301
2001
,
0000
0000
3100
0000
0020
0000
0030
0000
0012
0000
0000
0000
1003
0000
0100
0010
,
0200
0000
0300
0000
2200
0000
3300
0000
1002
0000
0000
0203
0000
0000
0310
0000
,
2010
0000
0000
0000
3002
0000
0000
0000
1003
0100
0010
0001
0010
0100
1000
0000
,
1001
0001
0000
0010
0210
0300
1000
1200
,
0000
0310
0012
0000
1010
0000
1010
0003
,
1001
1000
0000
0010
0210
0300
0010
2010
,
3000
0001
2001
0000
0011
0000
0021
0000
,
0000
0000
0000
3000
,
0100
0000
0000
0000
0230
0000
0000
0000
0301
1000
0100
1000
0001
0000
0021
0000
,
0000
0130
1000
0001
0100
0010
1000
1002
,
0000
0000
0013
0000
0110
0000
0100
1000
0100
0000
0010
0000
0001
0000
2001
0000
,
0000
3010
0100
0001
1000
0100
0010
0012
,
0000
0000
1003
0000
0010
0000
0100
0000
0001
0100
0010
0100
0001
0000
2001
0000
,
3100
0000
0010
0000
0100
0000
1000
0100
1000
0000
0001
0000
1000
0000
2200
0000
,
0000
3300
0000
0000
;

//---------------dance-single - Ace Of Arrows (2019)----------------
#NOTES:
     dance-single:
     Ace Of Arrows (2019):
     Hard:
     8:
     0.667,0.301,0.000,1.000,0.017: // measure 1
0000
0000
0000
0000
,  // measure 2
1000
0100
2000
0000
3001
1000
0002
0000
,  // measure 3
0013
0100
0020
0000
0031
0010
0002
0000
,  // measure 4
2003
0000
0000
0000
,  // measure 5
3000
0002
0203
0302
,  // measure 6
0003
0000
1000
0100
2000
0000
3001
0020
,  // measure 7
0000
0230
0000
1300
0002
0000
2003
0000
,  // measure 8
3020
0000
0000
0130
0002
0000
0000
0000
,  // measure 9
0000
1003
0200
1300
,  // measure 10
0000
0000
0001
1000
0002
0000
1003
0020
,  // measure 11
0000
0230
0000
0301
2000
0000
3001
0000
,  // measure 12
0020
0000
0000
0130
2000
0000
0000
0000
,  // measure 13
0000
3001
0200
0301
,  // measure 14
0000
0000
1000
0001
2000
0000
3100
0020
,  // measure 15
0000
0130
2000
0000
3002
0000
0003
0000
,  // measure 16
0000
0000
1000
0010
2000
0000
3001
0020
,  // measure 17
0000
0130
2000
0000
3002
0000
0003
0000
,  // measure 18
0000
2000
3020
0230
,  // measure 19
0302
2003
3200
0320
,  // measure 20
0031
1000
0000
1000
0001
0000
0001
0100
,  // measure 21
0000
0100
0020
0000
1000
0000
1000
0000
,  // measure 22
0130
0001
0000
0001
1000
0000
1000
0100
,  // measure 23
0000
0100
0020
0000
0001
0000
0002
0000
,  // measure 24
0000
0000
0000
0000
,  // measure 25
0000
0000
0033
0000
0001
1000
0001
0200
,  // measure 26
0000
0310
2000
0000
3001
0010
0100
0020
,  // measure 27
0000
0000
0032
0000
2003
0000
3010
0200
,  // measure 28
0000
0301
1000
0001
0010
0100
0010
0002
,  // measure 29
0000
1003
0010
0100
0010
1000
0001
0020
,  // measure 30
0000
0000
0130
1000
0100
0010
0001
2000
,  // measure 31
0000
0000
3001
0100
0010
1000
0010
0200
,  // measure 32
0000
0301
2000
0000
3001
0010
0100
0020
,  // measure 33
0000
0031
1000
0010
1000
0001
0010
0002
,  // measure 34
0000
1003
0020
0000
0130
0001
1000
0002
,  // measure 35
0000
1003
0400
0000
0000
0000
0000
0000
,  // measure 36
0310
0001
0010
0100
2000
0000
3001
0200
,  // measure 37
0000
0300
0020
2030
,  // measure 38
3001
0100
0010
0100
0002
0000
1003
0200
,  // measure 39
0000
0300
0020
0230
,  // measure 40
1300
0001
0100
0001
2000
0000
3010
0200
,  // measure 41
0000
0000
0302
0000
2003
0000
3100
0020
,  // measure 42
0000
0130
1000
0001
0100
0010
0100
0002
,  // measure 43
0000
1003
0001
0010
0004
0000
0003
0000
,  // measure 44
1000
0100
0010
0001
0010
0100
1000
0002
,  // measure 45
0000
0000
0003
0000
2000
0000
3010
0100
,  // measure 46
0001
0100
0010
1000
0002
0000
1003
0200
,  // measure 47
0000
0310
0004
0000
2003
0000
3020
0000
,  // measure 48
0130
0001
1000
0100
0020
0000
0030
0200
,  // measure 49
0000
1300
0001
0100
0001
0000
1000
0200
,  // measure 50
0000
0310
0001
1000
0001
0100
0010
2000
,  // measure 51
0000
3001
0010
0100
0010
0001
1000
0002
,  // measure 52
0000
1003
0010
0100
0001
0100
0010
2000
,  // measure 53
0000
3002
0023
0230
,  // measure 54
2300
0000
3001
0000
0001
0000
0000
2000
,  // measure 55
0000
3010
0100
0001
1000
0000
0000
0000
,  // measure 56
0002
0000
0013
0000
0010
0000
0000
0200
,  // measure 57
0000
1300
0002
0000
1003
0000
0200
0000
,  // measure 58
0320
0000
0130
0000
0100
0000
0000
2000
,  // measure 59
0000
3001
0010
0100
0010
0000
0000
0000
,  // measure 60
0002
0000
2003
0000
3010
0000
0000
0200
,  // measure 61
0000
0301
2000
0000
3400
0000
0000
0000
,  // measure 62
0300
0000
0020
0000
0032
0000
0013
0100
0000
0100
2000
0000
3002
0000
0203
0000
,  // measure 63
0320
0000
0000
1030
4000
0000
0000
0000
0000
0000
0000
0000
0000
0000
3000
0000
,  // measure 64
0000
0000
0001
0010
0002
0000
1003
0020
,  // measure 65
0000
0230
0000
0301
2000
0000
3200
0000
,  // measure 66
0320
0000
0000
0130
2000
0000
0000
0000
,  // measure 67
0000
3002
0203
0320
,  // measure 68
0030
0000
1000
0001
2000
0000
3100
0020
,  // measure 69
0000
0230
0000
1300
0002
0000
0203
0000
,  // measure 70
0320
0000
0000
1030
0002
0000
0000
0000
,  // measure 71
0000
0023
0430
4300
,  // measure 72
3000
0000
0001
1000
0002
0000
0103
0020
,  // measure 73
0000
1030
0002
0000
0203
0000
0340
0000
,  // measure 74
0030
0000
1000
0001
2000
0000
3100
0020
,  // measure 75
0000
0130
2000
0000
3002
0000
0403
0000
,  // measure 76
0300
0000
0000
0000
0020
0000
0000
0000
2030
0000
0000
3002
0000
0000
0013
0000
,  // measure 77
0200
2300
3004
0403
,  // measure 78
0310
1000
0000
1000
0001
0000
0001
0010
,  // measure 79
0000
0010
0200
0000
1000
0000
1000
0000
,  // measure 80
0310
0001
0000
0001
1000
0000
1000
0010
,  // measure 81
0000
0010
0200
0000
0001
0000
0002
0000
,  // measure 82
0000
0000
0000
0000
,  // measure 83
0000
0000
0303
0000
0001
1000
0010
0200
,  // measure 84
0000
0301
2000
0000
3100
0010
0100
2000
,  // measure 85
0000
3001
0400
0000
0310
0100
0001
2000
,  // measure 86
0000
3001
0020
0000
0130
1000
0001
0200
,  // measure 87
0000
0310
2000
0000
3001
0010
0100
2000
,  // measure 88
0000
3001
0100
0020
0000
0130
0002
2000
,  // measure 89
0000
3003
0000
0000
;

//---------------dance-single - Ace Of Arrows (2019)----------------
#NOTES:
     dance-single:
     Ace Of Arrows (2019):
     Medium:
     6:
     0.549,0.150,0.000,1.000,0.000:
0000
0000
0000
0000
,
0001
0010
0001
0010
,
0100
1000
0100
1000
,
0002
0000
0000
0000
,
0003
1000
0100
2000
,
3000
0000
0001
0000
0200
0000
0301
2000
,
0000
3002
0000
0013
0200
0000
2300
0000
,
3002
0000
0203
0000
,
0000
0320
2030
3002
,
0003
0000
1000
0000
0100
0000
0010
0002
,
0000
2003
0000
3001
0200
0000
0320
0000
,
2030
0000
3000
0001
0020
0000
0000
0000
,
0000
0230
2300
3002
,
0003
0000
1000
0000
0010
0000
1000
0002
,
0000
0013
0200
0000
2300
0000
3000
0000
,
0000
0000
0001
0000
2000
0000
3010
0200
,
0000
0301
2000
0000
3200
0000
0300
0000
,
0000
0020
0032
2003
,
3002
0203
0320
2030
,
3002
1003
0000
0002
1003
0000
0002
1003
,
0000
0002
1003
0000
0020
0000
0230
0000
,
0302
0103
0000
0002
0103
0000
0002
0103
,
0000
0002
0103
0000
0020
0000
2030
0000
,
0000
0000
0000
0000
,
0000
0000
3000
0000
0001
0000
1000
0200
,
0000
1300
0002
0000
2003
0000
3010
0200
,
0000
0000
0302
0000
2003
0000
3001
0010
,
0000
0001
0020
0000
0000
0000
0000
0230
,
0000
0000
1300
0000
0001
0000
1000
0020
,
0000
0000
0130
0000
0002
0000
1003
0200
,
0000
0000
0320
0000
0032
0000
1003
0200
,
0000
0000
0000
0000
0320
0000
0031
2000
,
0000
0000
3001
0000
0100
0000
0001
2000
,
0000
0000
0000
0000
3020
0000
0130
0002
,
0000
4003
0000
0000
,
3001
0000
0010
0000
0001
0000
1000
0200
,
0000
0000
0320
0032
,
1003
0000
0010
0000
1000
0000
0001
0200
,
0000
0000
0320
2030
,
3001
0000
0010
0000
0100
0000
0010
0002
,
0000
0000
2003
0000
3020
0000
1030
0002
,
0000
0000
0000
0000
0000
0000
1003
0020
,
0000
0000
0430
0300
,
0001
0000
1000
0000
0001
0000
0010
0200
,
0000
0300
2000
3002
,
0103
0000
0010
0000
0100
0000
0001
2000
,
0000
3001
0400
0000
0000
0300
0000
0000
,
0010
0000
1000
0000
0010
0000
0000
2000
,
0000
0000
3001
0000
1000
0000
0001
0010
,
0000
0001
0020
0000
0130
0000
1000
0002
,
0000
0000
1003
0000
0010
0000
1000
0002
,
0000
0000
0000
0000
0013
0000
0100
2000
,
0000
3001
0100
0001
,
2000
0000
0001
0000
0001
0000
0000
0010
,
0000
0001
3001
0000
,
0002
0000
1000
0000
1000
0000
0000
0100
,
0000
1000
1003
1000
,
0020
0000
0100
0000
0100
0000
0000
1000
,
0000
0100
0130
0100
,
0200
0000
0010
0000
0010
0000
0000
0001
,
0000
0010
0310
0000
,
0000
1000
0001
0000
1000
0100
1000
0000
,
0001
0000
0002
0000
4003
0000
0000
3000
,
0000
0000
0001
0000
0020
0000
0031
2000
,
0000
3002
0000
1003
0020
0000
2030
0000
,
3002
0000
0000
0013
0200
0000
0000
0000
,
0000
2300
3002
0203
,
0300
0000
0010
0000
1000
0000
0001
0020
,
0000
0032
0000
1003
0020
0000
0230
0000
,
0302
0000
0000
1003
0200
0000
0000
0000
,
0000
0320
0430
0000
,
0300
0000
1000
0000
0002
0000
1003
0020
,
0000
1030
0020
0000
0230
0000
0304
0000
,
0003
0000
1000
0000
0200
0000
0310
0002
,
0000
0013
0002
0000
2003
0000
3040
0000
,
0030
0000
0200
0000
0302
0000
0000
1003
,
0200
0320
0230
2300
,
3002
0013
0000
0002
0013
0000
0002
0013
,
0000
0002
0013
0000
0200
0000
2300
0000
,
3002
0103
0000
0002
0103
0000
0002
0103
,
0000
0002
0103
0000
0020
0000
0200
0000
,
0000
0000
0000
0000
,
0000
0000
0330
0000
0010
0000
1000
0002
,
0000
1003
0002
0000
0023
0000
0130
2000
,
0000
0000
0000
0000
3001
0100
0000
0020
,
0000
0000
0000
0000
0230
0000
0301
2000
,
0000
0000
3002
0000
0043
0000
0000
0230
,
0000
0000
1300
0002
0000
0000
1003
0200
,
0000
0300
0000
0000
;

//---------------dance-single - Ace Of Arrows (2019)----------------
#NOTES:
     dance-single:
     Ace Of Arrows (2019):
     Easy:
     4:
     0.316,0.113,0.000,0.426,0.000:
0000
0000
0000
0000
,
1000
1000
1000
0000
,
0010
0010
0010
0000
,
0200
0000
0000
0000
,
0300
0001
0001
0002
,
0003
0000
1000
0000
1000
0000
0000
0100
,
0000
0100
0000
0000
0010
0000
0010
0000
,
0020
0030
0002
0000
,
0003
1000
1000
2000
,
3000
0000
0010
0000
0010
0000
0000
0100
,
0000
0100
0000
0000
0001
0000
0001
0000
,
0002
0003
2000
0000
,
3000
0010
0010
0020
,
0030
0000
0100
0000
0100
0000
0000
0001
,
0000
0001
0002
0000
,
0003
0000
1000
0000
1000
0000
0000
0100
,
0000
0100
0200
0000
,
0300
0010
0020
0030
,
0001
0001
0002
0003
,
1000
0000
0000
0000
1000
0000
0000
1000
,
0000
0010
0010
0010
,
0100
0000
0000
0000
0100
0000
0000
0100
,
0000
0001
0001
0002
,
0000
0000
0000
0000
,
0000
0000
0003
0000
1000
0000
0000
2000
,
0000
0000
3000
0000
0001
0000
0000
0002
,
0000
0000
0003
0000
0100
0000
0000
0200
,
0000
0000
0300
0000
0010
0000
0000
0020
,
0000
0000
0030
0000
1000
0000
0000
2000
,
0000
0000
3000
0000
0001
0000
0000
0002
,
0000
0000
0003
0000
0010
0000
0000
0020
,
0000
0000
0030
0000
0100
0000
0000
0200
,
0000
0000
0300
0000
1000
0000
0000
2000
,
0000
0000
3000
0000
0001
0000
0000
0002
,
0000
0003
2000
3000
,
0010
0000
0010
0000
0010
0000
0000
0020
,
0000
0030
0000
0000
,
0100
0000
0100
0000
0100
0000
0000
0200
,
0000
0300
0000
0000
,
0001
0000
0001
0000
0001
0000
0000
0001
,
0000
0000
1000
0000
1000
0000
0000
2000
,
0000
0000
0000
0000
3000
0000
0000
0020
,
0000
0000
0030
0000
,
0100
0000
0100
0000
0100
0000
0000
0200
,
0000
0000
0300
0000
,
0001
0000
0001
0000
0001
0000
0000
0002
,
0000
0000
0003
0000
,
1000
0000
1000
0000
1000
0000
0000
0100
,
0000
0000
0100
0000
0100
0000
0000
0010
,
0000
0000
0020
0000
0000
0030
0000
0001
,
0000
0000
0001
0000
0001
0000
0000
2000
,
0000
0000
3000
0000
0010
0000
0000
0020
,
0000
0030
0100
0200
,
0300
0000
0001
0000
0001
0000
0000
1000
,
0000
1000
1000
0000
,
0000
0000
0100
0000
0100
0000
0000
0010
,
0000
0010
0010
0000
,
0000
0000
0001
0000
0001
0000
0000
1000
,
0000
1000
1000
0000
,
0000
0000
0010
0000
0010
0000
0000
0100
,
0000
0100
0100
0000
,
0000
0001
0001
0000
1000
1000
1000
0000
,
0010
0000
0020
0000
0030
0100
0100
0100
,
0000
0000
0001
0000
0001
0000
0000
1000
,
0000
1000
0000
0000
0100
0000
0100
0000
,
0200
0300
0020
0000
,
0030
0001
0001
0001
,
0000
0000
1000
0000
1000
0000
0000
0010
,
0000
0010
0000
0000
0100
0000
0100
0000
,
0200
0300
0002
0000
,
0003
1000
1000
1000
,
0000
0000
0100
0000
0100
0000
0000
0010
,
0000
0010
0020
0000
,
0030
0000
0001
0000
0001
0000
0000
1000
,
0000
1000
2000
0000
,
3000
0010
0020
0000
,
0030
0100
0200
0300
,
0001
0000
0000
0000
0001
0000
0000
0001
,
0000
1000
1000
1000
,
0100
0000
0000
0000
0100
0000
0000
0100
,
0000
0010
0010
0020
,
0000
0000
0000
0000
,
0000
0000
0030
0000
0001
0000
0000
0002
,
0000
0000
0003
0000
1000
0000
0000
2000
,
0000
0000
3000
0000
0010
0000
0000
0020
,
0000
0000
0030
0000
0100
0000
0000
0200
,
0000
0000
0300
0000
0001
0000
0000
0002
,
0000
0000
0003
0000
1000
0000
0000
2000
,
0000
3000
0000
0000
;

//---------------dance-single - Ace Of Arrows (2019)----------------
#NOTES:
     dance-single:
     Ace Of Arrows (2019):
     Beginner:
     2:
     0.192,0.075,0.000,0.324,0.000:
0000
0000
0000
0000
,
0001
0000
0001
0000
,
0001
0000
0001
0000
,
0002
0000
0000
0000
,
0003
0000
0000
0000
,
0000
0000
1000
0000
,
1000
0000
1000
0000
,
1000
0000
2000
0000
,
0000
0000
3000
0000
,
0000
0000
0100
0000
,
0100
0000
0100
0000
,
0100
0000
0200
0000
,
0000
0000
0300
0000
,
0000
0000
0010
0000
,
0020
0000
0030
0000
,
0000
0000
0001
0000
,
0002
0000
0003
0000
,
0000
0000
1000
0000
,
2000
0000
3000
0000
,
0001
0000
0001
0000
,
0002
0000
0003
0000
,
0010
0000
0010
0000
,
0010
0000
0020
0000
,
0000
0000
0000
0000
,
0030
0000
0100
0000
,
0100
0000
0100
0000
,
0200
0000
0300
0000
,
1000
0000
1000
0000
,
2000
0000
3000
0000
,
0001
0000
0001
0000
,
0002
0000
0003
0000
,
0100
0000
0100
0000
,
0200
0000
0300
0000
,
0010
0000
0010
0000
,
0020
0000
0030
0000
,
1000
0000
1000
0000
,
2000
0000
3000
0000
,
0001
0000
0001
0000
,
0002
0000
0003
0000
,
0010
0000
0010
0000
,
0020
0000
0030
0000
,
0100
0000
0100
0000
,
0200
0000
0300
0000
,
1000
0000
1000
0000
,
2000
0000
3000
0000
,
0001
0000
0001
0000
,
0002
0000
0003
0000
,
0100
0000
0100
0000
,
0100
0000
0100
0000
,
0200
0000
0300
0000
,
0010
0000
0010
0000
,
0020
0000
0030
0000
,
2000
0000
3000
0000
,
0001
0000
0001
0000
,
0002
0000
0003
0000
,
0010
0000
0010
0000
,
0020
0000
0030
0000
,
0100
0000
0100
0000
,
0200
0000
0300
0000
,
1000
0000
1000
0000
,
2000
0000
3000
0000
,
0000
0001
0002
0003
,
0010
0020
0000
0030
,
0000
0000
0001
0000
,
0001
0000
0001
0000
,
0001
0000
0002
0000
,
0000
0000
0003
0000
,
0000
0000
1000
0000
,
1000
0000
1000
0000
,
1000
0000
2000
0000
,
0000
0000
3000
0000
,
0000
0000
0010
0000
,
0020
0000
0030
0000
,
0000
0000
0100
0000
,
0200
0000
0300
0000
,
0000
0000
0001
0000
,
0002
0000
0003
0000
,
1000
0000
1000
0000
,
2000
0000
3000
0000
,
0010
0000
0010
0000
,
0010
0000
0020
0000
,
0000
0000
0000
0000
,
0030
0000
0100
0000
,
0100
0000
0100
0000
,
0200
0000
0300
0000
,
0001
0000
0001
0000
,
0002
0000
0003
0000
,
1000
0000
1000
0000
,
2000
3000
0000
0000
;
