#TITLE:Never Gonna Give You Up;
#SUBTITLE:;
#ARTIST:Rick Astley;
#TITLETRANSLIT:;
#SUBTITLETRANSLIT:;
#ARTISTTRANSLIT:;
#GENRE:;
#CREDIT:Ace Of Arrows;
#BANNER:Never Gonna Give You Up - Bn.png;
#BACKGROUND:Never Gonna Give You Up - Bg.jpg;
#LYRICSPATH:;
#CDTITLE:Ace Of Arrows.png;
#MUSIC:Never Gonna Give You Up.ogg;
#OFFSET:1.737;
#SAMPLESTART:43.000;
#SAMPLELENGTH:12.000;
#SELECTABLE:YES;
#BPMS:0.000=113.620;
#STOPS:;
#BGCHANGES:0.000=Never Gonna Give You Up - Bg.jpg=1.000=0=0=1=Centered====,
3.000=Never Gonna Give You Up Music Video.avi=1.000=0=0=1=====,
99999=-nosongbg-=1.000=0=0=0 // don't automatically add -songbackground-
;
#KEYSOUNDS:;

//---------------dance-single - Ace Of Arrows (2019)----------------
#NOTES:
     dance-single:
     Ace Of Arrows (2019):
     Hard:
     8:
     0.482,0.310,0.000,0.877,0.248: // measure 1
0000
0000
0000
0000
,  // measure 2
0000
0000
0000
0000
2000
0000
0000
3020
,  // measure 3
0000
0000
0230
0000
0302
0000
0000
2003
,  // measure 4
0000
0000
0000
0000
3010
0100
0010
0000
0200
0000
0000
0000
0000
0000
0302
0000
,  // measure 5
0000
0000
2003
0000
3200
0000
0000
0320
,  // measure 6
0000
0000
0031
1000
0001
0000
0100
0000
0020
0000
0000
0000
0000
0000
2030
0000
,  // measure 7
0000
0000
3002
0000
0023
0000
0000
0230
,  // measure 8
0000
0000
0000
0000
1300
0100
1000
0000
0002
0000
0000
0000
0000
0000
0203
0000
,  // measure 9
0000
0000
0320
0000
1030
0001
0010
0000
,  // measure 10
0400
0000
0300
0000
2000
0000
3001
0100
,  // measure 11
0010
0100
0001
2000
0000
0000
0000
0000
,  // measure 12
0000
0000
3000
0000
0000
0001
0010
0100
,  // measure 13
0020
0000
0030
0001
2000
3000
0001
0200
,  // measure 14
0000
0000
0000
0000
0300
0010
1000
0001
,  // measure 15
1000
0100
0010
0002
0000
1003
0010
0200
,  // measure 16
0000
0000
0000
0000
0300
0001
1000
0100
,  // measure 17
0010
0100
1000
0001
1000
0010
0100
0001
,  // measure 18
2000
0000
3400
0000
,  // measure 19
0000
0310
0001
1000
0001
0100
0010
0100
,  // measure 20
0002
2003
3000
0000
,  // measure 21
0001
0010
0100
2000
0000
3001
0010
0002
,  // measure 22
0000
0000
0003
0000
1000
0100
1000
0100
2000
0000
0000
3002
0000
0000
0023
0000
,  // measure 23
0000
0000
0000
0000
0031
1000
0001
1000
0002
0000
0000
0023
0000
0000
0230
0000
,  // measure 24
0000
0000
0000
0000
1300
0001
1000
0001
2000
0000
0000
0000
3100
0000
0020
0000
,  // measure 25
0000
0032
0000
1003
0020
0000
0230
0000
,  // measure 26
0300
0000
0000
0000
0001
0100
0001
0100
0002
0000
0000
2003
0000
0000
3200
0000
,  // measure 27
0000
0000
0000
0000
0310
0001
0010
0001
0020
0000
0000
0000
0130
0000
2000
0000
,  // measure 28
0000
0000
0000
0000
3100
0010
0100
0010
0200
0000
0000
0000
1300
0000
0002
0000
,  // measure 29
0000
0000
0000
1003
0020
0000
0230
0000
,  // measure 30
0304
0000
0003
0000
0000
1000
0100
0010
,  // measure 31
0100
2000
0000
3000
0000
0001
0100
0020
,  // measure 32
0000
0000
0030
0000
0000
1000
0001
0010
,  // measure 33
0100
0010
0002
0000
0003
1000
0010
0200
,  // measure 34
0000
0000
0300
0000
0000
0001
1000
0100
,  // measure 35
0010
0100
1000
0002
0003
1000
0010
0200
,  // measure 36
0000
0000
0300
0000
0000
0001
1000
0100
,  // measure 37
0010
0100
2000
0000
3000
0001
0100
0002
,  // measure 38
0000
0003
4000
0000
,  // measure 39
0000
3100
0010
0200
0000
1300
0001
0100
,  // measure 40
0002
0000
2003
0000
0000
3000
0000
0001
,  // measure 41
0010
0100
0010
0002
0003
1000
0010
2000
,  // measure 42
3000
0000
0000
0000
0001
0010
0001
0010
0002
0000
0000
2003
0000
0000
3020
0000
,  // measure 43
0000
0000
0000
0000
0130
0010
0100
0010
0200
0000
0000
0302
0000
0000
2003
0000
,  // measure 44
0000
0000
0000
0000
3001
0100
0001
0100
0002
0000
0000
0000
1003
0000
0200
0000
,  // measure 45
0000
0320
0000
0031
2000
0000
3020
0000
,  // measure 46
0030
0000
0000
0000
1000
0010
1000
0010
2000
0000
0000
3002
0000
0000
0023
0000
,  // measure 47
0000
0000
0000
0000
0130
1000
0100
1000
0200
0000
0000
0000
0310
0000
0002
0000
,  // measure 48
0000
0000
0000
0000
1003
0010
1000
0010
2000
0000
0000
0000
3001
0000
0020
0000
,  // measure 49
0000
0000
0030
0100
2000
0000
3002
0000
,  // measure 50
4003
0000
0000
0000
3010
0100
0010
0100
0020
0000
0000
2030
0000
0000
3002
0000
,  // measure 51
0000
0000
0000
0000
1003
0100
1000
0100
2000
0000
0000
3002
0000
0000
0203
0000
,  // measure 52
0000
0000
0000
0000
0310
0100
0010
0100
0020
0000
0000
0000
1030
0000
0002
0000
,  // measure 53
0000
0023
0000
0130
2000
0000
3002
0000
,  // measure 54
0003
0000
0000
0000
1000
0001
1000
0001
2000
0000
0000
3200
0000
0000
0320
0000
,  // measure 55
0000
0000
0000
0000
0031
0010
0001
0010
0002
0000
0000
0000
1003
0000
0020
0000
,  // measure 56
0000
0000
0000
0000
0130
0001
0100
0001
0200
0000
0000
0000
0310
0000
2000
0000
,  // measure 57
0000
3000
0000
0001
0020
0000
0230
0000
,  // measure 58
4300
3000
0002
0000
,  // measure 59
0000
0000
0000
0000
0000
0000
0000
0000
0103
0000
0000
0010
0000
0000
0200
0000
,  // measure 60
0000
0300
0000
0000
0020
0000
0000
0000
,  // measure 61
0000
0000
0000
0000
0000
0000
0000
0000
1030
0000
0000
0001
0000
0000
2000
0000
,  // measure 62
0000
0000
3000
0000
0000
0000
0000
0000
0000
0000
0001
0100
0001
0100
0002
0000
,  // measure 63
1003
0010
1000
0010
2000
0000
0000
0000
3001
0000
0000
0010
0000
0000
0002
0000
,  // measure 64
0000
0000
0003
0000
0000
0000
0000
0000
0000
0000
1000
0100
1000
0100
2000
0000
,  // measure 65
3001
0010
0001
0010
0002
0000
0000
0000
1003
0000
0000
0100
0000
0000
2000
0000
,  // measure 66
3004
0000
0003
0000
0000
1000
0010
0100
,  // measure 67
0010
2000
0000
3000
0000
0001
0010
0200
,  // measure 68
0000
0000
0300
0000
0000
1000
0001
0100
,  // measure 69
0001
1000
0200
0000
0300
0010
0001
2000
,  // measure 70
3010
0100
0010
0200
0300
0001
1000
0100
,  // measure 71
1000
0001
0010
0200
0300
1000
0001
0200
,  // measure 72
0000
0000
0300
0000
0000
0010
1000
0001
,  // measure 73
0010
0100
2000
0000
3000
0001
0100
0020
,  // measure 74
0000
0030
0400
0000
,  // measure 75
0000
0301
1000
0010
0100
0001
0100
0010
,  // measure 76
2000
3002
0003
0000
,  // measure 77
0010
0100
1000
0200
0300
0010
0001
2000
,  // measure 78
0000
0000
0000
0000
3001
0100
0001
0100
0002
0000
0000
2003
0000
0000
3020
0000
,  // measure 79
0000
0000
0000
0000
1030
0001
1000
0001
2000
0000
0000
3020
0000
0000
0230
0000
,  // measure 80
0000
0000
0000
0000
0301
0100
0001
0100
0002
0000
0000
0000
1003
0000
0200
0000
,  // measure 81
0000
0320
0000
0031
2000
0000
3020
0000
,  // measure 82
0030
0000
0000
0000
0100
0001
0100
0001
0200
0000
0000
0320
0000
0000
2030
0000
,  // measure 83
0000
0000
0000
0000
3001
0010
0001
0010
0002
0000
0000
0000
1003
0000
0200
0000
,  // measure 84
0000
0000
0000
0000
1300
0001
1000
0001
2000
0000
0000
0000
3010
0000
0200
0000
,  // measure 85
0000
0300
0000
0001
2000
0000
3200
0000
,  // measure 86
0340
0000
0000
0000
0130
1000
0100
1000
0200
0000
0000
0320
0000
0000
0032
0000
,  // measure 87
0000
0000
0000
0000
1003
0010
1000
0010
2000
0000
0000
3002
0000
0000
0203
0000
,  // measure 88
0000
0000
0000
0000
0301
1000
0001
1000
0002
0000
0000
0000
0013
0000
0200
0000
,  // measure 89
0000
2300
0000
3001
0200
0000
0320
0000
,  // measure 90
0030
0000
0000
0000
1000
0010
1000
0010
2000
0000
0000
3002
0000
0000
0023
0000
,  // measure 91
0000
0000
0000
0000
0130
0010
0100
0010
0200
0000
0000
0000
1300
0000
0002
0000
,  // measure 92
0000
0000
0000
0000
1003
0100
1000
0100
2000
0000
0000
0000
3001
0000
0200
0000
,  // measure 93
0000
0300
0000
0010
2000
0000
3002
0000
,  // measure 94
0403
0000
0000
0000
0301
1000
0001
1000
0002
0000
0000
0203
0000
0000
0320
0000
,  // measure 95
0000
0000
0000
0000
1030
0010
1000
0010
2000
0000
0000
3002
0000
0000
0203
0000
,  // measure 96
0000
0000
0000
0000
0301
1000
0001
1000
0002
0000
0000
0000
0013
0000
0200
0000
,  // measure 97
0000
2300
0000
3001
0200
0000
0320
0000
,  // measure 98
0030
0000
0000
0000
0100
0001
0100
0001
0200
0000
0000
0320
0000
0000
2030
0000
,  // measure 99
0000
0000
0000
0000
3001
0010
0001
0010
0002
0000
0000
0000
1003
0000
0200
0000
,  // measure 100
0000
0000
0000
0000
0310
0100
0010
0100
0020
0000
0000
0000
0031
0000
2000
0000
,  // measure 101
0000
3000
0000
0001
0020
0000
0230
0000
,  // measure 102
0300
0000
0000
0000
;

//---------------dance-single - Ace Of Arrows (2019)----------------
#NOTES:
     dance-single:
     Ace Of Arrows (2019):
     Challenge:
     10:
     0.830,0.667,0.580,0.891,0.641:
0000
0000
0000
0000
,
0000
0000
0000
0000
0000
0000
0000
0000
0012
0000
0000
1003
0010
0000
0210
0000
,
0000
0000
0301
0000
1000
0100
0010
0100
2100
0000
0000
3001
0100
0000
0120
0000
,
0000
1030
0001
0010
0100
1000
0100
0010
0012
0000
0000
1003
0010
0000
0210
0000
,
0000
0301
1000
0000
0001
0010
0100
0010
0002
0000
1003
0010
0100
0010
2000
0000
,
3001
0000
0010
0100
0010
0001
1000
0010
0210
0000
0000
0301
1000
0000
1200
0000
,
0000
0310
0001
0000
1000
0010
0100
0010
2010
0000
0000
3001
0010
0000
0210
0000
,
0000
1300
0001
0000
0100
0010
0100
0001
2001
0000
0000
3100
0010
0000
0012
0000
,
0000
1003
0010
0000
0100
0001
1000
0001
0200
0000
0310
1000
0001
0010
0001
0000
,
1000
0100
0010
0100
1000
0001
0000
1000
0020
0000
1030
0001
1000
0000
0100
0000
,
0010
0000
0100
0000
1000
0000
1002
0000
0000
0013
0200
0000
0000
0000
0000
0000
,
1300
0000
0000
0000
1001
0000
0001
0100
0001
0000
1000
0000
0100
0010
0100
0000
,
1000
0000
0001
0000
1001
0000
1000
0000
1010
0000
0000
0010
0100
0000
0102
0000
,
1003
0100
0010
0001
2001
3010
0100
0001
,
1001
0000
1000
0000
0100
0000
0010
0000
0000
0000
0011
0000
0001
0000
1000
0010
,
2000
0000
0000
0000
3002
0013
0100
1000
,
1001
0001
0200
0300
0110
0010
1000
0001
,
0010
0100
1000
0100
0010
0000
0001
0000
4000
0000
0000
0000
0000
0000
0000
0000
,
3000
0001
0100
0010
2010
3001
0010
0100
,
2100
3002
0003
0000
,
1001
0000
1000
0000
0010
0000
0100
0000
0000
0000
0101
0000
0001
0000
1000
0100
,
0010
0001
0010
0100
1000
0100
0010
0001
2000
0000
3010
0100
0000
0000
0202
0000
,
0000
0000
0303
0000
0001
1000
0100
1000
0002
0000
0103
0010
0000
0000
2010
0000
,
0000
3001
0200
0000
0310
1000
0001
0010
0200
0000
1300
0000
0001
0000
0201
0000
,
0310
0000
2000
0000
3000
0000
0001
0000
0021
0000
0130
0000
2100
0000
3001
1000
,
0001
0000
0100
0010
0100
0001
1000
0100
0020
0000
0130
1000
0000
0000
2002
0000
,
0000
0000
3003
0000
0001
0100
0010
0100
0102
0000
0000
1003
0100
0000
0120
0000
,
0000
0031
2000
0000
3010
0100
0001
1000
1200
0000
0310
0000
0001
0000
2001
0000
,
0000
3010
0200
0000
0300
0000
0001
0000
2001
0000
0000
0000
3200
0000
0000
0000
,
0310
0001
1000
0001
0010
0100
1000
0001
0100
0010
0100
0000
0001
0000
1000
0000
,
1200
0000
0310
0000
0011
0000
0001
0000
1000
0000
0010
0000
0100
0000
0001
1000
,
0200
0000
0310
0000
0011
0000
0001
0000
1000
0000
0010
0100
0010
0000
1000
0000
,
0001
0000
0010
0000
0210
0000
1300
0001
1000
0000
0010
0000
0100
0000
0102
0000
,
1003
0100
0020
0130
0000
1000
0001
0100
,
0110
0000
0010
0000
1000
0000
0001
0000
0011
0000
0010
0000
0100
0000
1000
0001
,
0200
0000
0300
0000
0110
0000
0010
1000
0010
0000
0100
0000
0001
1000
0001
0000
,
0010
0000
0100
0000
1000
0000
0001
0100
0001
0000
1000
0000
0100
0000
0120
0000
,
0031
0010
0100
1000
0100
0010
0001
1000
0004
0000
0000
0000
0000
0000
0000
0000
,
0003
0000
1000
0000
0010
0000
0210
0000
0000
0000
0301
0000
1000
0000
0100
0010
,
0200
0000
0000
0000
1300
0001
0100
0001
1000
0000
0001
0010
0100
0010
0001
0000
,
1000
0010
0100
0001
1001
1000
0100
0010
,
0100
1000
0001
0100
0010
0100
0001
1000
1200
0000
0310
0001
0000
0000
2002
0000
,
0000
0000
3003
0000
1000
0010
1000
0001
0021
0000
0130
1000
0000
0000
1002
0000
,
0000
0013
0200
0000
1300
0100
0010
0001
2001
0000
3010
0000
0100
0000
0002
0000
,
1003
0200
0300
0010
0012
0000
2003
0000
,
3010
0000
0100
0001
0100
0010
1000
0001
0021
0000
0130
1000
0000
0000
2002
0000
,
0000
0000
3003
0000
0001
0100
0001
1000
1200
0000
0000
0310
0001
0000
2001
0000
,
0000
3010
0200
0000
0301
1000
0100
0010
0012
0000
1003
0000
0010
0000
0210
0000
,
0000
0301
2000
0000
3000
0000
0100
0000
0120
0000
0000
0000
0032
0000
1003
0010
,
1000
0001
0010
0001
1000
0100
0010
0001
2001
0000
0010
3100
0000
0000
0202
0000
,
0000
0000
0303
0000
0001
1000
0010
1000
1002
0000
0013
0100
0000
0000
2100
0000
,
0000
3001
0200
0000
0310
0100
0001
1000
1200
0000
0310
0000
0001
0000
2001
0000
,
3010
0200
0300
0001
2001
0000
3200
0000
,
0310
0000
0001
1000
0010
0100
0010
1000
1002
0000
0103
0010
0000
0000
2020
0000
,
0000
0000
3030
0000
1000
0001
0010
0100
2100
0000
0000
3001
0100
0000
0120
0000
,
0000
1030
0002
0000
0013
0100
1000
0100
0120
0000
0031
0000
1000
0000
1020
0000
,
0000
0130
0002
0000
0003
0000
1000
0000
1200
0000
0000
0000
0320
0000
0031
1000
,
0010
1000
0001
0010
0100
1000
0001
0100
0020
0000
1030
0010
0100
0010
1000
0000
,
1002
0000
0013
0100
1000
0100
0010
0001
1000
0000
0001
0010
0100
0010
0001
0000
,
1000
0100
0010
0001
0010
0100
1000
0001
1000
0000
0001
0100
0010
1000
0010
0000
,
0110
0000
0100
0001
1000
0100
0010
0100
1000
0000
0001
0010
0100
0010
0001
0000
,
1000
0010
0100
0010
1000
0001
0010
0100
1000
0000
0001
0010
0001
0010
0200
0000
,
1300
0001
1000
0001
0200
0000
0310
0100
0020
0000
1030
0001
0010
0001
2000
0000
,
3010
0100
0001
0100
0010
1000
0001
0010
0200
0000
1300
0100
0010
0100
2000
0000
,
3001
0100
0010
0100
0002
0000
1003
0100
0010
0100
1000
0001
1000
0000
0010
0100
,
0001
1000
0100
0010
0100
1000
0001
1000
0020
0000
0130
0000
0001
0000
1000
0000
,
0200
0000
0310
0000
0011
0000
0000
0000
0001
0000
1000
0000
0010
0000
0100
0001
,
2000
3000
1001
0000
0001
0010
0100
1000
,
0001
0100
0020
0000
1030
0001
0010
0200
,
1300
0001
2000
3010
0000
0100
0001
1000
,
0001
0000
0010
0000
0100
0000
1000
0000
0000
0000
0002
0000
1003
0000
0010
0100
,
0002
0003
1001
0000
1000
0100
0010
0001
,
0010
0100
2000
3000
1001
0001
0100
0020
,
1030
0001
0010
0100
1000
0100
0010
0001
2000
0000
3001
0100
0010
1000
0010
0100
,
0002
0000
1003
0000
0100
0010
0001
0010
0100
0000
1000
0000
0001
0100
0010
0100
,
0002
0000
0000
0000
1003
0010
0100
0010
1000
0000
0001
1000
0100
1000
0001
0010
,
0100
0000
1000
0000
0001
0100
0010
0100
0001
0000
1000
0000
0100
0000
0010
0001
,
1000
0100
1000
0001
0100
0010
1000
0001
0021
0000
0130
1000
0000
0000
2002
0000
,
0000
0000
3003
0000
0001
0100
0001
1000
1200
0000
0310
0001
0000
0000
2001
0000
,
0000
3010
0200
0000
0301
1000
0100
0010
0012
0000
1003
0000
0010
0000
0210
0000
,
0301
2000
3000
0100
0120
0000
0032
0000
,
1003
0000
0010
0100
0001
0100
0010
1000
1002
0000
0013
0100
0000
0000
2200
0000
,
0000
0000
3300
0000
1000
0001
0100
0010
2010
0000
0000
3001
0010
0000
0210
0000
,
0000
0301
2000
0000
3010
0100
0001
1000
1200
0000
0310
0000
0001
0000
2001
0000
,
0000
3010
0200
0000
0300
0000
0001
0000
2001
0000
0000
0000
3200
0000
0310
0001
,
1000
0010
0100
0010
1000
0001
0010
0001
2001
0000
3010
0100
0000
0000
0202
0000
,
0000
0000
0303
0000
0001
1000
0100
0010
0012
0000
1003
0010
0000
0000
0210
0000
,
0000
0301
2000
0000
3100
0010
0001
0010
0210
0000
1300
0000
0001
0000
0201
0000
,
0310
2000
3000
0001
0021
0000
0230
0000
,
1300
0000
0001
0100
0010
1000
0001
0100
0120
0000
1030
0001
0000
0000
0022
0000
,
0000
0000
0033
0000
0010
0100
1000
0001
0201
0000
0310
1000
0000
0000
1002
0000
,
0000
0013
0200
0000
1300
0001
0100
0010
2010
0000
3001
0000
0010
0000
0210
0000
,
0000
1300
0002
0000
0003
0000
1000
0000
1020
0000
0000
0000
0230
0000
0301
1000
,
0100
0010
0001
1000
0010
0100
0001
1000
1200
0000
0310
0001
0000
0000
2002
0000
,
0000
0000
3003
0000
1000
0010
0100
0010
2010
0000
3001
0010
0000
0000
0210
0000
,
0000
1300
0002
0000
1003
0010
0100
0001
2001
0000
3100
0000
0010
0000
0012
0000
,
1003
0020
0030
0100
0102
0000
2003
0000
,
3001
0000
0010
0100
1000
0100
0010
0001
2001
0000
3010
0100
0000
0000
0202
0000
,
0000
0000
0303
0000
0001
1000
0100
0010
0012
0000
1003
0010
0000
0000
0210
0000
,
0000
0301
2000
0000
3100
0010
0100
1000
1002
0000
0103
0000
0010
0000
2010
0000
,
0000
3001
0020
0000
0030
0000
0100
0000
2100
0000
0000
0000
0002
0000
0000
0000
,
3003
0000
0000
0000
;

//---------------dance-single - Ace Of Arrows (2019)----------------
#NOTES:
     dance-single:
     Ace Of Arrows (2019):
     Medium:
     6:
     0.346,0.262,0.000,0.594,0.052:
0000
0000
0000
0000
,
0000
0000
0000
0000
0001
0000
0000
0002
,
0000
0000
2003
0000
3200
0000
0000
0320
,
0000
0000
0034
0000
2003
0000
0000
3020
,
0000
0000
0230
0000
0302
0000
0000
2003
,
0000
3400
0000
0000
0320
0000
0000
0032
,
0000
0000
2003
0000
3020
0000
0000
0230
,
0000
0000
0304
0000
2003
0000
0000
3200
,
0000
0000
0320
0000
0032
0000
0000
4003
,
0000
0000
3000
0000
0000
0000
0001
0100
,
0002
0000
1003
0200
0000
0000
0000
0000
,
0000
0000
0300
0000
0000
0000
0001
0010
,
0002
0000
0003
1000
0010
0000
1000
0002
,
0000
0000
0000
0000
0003
0000
1000
0100
,
1000
0000
0100
0010
0000
0001
0010
0002
,
0000
0000
0003
1000
,
0010
1000
0010
0000
1000
0001
1000
0000
,
0200
0300
0040
0000
,
0030
0001
1000
0000
0010
0100
0010
0000
,
2000
3002
0003
0000
,
1000
0100
1000
0000
0000
0001
0100
0001
,
0000
0000
0000
0000
1000
0000
0001
0000
1000
0000
0000
0100
0000
0000
2000
0000
,
0000
0000
0000
0000
3001
0000
0100
0000
0001
0000
0000
1000
0000
0000
0002
0000
,
0000
0000
0013
0100
0020
0000
0031
2000
,
0000
3020
0000
1030
0002
0000
0023
0000
,
0030
0000
0000
0000
0100
0000
0010
0000
0100
0000
0000
1000
0000
0000
0200
0000
,
0000
0000
0310
0001
0020
0000
0130
2000
,
0000
0000
3001
0100
0002
0000
1003
0200
,
0000
0000
0300
0010
0002
0000
2003
0000
,
3040
0000
0000
0000
0030
0000
1000
0001
,
1000
0000
0000
0000
0000
0001
0010
0002
,
0000
0000
0003
0000
0000
0000
0010
0100
,
0010
0000
0002
0000
0003
1000
0010
2000
,
0000
0000
3000
0000
0000
0001
0010
0000
,
0001
1000
0001
0000
0000
1000
0010
2000
,
0000
0000
3000
0000
0000
0000
0010
0100
,
0010
0000
1000
0000
0000
0001
0010
0002
,
0000
0003
4000
0000
,
3000
0000
0001
0020
0000
0031
1000
0000
,
0020
0000
0230
0000
0000
0300
0000
0001
,
1000
0000
0001
0010
0000
0001
1000
0001
,
0000
0000
0000
0000
0100
0000
0010
0000
0100
0000
0000
0001
0000
0000
0200
0000
,
0000
0000
0000
0000
0310
0000
1000
0000
0010
0000
0000
0100
0000
0000
0020
0000
,
0000
0000
1030
0001
2000
0000
3100
0020
,
0000
0031
0000
1000
0020
0000
0230
0000
,
0300
0000
0000
0000
0001
0000
1000
0000
0001
0000
0000
0010
0000
0000
0002
0000
,
0000
0000
1003
0100
2000
0000
3001
0020
,
0000
0000
0130
0010
0200
0000
1300
0002
,
0000
0000
0003
1000
0020
0000
0230
0000
,
0300
0000
0000
0000
0001
0000
1000
0000
0001
0000
0000
0010
0000
0000
0002
0000
,
0000
0000
0000
0000
1003
0000
0100
0000
1000
0000
0000
0001
0000
0000
2000
0000
,
0000
0000
3010
0100
0020
0000
1030
0002
,
0000
0023
0000
0130
2000
0000
3002
0000
,
0003
0000
0000
0000
1000
0000
0001
0000
1000
0000
0000
0010
0000
0000
2000
0000
,
0000
0000
3001
0010
0002
0000
1003
0200
,
0000
0000
0310
0001
0020
0000
0130
2000
,
0000
0000
3000
0001
0200
0000
0320
0000
,
0030
0000
2000
0000
,
0000
0000
0000
0000
0000
0000
0000
0000
3001
0000
0000
0010
0000
0000
0001
0000
,
0000
0000
0020
0000
,
0000
0000
0000
0000
0000
0000
0000
0000
0130
0000
0000
1000
0000
0000
0100
0000
,
0000
0000
0000
0000
0000
0040
0000
0000
,
0000
0000
0000
0000
0030
0000
0000
0000
0001
0000
0000
1000
0000
0000
0001
0000
,
0000
0000
0000
0000
0000
0400
0000
0000
,
0000
0000
0000
0000
0300
0000
0000
0000
0010
0000
0000
1000
0000
0000
0010
0000
,
0000
0000
0000
0000
0000
0000
1000
0001
,
1000
0000
0000
0000
0000
0001
0100
0002
,
0000
0000
0003
0000
0000
0000
0100
0010
,
0100
0000
0002
0000
0003
1000
0100
2000
,
0000
0000
3000
0000
0000
0100
0010
0000
,
0001
0010
0001
0000
0000
0010
0100
0020
,
0000
0000
0030
0000
0000
0000
0001
1000
,
0001
0000
0100
0000
0000
0010
1000
0020
,
0000
0030
0400
0000
,
0300
0001
1000
0000
0001
0010
0001
0000
,
2000
3200
0300
0000
,
1000
0001
1000
0000
0000
0010
1000
0010
,
0000
0000
0000
0000
1000
0000
0001
0000
1000
0000
0000
0100
0000
0000
0020
0000
,
0000
0000
0000
0000
0031
0000
1000
0000
0001
0000
0000
0010
0000
0000
0200
0000
,
0000
0000
1300
0001
2000
0000
3001
0200
,
0000
0320
0000
1030
0002
0000
0023
0000
,
0030
0000
0000
0000
0100
0000
0010
0000
0100
0000
0000
1000
0000
0000
0002
0000
,
0000
0000
1003
0010
2000
0000
3001
0200
,
0000
0000
0310
0100
0020
0000
1030
0002
,
0000
0000
0003
0010
0200
0000
2300
0000
,
3000
0000
0000
0000
0001
0000
1000
0000
0001
0000
0000
0100
0000
0000
0020
0000
,
0000
0000
0000
0000
1030
0000
0001
0000
1000
0000
0000
0010
0000
0000
0200
0000
,
0000
0000
0301
0100
0002
0000
1003
0200
,
0000
0320
0000
0031
2000
0000
3020
0000
,
0030
0000
0000
0000
0100
0000
0001
0000
0100
0000
0000
0010
0000
0000
2000
0000
,
0000
0000
3001
0010
0002
0000
0013
0200
,
0000
0000
1300
0100
2000
0000
3001
0200
,
0000
0000
0300
0010
2000
0000
3002
0000
,
0003
0000
0000
0000
0010
0000
0100
0000
0010
0000
0000
0001
0000
0000
2000
0000
,
0000
0000
0000
0000
3010
0000
0100
0000
0010
0000
0000
1000
0000
0000
0002
0000
,
0000
0000
1003
0010
2000
0000
3001
0020
,
0000
0230
0000
1300
0002
0000
0203
0000
,
0300
0000
0000
0000
0001
0000
1000
0000
0001
0000
0000
0010
0000
0000
0200
0000
,
0000
0000
1300
0001
2000
0000
3010
0200
,
0000
0000
0301
0100
0002
0000
1003
0200
,
0000
0000
0300
0010
0002
0000
2003
0000
,
3000
0000
0000
0000
;

//---------------dance-single - Ace Of Arrows (2019)----------------
#NOTES:
     dance-single:
     Ace Of Arrows (2019):
     Easy:
     4:
     0.208,0.143,0.000,0.212,0.042:
0000
0000
0000
0000
,
0000
0000
0000
0000
1000
0000
0000
2000
,
0000
0000
3000
0000
0001
0000
0000
0002
,
0000
0000
0003
0000
0100
0000
0000
0200
,
0000
0300
0020
0000
,
0030
0000
0000
0000
1000
0000
0000
2000
,
0000
0000
3000
0000
0001
0000
0000
0002
,
0000
0000
0003
0000
0010
0000
0000
0020
,
0000
0030
0200
0000
,
0300
0000
0000
1000
,
1000
0000
0000
2000
0000
0000
0000
0000
,
3000
0000
0000
0010
,
0010
0000
0000
0000
0100
0000
0000
0200
,
0000
0000
0300
0001
,
0001
0000
0001
0000
0000
1000
0000
2000
,
0000
3000
0000
0100
,
0100
0000
0010
0010
,
0020
0030
0004
0000
,
0003
1000
2000
3000
,
0010
0020
0030
0000
,
0100
0000
0100
0000
0000
0001
0000
0001
,
0000
0000
0000
0000
1000
0000
0000
0000
1000
0000
0000
1000
0000
0000
1000
0000
,
0000
0000
0000
0000
0100
0000
0000
0000
0100
0000
0000
0100
0000
0000
0100
0000
,
0000
0000
0010
0000
0010
0000
0000
0010
,
0000
0010
0000
0000
0001
0000
0002
0000
,
0003
0000
0000
0000
1000
0000
0000
0000
1000
0000
0000
1000
0000
0000
1000
0000
,
0000
0000
0010
0000
0010
0000
0000
0010
,
0000
0000
0100
0000
0100
0000
0000
0200
,
0000
0300
0001
0002
,
0003
0000
0000
0100
,
0100
0000
0000
0000
0000
0010
0000
0020
,
0000
0030
0000
1000
,
1000
0000
1000
0000
0000
0001
0000
0002
,
0000
0003
0000
0010
,
0010
0000
0010
0000
0000
0100
0000
0200
,
0000
0300
0000
1000
,
1000
0000
1000
0000
0000
0001
0000
0002
,
0000
0003
4000
0000
,
3000
0000
0000
0010
0000
0000
0100
0000
,
0100
0200
0300
0000
,
0001
0000
0001
0000
0000
1000
0000
1000
,
0000
0000
0000
0000
0100
0000
0000
0000
0100
0000
0000
0100
0000
0000
0100
0000
,
0000
0000
0000
0000
0010
0000
0000
0000
0010
0000
0000
0010
0000
0000
0010
0000
,
0000
0000
0001
0000
0001
0000
0000
0001
,
0000
0001
0000
0000
1000
0000
2000
0000
,
3000
0000
0000
0000
0010
0000
0000
0000
0010
0000
0000
0010
0000
0000
0010
0000
,
0000
0000
0100
0000
0100
0000
0000
0100
,
0000
0000
0001
0000
0001
0000
0000
0002
,
0000
0003
1000
2000
,
3000
0000
0000
0000
0001
0000
0000
0000
0001
0000
0000
0001
0000
0000
0001
0000
,
0000
0000
0000
0000
0010
0000
0000
0000
0010
0000
0000
0010
0000
0000
0010
0000
,
0000
0000
0100
0000
0100
0000
0000
0100
,
0000
0100
0000
0000
1000
0000
2000
0000
,
3000
0000
0000
0000
0001
0000
0000
0000
0001
0000
0000
0001
0000
0000
0001
0000
,
0000
0000
0100
0000
0100
0000
0000
0100
,
0000
0000
0010
0000
0010
0000
0000
0020
,
0000
0030
1000
2000
,
3000
0000
0002
0000
,
0000
0000
0003
0000
0010
0000
0000
0010
,
0000
0000
0200
0000
,
0000
0000
0300
0000
1000
0000
0000
1000
,
0000
0000
0000
0000
0000
0004
0000
0000
,
0000
0000
0003
0000
0100
0000
0000
0100
,
0000
0000
0000
0000
0000
0040
0000
0000
,
0000
0000
0030
0000
1000
0000
0000
1000
,
0000
0000
0000
0001
,
0001
0000
0000
0000
0000
0010
0000
0020
,
0000
0030
0000
0100
,
0100
0000
0100
0000
0000
1000
0000
2000
,
0000
3000
0000
0001
,
0001
0000
0001
0000
0000
0100
0000
0200
,
0000
0300
0000
0010
,
0010
0000
0010
0000
0000
1000
0000
2000
,
0000
3000
0040
0000
,
0030
0100
0200
0300
,
0001
0002
0003
0000
,
1000
0000
1000
0000
0000
0100
0000
0100
,
0000
0000
0000
0000
1000
0000
0000
0000
1000
0000
0000
1000
0000
0000
1000
0000
,
0000
0000
0000
0000
0001
0000
0000
0000
0001
0000
0000
0001
0000
0000
0001
0000
,
0000
0000
0100
0000
0100
0000
0000
0100
,
0000
0100
0000
0000
0010
0000
0020
0000
,
0030
0000
0000
0000
0100
0000
0000
0000
0100
0000
0000
0100
0000
0000
0100
0000
,
0000
0000
0001
0000
0001
0000
0000
0001
,
0000
0000
1000
0000
1000
0000
0000
2000
,
0000
3000
0100
0200
,
0300
0000
0000
0000
0010
0000
0000
0000
0010
0000
0000
0010
0000
0000
0010
0000
,
0000
0000
0000
0000
0001
0000
0000
0000
0001
0000
0000
0001
0000
0000
0001
0000
,
0000
0000
1000
0000
1000
0000
0000
1000
,
0000
1000
0000
0000
0100
0000
0200
0000
,
0300
0000
0000
0000
1000
0000
0000
0000
1000
0000
0000
1000
0000
0000
1000
0000
,
0000
0000
0001
0000
0001
0000
0000
0001
,
0000
0000
0100
0000
0100
0000
0000
0200
,
0000
0300
0010
0020
,
0030
0000
0000
0000
0100
0000
0000
0000
0100
0000
0000
0100
0000
0000
0100
0000
,
0000
0000
0000
0000
0001
0000
0000
0000
0001
0000
0000
0001
0000
0000
0001
0000
,
0000
0000
1000
0000
1000
0000
0000
1000
,
0000
1000
0000
0000
0100
0000
0200
0000
,
0300
0000
0000
0000
1000
0000
0000
0000
1000
0000
0000
1000
0000
0000
1000
0000
,
0000
0000
0001
0000
0001
0000
0000
0001
,
0000
0000
0010
0000
0010
0000
0000
0020
,
0000
0030
0100
0200
,
0300
0000
0000
0000
;

//---------------dance-single - Ace Of Arrows (2019)----------------
#NOTES:
     dance-single:
     Ace Of Arrows (2019):
     Beginner:
     1:
     0.121,0.095,0.000,0.231,0.000:
0000
0000
0000
0000
,
0000
0000
0002
0000
,
0003
0000
0002
0000
,
0003
0000
2000
0000
,
3000
0000
2000
0000
,
3000
0000
0020
0000
,
0030
0000
0020
0000
,
0030
0000
0200
0000
,
0300
0000
0200
0000
,
0300
0000
0000
0000
,
0001
0000
0002
0000
,
0003
0000
0000
0000
,
1000
0000
2000
0000
,
3000
0000
0000
0000
,
0100
0000
0200
0000
,
0300
0000
0000
0000
,
0010
0000
0020
0000
,
0030
0000
0004
0000
,
0003
0000
1000
0000
,
2000
0000
3000
0000
,
0010
0000
0010
0000
,
0000
0000
0100
0000
,
0100
0000
0200
0000
,
0300
0000
0001
0000
,
0001
0000
0002
0000
,
0003
0000
1000
0000
,
1000
0000
2000
0000
,
3000
0000
0100
0000
,
0100
0000
0200
0000
,
0300
0000
0000
0000
,
0010
0000
0020
0000
,
0030
0000
0000
0000
,
0001
0000
0002
0000
,
0003
0000
0000
0000
,
1000
0000
2000
0000
,
3000
0000
0000
0000
,
0010
0000
0020
0000
,
0030
0000
0400
0000
,
0300
0000
0001
0000
,
0002
0000
0003
0000
,
1000
0000
1000
0000
,
0000
0000
0100
0000
,
0100
0000
0200
0000
,
0300
0000
0010
0000
,
0010
0000
0020
0000
,
0030
0000
0001
0000
,
0001
0000
0002
0000
,
0003
0000
1000
0000
,
1000
0000
2000
0000
,
3000
0000
0010
0000
,
0010
0000
0020
0000
,
0030
0000
0100
0000
,
0100
0000
0200
0000
,
0300
0000
0001
0000
,
0001
0000
0002
0000
,
0003
0000
1000
0000
,
1000
0000
2000
0000
,
3000
0000
0020
0000
,
0030
0000
0010
0000
,
0010
0000
0200
0000
,
0300
0000
0100
0000
,
0100
0000
0004
0000
,
0003
0000
0001
0000
,
0001
0000
4000
0000
,
3000
0000
1000
0000
,
1000
0000
0000
0000
,
0100
0000
0200
0000
,
0300
0000
0000
0000
,
0010
0000
0020
0000
,
0030
0000
0000
0000
,
0001
0000
0002
0000
,
0003
0000
0000
0000
,
1000
0000
2000
0000
,
3000
0000
0400
0000
,
0300
0000
0010
0000
,
0020
0000
0030
0000
,
0001
0000
0001
0000
,
0000
0000
1000
0000
,
1000
0000
2000
0000
,
3000
0000
0010
0000
,
0010
0000
0020
0000
,
0030
0000
0100
0000
,
0100
0000
0200
0000
,
0300
0000
0001
0000
,
0001
0000
0002
0000
,
0003
0000
1000
0000
,
1000
0000
2000
0000
,
3000
0000
0100
0000
,
0100
0000
0200
0000
,
0300
0000
0010
0000
,
0010
0000
0020
0000
,
0030
0000
0001
0000
,
0001
0000
0002
0000
,
0003
0000
1000
0000
,
1000
0000
2000
0000
,
3000
0000
0010
0000
,
0010
0000
0020
0000
,
0030
0000
0100
0000
,
0100
0000
0200
0000
,
0300
0000
0001
0000
,
0001
0000
0002
0000
,
0003
0000
0000
0000
;
