#TITLE:Miami Style;
#SUBTITLE:;
#ARTIST:Rinat Arinos;
#TITLETRANSLIT:;
#SUBTITLETRANSLIT:;
#ARTISTTRANSLIT:;
#GENRE:;
#CREDIT:Ace Of Arrows;
#BANNER:Miami Style - Bn.png;
#BACKGROUND:Miami Style - Bg.png;
#LYRICSPATH:;
#CDTITLE:Ace Of Arrows.png;
#MUSIC:Miami Style.ogg;
#OFFSET:0.830;
#SAMPLESTART:77.800;
#SAMPLELENGTH:12.000;
#SELECTABLE:YES;
#DISPLAYBPM:130.000;
#BPMS:0.000=130.000,16.250=260.000,16.750=130.000,124.250=260.000,124.750=130.000;
#STOPS:16.250=0.058
,16.500=0.058
,124.250=0.058
,124.500=0.058
;
#BGCHANGES:;
#KEYSOUNDS:;

//---------------dance-single - Ace Of Arrows (2019)----------------
#NOTES:
     dance-single:
     Ace Of Arrows (2019):
     Hard:
     8:
     0.549,0.000,0.285,1.000,0.085: // measure 1
0000
0000
0000
0000
,  // measure 2
0000
0000
0000
0000
,  // measure 3
0000
0000
0000
0000
,  // measure 4
0000
0001
0020
0130
2000
3001
0100
0020
,  // measure 5
0000
1030
0002
0013
0200
1300
0001
0200
,  // measure 6
0300
0000
0000
0000
0000
0002
2003
3200
,  // measure 7
0000
0000
0300
0000
0000
0000
0000
0000
0020
0000
0000
0230
0000
0000
2300
0000
,  // measure 8
3002
0003
0100
0001
2000
3100
0010
0002
,  // measure 9
0000
0003
1000
0010
0200
0310
1000
0002
,  // measure 10
0000
0003
0000
0000
0000
2000
3200
0320
,  // measure 11
0000
0030
0000
0000
0000
0001
1000
1020
,  // measure 12
0000
0130
0000
0002
0000
1003
0100
0110
,  // measure 13
0000
0000
0020
0000
0000
0000
0031
0000
2000
0000
0000
3020
0000
0000
0230
0000
,  // measure 14
0300
0001
0100
0010
2000
3001
0010
0200
,  // measure 15
0000
0000
0300
0000
0000
0000
0000
0000
2000
0000
0000
3002
0000
0000
0203
0000
,  // measure 16
0310
0000
1000
0000
0002
0000
0013
0000
0100
0000
0000
2000
0000
3000
2002
0000
,  // measure 17
0000
3003
0000
0002
0000
0000
0203
0300
,  // measure 18
0120
0000
0000
2030
0000
0000
3002
0000
,  // measure 19
0000
0000
0003
0000
0000
1000
0020
0130
,  // measure 20
0101
0000
0002
0000
0003
0000
2000
3100
,  // measure 21
0110
0020
0030
0000
,  // measure 22
0002
2003
3000
1020
0000
0000
0130
0202
,  // measure 23
0003
0000
0310
0000
1000
0000
0001
0000
1000
0100
1000
0100
2000
0000
3001
0000
,  // measure 24
0101
0000
0200
0000
0300
0000
0010
1000
,  // measure 25
1001
0000
0002
0000
0003
0000
0000
0100
,  // measure 26
0010
2000
0000
3002
0000
0023
0030
0220
,  // measure 27
0000
0000
0330
0000
0400
4000
0000
0000
0000
0000
0000
0000
3300
0000
0000
0000
,  // measure 28
0000
1000
0002
0103
0020
1030
0001
0020
,  // measure 29
0000
0031
1000
0010
0200
0301
1000
0200
,  // measure 30
0000
0300
0000
0000
0000
0020
0032
2003
,  // measure 31
0000
0000
3000
0000
0000
0000
0000
0000
0020
0000
0000
2030
0000
0000
3002
0000
,  // measure 32
0023
0130
1000
0001
0200
0310
1000
0002
,  // measure 33
0000
1003
0100
0010
0100
1000
0001
0200
,  // measure 34
0000
0300
0000
0000
0000
0020
2030
3002
,  // measure 35
0000
0003
0000
0000
0000
1000
0010
0210
,  // measure 36
0000
0301
0000
2001
0000
3100
0010
0012
,  // measure 37
0000
0000
2003
0000
0000
0000
3010
0000
0200
0000
0000
0302
0000
0000
2003
0000
,  // measure 38
3100
0010
0001
2000
3020
0000
0130
0202
,  // measure 39
0000
0000
0303
0000
0000
0000
0000
0000
0002
0000
0000
2003
0000
0000
3200
0000
,  // measure 40
0310
0000
0001
0000
1000
0000
0010
0000
0100
0000
0000
0002
0000
0003
2002
0000
,  // measure 41
0000
3003
0000
2000
0000
0000
3200
0300
,  // measure 42
0120
0000
0000
0032
0000
0003
2001
0000
,  // measure 43
0000
0000
3000
0000
0000
0010
2000
3001
,  // measure 44
0011
0000
0020
0000
0030
0000
0100
1000
,  // measure 45
1001
0002
0003
0000
,  // measure 46
1000
0020
0000
0230
0000
0000
0301
2002
,  // measure 47
0003
0000
3010
0000
1000
0000
0001
0000
0010
0001
0010
0001
0010
0000
0100
0000
,  // measure 48
1100
0000
2000
0000
3000
0000
0001
0100
,  // measure 49
0110
0000
0020
0000
0030
0000
0000
1000
,  // measure 50
0001
0020
0000
0230
0000
2300
3000
2002
,  // measure 51
3000
0000
0103
0000
0010
0000
1000
0000
0001
0100
0001
0100
0002
0000
2003
0000
,  // measure 52
0000
3100
0010
0012
0000
1003
0010
0210
,  // measure 53
0000
0301
1000
1020
0000
0030
0000
0000
,  // measure 54
0000
0000
0100
0000
0001
0000
1000
0000
0001
0000
0010
0200
0000
0000
1300
0000
,  // measure 55
0001
0000
1000
0200
0000
0000
0310
0000
0001
0000
1000
0000
0010
0000
0210
0000
,  // measure 56
0000
0301
1000
1020
0000
0130
0001
2001
,  // measure 57
0000
3001
0010
0210
0000
0300
0000
0000
,  // measure 58
0000
0000
1000
0000
0001
0000
0100
0000
0010
0000
1000
0002
0000
0000
0013
0000
,  // measure 59
0100
0000
1000
0200
0000
0000
0310
0000
0002
0000
0000
0000
2003
0000
3000
0000
,  // measure 60
2200
3300
0000
0000
;

//---------------dance-single - Ace Of Arrows (2019)----------------
#NOTES:
     dance-single:
     Ace Of Arrows (2019):
     Challenge:
     10:
     0.789,0.000,0.676,1.000,0.387:
0000
0000
0000
0000
,
0000
0000
0000
0000
,
0000
0000
0000
0000
,
0000
0000
1000
0000
0002
0000
0013
0000
0200
0000
1300
0100
1000
0000
1001
0000
,
0000
0001
0010
0000
0200
0000
1300
0000
0002
0000
0103
0010
0100
0000
0202
0000
,
0303
0000
1001
0000
1200
0010
1000
0320
,
0031
0000
0000
0000
1001
0000
0000
0000
1020
0000
0000
0230
0000
0000
0301
0000
,
2002
0000
3003
0000
1000
0000
0100
0000
0020
0000
0130
1000
0100
0000
0220
0000
,
0330
0000
0000
0000
0010
0000
0001
0000
2000
0000
3010
0100
0010
0000
2020
0000
,
3030
0000
0110
0000
0102
1000
0010
2003
,
3001
0000
0011
0000
0210
1300
0001
0201
,
0000
0000
0310
0100
0010
0000
2010
0000
0000
0000
3001
0000
0010
0000
0210
0000
,
0000
0000
1300
0001
1000
0000
0010
0000
0210
0000
0000
0302
0000
0003
2002
0000
,
3003
0000
1000
0000
1100
0000
0100
0000
0020
0000
0031
1000
0001
0000
0201
0000
,
0000
0000
0300
0000
0110
0000
0000
0000
2010
0000
0000
3002
0000
0000
0013
0000
,
0110
0000
0100
0000
1000
0000
0100
0000
0001
0000
0000
0200
0000
0300
2200
0000
,
0000
3300
0000
1002
0000
0000
0203
0300
,
0120
0000
0000
2030
0000
0000
3002
0003
,
0011
0000
0010
0000
0110
0000
0100
0000
1000
0100
1000
0100
0010
0001
0010
0001
,
2000
0000
3010
0100
0010
0000
1000
0000
0001
0010
0001
0000
1000
0000
0010
0000
,
0210
0000
0301
1000
0001
0000
0010
0000
0100
1000
0100
0000
0010
0000
0001
0000
,
1000
0010
1000
0000
0001
0000
0021
0000
0000
0000
0130
1000
0100
0000
0020
0000
,
0031
1000
0001
0000
0100
0000
0010
0000
1000
0001
1000
0200
0000
0000
0310
0000
,
0012
0000
1003
0010
1000
0000
0001
0000
0010
0100
0010
0000
0001
0000
1000
0000
,
1020
0000
0130
0010
0100
0000
0001
0000
1000
0100
1000
0000
0001
0000
0010
0000
,
0100
1000
0100
0000
0010
0000
0002
0000
0000
0000
1003
0010
1000
0000
2002
0000
,
3003
0000
0001
0100
0010
1000
0010
0100
0001
1000
0100
0010
0001
0010
0100
1000
,
0002
0000
0103
0010
0100
0000
0001
0000
1000
0100
0010
0100
1000
0000
2002
0000
,
3003
0000
0001
0100
0001
0000
1000
0000
0001
0010
0100
0010
0001
0000
2002
0000
,
3003
0000
1001
0000
2100
0001
0100
3002
,
0103
0000
0000
0000
0110
0000
0000
0000
2010
0000
0000
3002
0000
0000
0013
0000
,
0100
1000
0100
0000
0010
0000
0001
0000
1000
0010
0100
0010
1000
0000
2002
0000
,
3003
0000
0001
0010
0001
0000
1000
0000
0001
0100
0010
0100
0001
0000
2002
0000
,
3003
0000
1010
0000
0210
0001
1000
0302
,
2003
3000
1100
0000
0110
0010
0001
2001
,
0000
0000
3010
0100
0010
0000
2010
0000
0000
0000
3001
0010
0001
0000
2001
0000
,
0000
0000
3100
0010
0100
0000
1000
0000
1002
0000
0000
0203
0000
0300
0110
0000
,
0000
0000
0010
0000
1000
0000
0001
0000
0010
0100
0010
0000
0001
0000
2002
0000
,
3003
0000
0000
0000
1010
0000
0000
0000
0102
0000
0000
2003
0000
0000
3100
0000
,
0110
0000
0010
0000
0001
0000
0010
0000
1000
0000
0000
0020
0000
0030
0022
0000
,
0000
0033
0000
0001
2001
0000
3020
0030
,
0210
0000
0000
0302
0000
0000
2003
0000
,
3010
0000
0000
0000
0110
0000
0000
0000
0100
0001
0100
0001
1000
0100
1000
0100
,
0020
0000
0031
1000
0001
0000
0100
0000
0010
1000
0010
0000
0100
0000
0001
0000
,
2001
0000
3100
0010
0100
0000
1000
0000
0001
0100
0001
0000
1000
0000
0100
0000
,
0010
0001
0010
0000
0100
0000
2100
0000
0000
0000
3001
0100
0001
0000
2001
0000
,
0000
0000
3100
0000
0010
0000
0001
0000
1000
0010
0100
0001
0100
0010
1000
0000
,
1002
0000
0013
0100
0010
0000
0001
0000
1000
0010
1000
0000
0001
0000
0010
0000
,
0210
0000
1300
0100
1000
0000
0001
0000
0100
0010
0100
0000
0001
0000
1000
0000
,
0010
0100
0010
0000
1000
0000
1002
0000
0000
0000
0013
0100
0010
0000
0012
0000
,
0000
0000
1003
0000
0010
0000
0100
0000
0001
1000
0100
2000
0000
0000
3001
0000
,
0101
0100
0010
2020
0030
3001
0010
0220
,
0030
1300
0001
0202
0003
0310
1000
0000
,
1001
0000
0001
0000
0010
0000
0100
0000
1000
0100
0010
0002
0000
0000
1003
0000
,
0001
0010
0100
2000
0000
0000
3010
0000
0100
0000
0001
0000
1001
0000
2000
0000
,
0000
3100
0010
0022
0030
1003
0010
0220
,
0030
0301
1000
2200
3000
0310
0001
0000
,
1001
0000
1000
0000
0010
0000
0100
0000
0001
1000
0100
2000
0000
0000
3001
0000
,
1000
0001
0010
0002
0000
0000
1003
0000
0020
0000
0000
0000
0230
0000
0300
0000
,
0202
0303
0000
0000
;

//---------------dance-single - Ace Of Arrows (2019)----------------
#NOTES:
     dance-single:
     Ace Of Arrows (2019):
     Medium:
     6:
     0.376,0.000,0.000,0.729,0.027:
0000
0000
0000
0000
,
0000
0000
0000
0000
,
0000
0000
0000
0000
,
0000
1000
0100
0000
2000
0000
3001
0100
,
0000
0001
1000
0000
0002
0000
1003
0200
,
0000
0300
0000
0000
0000
1000
0001
2000
,
0000
0000
3000
0000
0000
0000
0000
0000
0010
0000
0000
0020
0000
0000
0030
0000
,
0000
0000
1000
0100
2000
0000
3001
0010
,
0000
0000
0001
1000
0002
0000
1003
0200
,
0000
0300
0000
0000
0000
1000
0001
2000
,
0000
3000
0000
0000
0000
0010
1000
0020
,
0000
2030
0000
3002
0000
1003
0001
2000
,
0000
3200
0000
0320
0000
0030
0000
0000
,
0000
0001
1000
0000
0002
0000
1003
0200
,
0000
0000
0300
0000
0000
0000
0000
0000
0010
0000
0000
0020
0000
0000
0030
0000
,
0000
0000
0001
0000
1000
0000
0000
0000
0100
0000
0000
0100
0000
0000
0200
0000
,
0000
0300
0000
0020
0000
0000
0031
0000
,
2000
0000
0000
3002
0000
0000
0203
0000
,
0000
0000
0300
0000
0000
0010
2000
0000
,
3001
0000
0020
0000
0030
0000
0001
1000
,
0001
0200
0300
0000
,
0010
2000
0000
3002
0000
0000
0013
0200
,
0000
1300
0001
0000
2000
0000
3010
0100
,
0010
0000
2000
0000
3000
0000
0001
0010
,
0001
0000
2000
0000
3000
0000
0000
0001
,
1000
0002
0000
0203
0000
0302
0000
2003
,
0000
3000
0400
0000
0000
0000
0300
0000
,
0000
0010
0001
0000
2000
0000
3001
0100
,
0000
0001
1000
0000
0002
0000
1003
0200
,
0000
0300
0000
0000
0000
0010
0001
0020
,
0000
0000
0030
0000
0000
0000
0000
0000
0001
0000
0000
0002
0000
0000
0003
0000
,
0000
1000
0010
0000
2000
0000
3001
0010
,
0000
0001
1000
0000
0020
0000
1030
0002
,
0000
0003
0000
0000
0000
1000
0010
2000
,
0000
3000
0000
0000
0000
0001
1000
0002
,
0000
0023
0000
0032
0000
1003
0100
2000
,
0000
3002
0000
2003
0000
3000
0000
0000
,
0000
0010
1000
0000
0002
0000
1003
0200
,
0000
0000
0000
0000
0300
0000
0000
0000
0010
0000
0000
0020
0000
0000
0030
0000
,
0000
0000
0001
0000
1000
0000
0000
0000
0010
0000
0000
0010
0000
0000
0020
0000
,
0000
0030
0000
2000
0000
0000
3002
0000
,
0023
0000
0000
0230
0000
0000
2300
0000
,
0000
0000
3000
0000
0000
0001
0020
0000
,
0031
0000
2000
0000
3000
0000
0010
1000
,
0010
0200
0300
0000
,
0001
2000
0000
3200
0000
0000
0310
0002
,
0000
1003
0010
0000
2000
0000
3001
0010
,
0001
0000
2000
0000
3000
0000
0001
0100
,
0001
0000
2000
0000
3000
0000
0000
0001
,
0010
0002
0000
2003
0000
3020
0000
0230
,
0000
0301
1000
0000
0000
0001
0010
0001
,
0000
1000
0001
1000
0000
0010
1000
0010
,
0000
1000
0001
2000
0000
3000
0000
0000
,
0000
0001
0010
0000
0200
0000
1300
0001
,
2000
0000
3000
0000
0000
0001
0100
0001
,
0000
1000
0001
1000
0000
0001
0010
0001
,
0000
1000
0100
2000
0000
3000
0000
0000
,
0000
0001
0100
0000
0020
0000
1030
0001
,
2000
0000
3001
0010
0002
0000
2003
0000
,
3200
0300
0000
0000
;

//---------------dance-single - Ace Of Arrows (2018)----------------
#NOTES:
     dance-single:
     Ace Of Arrows (2018):
     Easy:
     4:
     0.227,0.000,0.000,0.436,0.000:
0000
0000
0000
0000
,
0000
0000
0000
0000
,
0000
0000
0000
0000
,
0000
0000
0001
0000
0001
0000
0000
0001
,
0000
0000
1000
0000
1000
0000
0000
2000
,
0000
3000
0000
0000
0000
0010
0000
0020
,
0000
0030
0000
0000
0200
0000
0300
0000
,
0000
0000
0001
0000
0001
0000
0000
0001
,
0000
0000
0100
0000
0100
0000
0000
0200
,
0000
0300
0000
0000
0000
0010
0000
0020
,
0000
0030
0000
0000
0000
0000
0000
1000
,
0000
1000
0000
2000
0000
3000
0000
0001
,
0000
0001
0000
0002
0000
0003
0000
0000
,
0000
0000
0010
0000
0010
0000
0000
0020
,
0000
0030
0000
0000
0200
0000
0300
0000
,
0000
0000
1000
0000
1000
0000
0000
2000
,
0000
3000
0000
0002
0000
0003
0001
0000
,
0002
0000
0003
0002
0000
0003
0002
0000
,
0000
0003
0000
0100
,
0100
0200
0300
0010
,
0010
0000
0020
0000
0000
0030
0000
0000
,
1000
0000
0000
2000
0000
3000
0000
2000
,
0000
3000
0000
0100
,
0100
0200
0300
0010
,
0010
0000
0020
0000
0000
0030
0000
0000
,
0001
0000
0000
0001
0000
0001
0000
0002
,
0000
0003
0000
0000
,
0000
0000
0010
0000
0010
0000
0000
0010
,
0000
0000
0100
0000
0100
0000
0000
0200
,
0000
0300
0000
0000
0000
1000
0000
2000
,
0000
3000
0000
0000
0002
0000
0003
0000
,
0000
0000
0100
0000
0100
0000
0000
0100
,
0000
0000
0010
0000
0010
0000
0000
0020
,
0000
0030
0000
0000
0000
0100
0000
0200
,
0000
0300
0000
0000
0000
0000
0000
0001
,
0000
0001
0000
0002
0000
0003
0000
1000
,
0000
1000
0000
2000
0000
0000
3000
0000
,
0000
0000
0100
0000
0100
0000
0000
0200
,
0000
0300
0020
0030
,
0000
0000
0001
0000
0001
0000
0000
0002
,
0000
0003
0000
2000
0000
3000
1000
0000
,
2000
0000
3000
2000
0000
3000
2000
0000
,
0000
3000
0000
0100
,
0100
0200
0300
0010
,
0010
0020
0030
0000
,
0001
0000
0000
0002
0000
0003
0000
0002
,
0000
0003
0000
1000
,
1000
2000
3000
0010
,
0010
0000
0020
0000
0000
0030
0000
0000
,
0100
0000
0000
0100
0000
0100
0000
0200
,
0000
0000
0300
0000
0000
0000
0000
0001
,
0000
0001
0000
0001
0000
0000
0000
1000
,
0000
1000
0000
2000
0000
3000
0000
0000
,
0000
0100
0200
0300
,
0200
0000
0300
0000
0200
0000
0300
1000
,
0000
1000
0000
1000
0000
0000
0000
0001
,
0000
0001
0000
0001
0000
0000
0000
0000
,
0000
0010
0020
0030
,
0020
0030
0001
0001
,
0002
0003
0000
0000
;

//---------------dance-single - Ace Of Arrows (2019)----------------
#NOTES:
     dance-single:
     Ace Of Arrows (2019):
     Beginner:
     2:
     0.133,0.000,0.000,0.329,0.000:
0000
0000
0000
0000
,
0000
0000
0000
0000
,
0000
0000
0000
0000
,
0000
0000
1000
0000
,
1000
0000
2000
0000
,
3000
0000
0002
0000
,
0003
0000
0000
0000
,
0000
0000
0010
0000
,
0010
0000
0020
0000
,
0030
0000
0200
0000
,
0300
0000
0000
0000
,
1000
0000
1000
0000
,
2000
0000
3000
0000
,
0000
0000
0001
0000
,
0001
0000
0000
0000
,
0000
0000
0200
0000
,
0300
0000
0001
0000
,
0002
0000
0003
0002
,
0000
0003
0000
0000
,
1000
2000
3000
0000
,
0010
0020
0030
0000
,
0200
0000
0000
0000
0300
0000
0000
0200
,
0000
0300
0000
0000
,
0001
0002
0003
0000
,
1000
2000
3000
0000
,
0020
0000
0000
0000
0000
0030
0000
0010
,
0000
0000
0000
0000
,
0000
0000
1000
0000
,
1000
0000
2000
0000
,
3000
0000
0020
0000
,
0030
0000
0000
0000
,
0000
0000
0100
0000
,
0100
0000
0200
0000
,
0300
0000
0002
0000
,
0003
0000
0000
0000
,
0100
0000
0100
0000
,
0200
0000
0300
0000
,
0000
0000
0020
0000
,
0030
0000
0000
0000
,
0000
0000
2000
0000
,
3000
0000
0100
0000
,
0200
0000
0300
0200
,
0000
0300
0000
0000
,
1000
2000
3000
0000
,
0001
0002
0003
0000
,
0200
0000
0000
0000
0000
0300
0000
0200
,
0000
0000
0300
0000
,
0010
0020
0030
0000
,
1000
2000
3000
0000
,
0002
0000
0000
0000
0000
0003
0000
0002
,
0000
0000
0003
0000
,
0010
0000
0010
0000
,
0020
0000
0030
0000
,
0000
0000
0100
0000
,
0200
0000
0300
0000
,
1000
0000
1000
0000
,
2000
0000
3000
0000
,
0000
0000
0002
0000
,
0003
0000
0001
0000
,
0002
0003
0000
0000
;
