#TITLE:Love is Real;
#SUBTITLE:;
#ARTIST:3rd Coast;
#TITLETRANSLIT:;
#SUBTITLETRANSLIT:;
#ARTISTTRANSLIT:;
#GENRE:;
#CREDIT:Ace Of Arrows;
#BANNER:Love is Real - Bn.png;
#BACKGROUND:Love is Real - Bg.jpg;
#LYRICSPATH:;
#CDTITLE:Ace Of Arrows.png;
#MUSIC:Love is Real.ogg;
#OFFSET:0.830;
#SAMPLESTART:8.300;
#SAMPLELENGTH:12.000;
#SELECTABLE:YES;
#BPMS:0.000=125.000;
#STOPS:;
#BGCHANGES:;
#KEYSOUNDS:;

//---------------dance-single - Ace Of Arrows (2019)----------------
#NOTES:
     dance-single:
     Ace Of Arrows (2019):
     Challenge:
     9:
     0.653,0.281,0.427,0.873,0.281:
0000
0000
0000
0000
,
0201
0000
0320
0000
2030
0000
3001
0021
,
0000
0130
2000
0000
3002
0000
0103
0220
,
0000
0330
2020
0000
3030
2002
3003
0022
,
0000
0033
0210
4300
0000
3001
0100
0010
,
2010
0000
0000
0000
3001
0010
0001
0000
1000
0000
0010
0100
0010
0000
2010
0000
,
0000
0000
3001
0000
0010
0000
0200
0000
0000
0000
2300
0000
0000
3000
1004
0000
,
0000
0000
0103
0000
0010
1000
0010
0000
0100
0000
0001
1000
0001
0000
0020
0000
,
0000
0000
0130
0000
1000
0000
0002
0000
0000
0000
0013
0100
0010
0000
0014
0000
,
0000
0000
1003
0000
0010
0100
0010
0000
0100
0000
0001
1000
0001
0000
0021
0000
,
0000
0000
0130
0000
1000
0001
1000
0000
0010
0000
0100
0001
0100
0000
0120
0000
,
0000
1030
0001
0100
0110
0010
1000
1002
,
0000
0000
0013
0000
0100
1000
0100
0000
0010
0000
0001
0000
1000
0000
1040
0000
,
0000
0000
0130
0000
0001
1000
0001
0000
0010
0000
0100
0000
1000
0000
1002
0000
,
0000
0103
0010
2000
0000
3001
0010
0410
,
0000
0000
1300
0000
0001
0100
0001
0000
1000
0000
0100
0010
0100
0000
2100
0000
,
0000
0000
3001
0000
0100
0000
0020
0000
0000
0000
2030
0000
0000
3000
1004
0000
,
0000
0000
0013
0000
0100
1000
0100
0000
0010
0000
0001
1000
0001
0000
0401
0000
,
0000
0000
0310
1000
0020
0000
1030
0000
0001
0010
0001
0000
1000
0000
1200
0000
,
0000
0000
0310
0004
0000
1003
0010
0100
,
0102
0000
0000
0000
2003
0000
0000
3000
1100
0000
0200
0000
0000
0000
0310
0001
,
0020
0000
0230
0000
0300
0000
1000
0000
1002
0000
0103
0010
0000
0010
2000
0000
,
3000
0000
0001
0000
0020
0000
0030
0000
0210
0000
1300
0001
0000
0001
0200
0000
,
0300
0000
0010
0000
2000
0000
3001
0010
0002
0000
1003
0001
2000
0000
3010
0000
,
0200
0301
2001
3100
0010
0001
1001
2000
,
3000
0000
0001
0100
0001
0000
2000
0000
0010
0000
3002
0000
0013
0100
0020
0000
,
0031
0000
2000
0000
3001
0010
0100
0010
0002
0000
1003
0020
0000
0230
0000
0000
,
0300
0000
0001
0000
2000
0000
3001
0010
0002
0000
0013
0200
0000
0000
1300
0000
,
2002
0000
3003
0001
0200
0310
1010
2000
,
0000
0000
3000
0000
0000
0001
0010
0200
,
0000
0000
1300
0002
0000
0203
0000
0340
,
0000
0000
0030
0000
0000
1000
0001
0020
,
0031
1000
0001
0000
0100
0000
0010
1000
0040
0000
0130
0000
0001
0000
1000
0001
,
2000
0000
3100
0000
0010
0001
0010
0000
0100
0000
1000
0001
1000
0000
1040
0000
,
0000
0000
0130
0000
0001
1000
0001
0000
0010
0000
0100
1000
0100
0000
0120
0000
,
0000
0031
1000
0010
0110
0100
0001
2001
,
0000
3400
0020
0300
0031
1000
0010
0100
,
0102
0000
0000
0000
1003
0100
1000
0000
0001
0000
1000
0001
1000
0000
0020
0000
,
0000
0000
1030
0001
0010
0100
0010
0001
1000
0000
0001
0100
0001
0000
4001
0000
,
0000
0000
3100
0010
0001
0010
0200
0000
0000
0000
1300
0000
0001
0000
1000
0100
,
0010
0100
1000
0001
0010
0100
0010
0001
2000
0000
3002
0000
0000
0003
0041
0000
,
0000
0000
0000
0030
0100
1000
0001
0201
,
0310
1000
0001
1000
0100
1000
0001
0100
0010
0100
0002
0000
1003
0000
1200
0000
,
0000
0000
0310
0004
0000
1003
0010
0100
,
0102
0000
0000
0000
2003
0000
0000
3000
1100
0000
0200
0000
0000
0000
1300
0001
,
2000
0000
0000
0000
0000
0000
0000
0000
0000
0000
0000
0000
0000
0000
0000
0000
0000
0000
0000
0000
0000
0000
0000
3000
4000
0000
0000
0000
0000
0000
0000
0000
,
0000
0000
0000
0000
3000
0000
0000
0000
0000
0000
0002
0000
0000
0003
0401
0000
,
0000
0000
0000
0000
,
0320
0000
0000
0000
2030
0000
0000
0000
3002
0000
0000
0000
0023
0000
0000
0030
,
0210
0000
0000
0000
0000
0000
0000
0000
0000
0000
0000
0000
0000
0000
0000
0300
0400
0000
0000
0000
0000
0000
0000
0000
0300
0000
0000
0000
2000
0000
0000
0000
,
0000
0000
0000
0000
0000
3000
0000
2002
,
0000
0000
0000
0000
0000
0000
0000
0000
0000
0000
0000
0000
0000
0000
0000
0000
0000
0000
0000
0000
0000
0000
0000
0000
0000
0000
0000
0000
0000
0000
0000
0003
,
0004
0000
0000
0000
0000
3003
0000
0000
;

//---------------dance-single - Ace Of Arrows (2019)----------------
#NOTES:
     dance-single:
     Ace Of Arrows (2019):
     Hard:
     7:
     0.367,0.230,0.000,0.689,0.034: // measure 1
0000
0000
0000
0000
,  // measure 2
2000
0000
3002
0000
0023
0000
0031
2000
,  // measure 3
0000
3001
0200
0000
0320
0000
1030
0002
,  // measure 4
0000
0000
0023
0000
0000
0230
0000
2300
,  // measure 5
0000
0000
3001
0040
0000
0030
0001
2000
,  // measure 6
0000
0000
3000
0000
0000
0001
0100
0020
,  // measure 7
0000
0000
1030
0002
0000
2003
0000
3040
,  // measure 8
0000
0000
0030
0000
0000
1000
0001
0020
,  // measure 9
0000
0000
0130
2000
0000
3001
0010
0400
,  // measure 10
0000
0000
0300
0000
0000
0000
1000
0002
,  // measure 11
0000
0000
0003
0000
0000
1000
0010
2000
,  // measure 12
0000
3001
0010
0100
1000
0100
0010
0002
,  // measure 13
0000
4003
0000
0000
3000
0000
0001
0400
,  // measure 14
0000
0000
0300
0000
0000
0010
1000
0002
,  // measure 15
0000
0000
1003
0200
0000
0320
0000
0034
,  // measure 16
0000
0000
0003
0000
0000
1000
0010
0200
,  // measure 17
0000
0000
0301
2000
0000
3002
0000
0043
,  // measure 18
0000
0000
0030
0000
0000
0000
0100
4000
,  // measure 19
0000
0000
3000
0000
0000
0001
1000
0020
,  // measure 20
0000
0000
0130
0004
0000
0003
0000
1000
,  // measure 21
0200
0000
2300
0000
3001
0200
0000
0320
,  // measure 22
0000
0000
2030
0000
3000
0000
0001
0000
2000
0000
0000
3020
0000
1030
0002
0000
,  // measure 23
0003
0000
1000
0000
0200
0000
0300
0000
0020
0000
0000
0230
0000
1300
0002
0000
,  // measure 24
0003
1000
0010
1000
0001
0010
0100
0010
,  // measure 25
0001
1000
0010
0100
0010
1000
0001
0020
,  // measure 26
0030
0001
1000
0200
0000
0300
0010
0001
,  // measure 27
1000
0000
0001
0000
0100
0000
0010
0000
0100
0000
0001
2000
0000
3200
0000
0300
,  // measure 28
0000
0000
0010
0000
0002
0000
1003
0000
0010
0000
1000
0002
0000
0000
0013
0000
,  // measure 29
0200
0000
0300
1000
0002
0103
0010
2000
,  // measure 30
0000
0000
3000
0000
0000
0001
0100
0002
,  // measure 31
0000
0000
1003
0200
0000
0320
0000
0034
,  // measure 32
0000
0000
0003
0000
0000
1000
0001
2000
,  // measure 33
0000
0000
3100
0010
0001
0020
0000
0430
,  // measure 34
0000
0000
0000
0000
0300
0000
1000
0004
,  // measure 35
0000
0000
0003
0000
0000
1000
0001
2000
,  // measure 36
0000
3001
0100
0010
1000
0010
0100
0002
,  // measure 37
0000
4003
0000
0000
3000
0000
0001
0040
,  // measure 38
0000
0000
0030
0000
0000
0100
1000
0002
,  // measure 39
0000
0000
1003
0020
0000
0230
0000
0304
,  // measure 40
0000
0000
0003
0000
0000
1000
0100
2000
,  // measure 41
0000
0000
3001
2000
0000
3020
0000
0430
,  // measure 42
0000
0000
0000
0000
0300
0000
0001
4000
,  // measure 43
0000
0000
3000
0000
0000
0001
0010
0002
,  // measure 44
0000
0000
0013
0400
0000
0300
0000
1000
,  // measure 45
0002
0000
0203
0000
0310
2000
0000
3002
,  // measure 46
0000
0000
0000
0000
0000
0000
0000
0000
0000
0000
0000
0000
0000
0000
0000
0000
0000
0000
0000
0000
0000
0000
0000
0003
0004
0000
0000
0000
0000
0000
0000
0000
,  // measure 47
0000
0000
0003
0000
0000
2000
0000
3400
,  // measure 48
0000
0000
0000
0000
,  // measure 49
0300
0000
0002
2003
,  // measure 50
3002
0000
0000
0000
0000
0000
0000
0000
0000
0000
0000
0000
0000
0000
0000
0003
0004
0000
0000
0000
0000
0000
0000
0000
0003
0000
0000
0000
0200
0000
0000
0000
,  // measure 51
0000
0000
0000
0000
0000
0300
0000
0020
,  // measure 52
0000
0000
0000
0000
0000
0000
0000
0000
0000
0000
0000
0000
0000
0000
0000
0000
0000
0000
0000
0000
0000
0000
0000
0000
0000
0000
0000
0000
0000
0000
0000
0030
,  // measure 53
0040
0000
0000
0000
0000
0030
0000
0000
;

//---------------dance-single - Ace Of Arrows (2019)----------------
#NOTES:
     dance-single:
     Ace Of Arrows (2019):
     Medium:
     5:
     0.292,0.153,0.000,0.602,0.015:
0000
0000
0000
0000
,
0001
0000
1000
0000
0001
0000
1000
0020
,
0000
0000
1030
0000
0001
0000
1000
0200
,
0000
0000
0320
0000
0000
0032
0000
2003
,
0000
0000
3002
0000
0003
0000
1000
0020
,
0000
0000
0030
0000
0000
0000
1000
0002
,
0000
0000
1003
0200
0000
2300
0000
3004
,
0000
0000
0003
0000
0000
0000
1000
0200
,
0000
0000
1300
0002
0000
2003
0000
3400
,
0000
0000
0300
0000
0000
0000
0010
0002
,
0000
0000
0003
0000
0000
0000
1000
0020
,
0000
1030
0002
0000
0013
0000
0100
4000
,
0000
0000
0000
0000
3000
0000
0001
0040
,
0000
0000
0030
0000
0000
0000
0001
2000
,
0000
0000
3001
0020
0000
0032
0000
4003
,
0000
0000
3000
0000
0000
0000
0010
2000
,
0000
0000
3001
2000
0000
3200
0000
0340
,
0000
0000
0030
0000
0000
0000
0001
4000
,
0000
0000
3000
0000
0000
0000
0001
0200
,
0000
0000
0301
4000
0000
3000
0000
0001
,
0020
0000
0032
0000
1003
0020
0000
0230
,
0000
0000
0320
0000
0000
0000
0030
0000
1000
0000
0000
1000
0000
0000
1000
0000
,
0000
0000
0000
0000
0001
0000
0000
0000
0010
0000
0000
0010
0000
0000
0010
0000
,
0000
0001
2000
3000
,
0001
0000
0010
0000
0001
0000
1000
0200
,
0000
0300
1000
0002
0000
0003
0100
0000
,
0001
0100
0020
0030
,
0000
0000
1000
0000
0002
0000
0000
0000
0103
0000
0000
0200
0000
0000
0301
0000
,
2000
0000
3000
0001
0020
0000
0130
2000
,
0000
0000
3000
0000
0000
0000
0001
0200
,
0000
0000
0301
2000
0000
3200
0000
0340
,
0000
0000
0030
0000
0000
0000
0001
2000
,
0000
0000
3001
0200
0000
0320
0000
0430
,
0000
0000
0000
0000
0300
0000
0001
4000
,
0000
0000
3000
0000
0000
0000
0001
0020
,
0000
0031
2000
0000
3010
0000
0100
0004
,
0000
0000
0000
0000
0003
0000
1000
0400
,
0000
0000
0300
0000
0000
0000
1000
0002
,
0000
0000
0103
0020
0000
2030
0000
3004
,
0000
0000
0003
0000
0000
0000
1000
0002
,
0000
0000
0013
0002
0000
2003
0000
3040
,
0000
0000
0000
0000
0030
0000
0100
0004
,
0000
0000
0003
0000
0000
0000
1000
0200
,
0000
0000
1300
0004
0000
0003
0000
1000
,
0200
0000
0320
0000
0130
2000
0000
3002
,
0000
0000
0000
0000
0000
0000
0000
0000
0000
0000
0000
0000
0000
0000
0000
0000
0000
0000
0000
0000
0000
0000
0000
0003
0004
0000
0000
0000
0000
0000
0000
0000
,
0000
0000
0003
0000
0000
0020
0000
0430
,
0000
0000
0000
0000
,
0300
0000
2000
3002
,
2003
0000
0000
0000
0000
0000
3000
0200
,
0000
0000
0000
0000
0000
0300
0000
0020
,
0000
0000
0000
0000
0000
0000
0000
0000
0000
0000
0000
0000
0000
0000
0000
0000
0000
0000
0000
0000
0000
0000
0000
0000
0000
0000
0000
0000
0000
0000
0000
0030
,
0040
0000
0000
0000
0000
0030
0000
0000
;

//---------------dance-single - Ace Of Arrows (2019)----------------
#NOTES:
     dance-single:
     Ace Of Arrows (2019):
     Easy:
     3:
     0.169,0.076,0.000,0.281,0.000:
0000
0000
0000
0000
,
1000
0000
0010
0010
,
0020
0000
0030
0000
,
0100
0100
0000
0000
,
0002
0000
0000
0000
0003
0000
0000
2000
,
0000
0000
3000
0000
0000
0000
0000
0002
,
0000
0000
0003
0010
0000
0010
0000
0040
,
0000
0000
0030
0000
0000
0000
0000
0200
,
0000
0300
0000
1000
0000
1000
0000
4000
,
0000
0000
3000
0000
0000
0000
0000
0002
,
0000
0000
0003
0000
0000
0000
0000
0100
,
0000
0000
0100
0000
0100
0000
0000
0040
,
0000
0000
0000
0000
0030
0000
0000
4000
,
0000
0000
3000
0000
0000
0000
0000
0002
,
0000
0003
0000
0010
0000
0010
0000
0040
,
0000
0000
0030
0000
0000
0000
0000
0200
,
0000
0300
0000
1000
0000
1000
0000
4000
,
0000
0000
3000
0000
0000
0000
0000
0004
,
0000
0000
0003
0000
0000
0000
0000
0200
,
0000
0300
0000
0400
0000
0000
0300
0000
,
0001
0000
0001
0000
0001
0000
0000
2000
,
0000
3000
0100
0200
,
0300
0010
0010
0020
,
0030
0001
0002
0003
,
1000
1000
2000
3000
,
0000
0020
0000
0030
,
0100
0100
0200
0300
,
0000
0001
0002
0003
,
0001
0000
0000
0000
2000
0000
3000
2000
,
0000
0000
3000
0000
0000
0000
0000
0200
,
0000
0300
0000
0010
0000
0010
0000
0040
,
0000
0000
0030
0000
0000
0000
0000
0002
,
0000
0003
0000
1000
0000
1000
0000
4000
,
0000
0000
0000
0000
3000
0000
0000
0400
,
0000
0000
0300
0000
0000
0000
0000
0020
,
0000
0030
0010
0000
0010
0000
0000
0004
,
0000
0000
0000
0000
0003
0000
0000
4000
,
0000
0000
3000
0000
0000
0000
0000
0020
,
0000
0030
0000
0100
0000
0100
0000
0400
,
0000
0000
0300
0000
0000
0000
0000
0002
,
0000
0003
0000
1000
0000
1000
0000
4000
,
0000
0000
0000
0000
3000
0000
0000
0400
,
0000
0000
0300
0000
0000
0000
0000
0020
,
0000
0000
0030
0040
0000
0000
0030
0000
,
0100
0000
0100
0000
0100
0000
0000
2000
,
0000
0000
0000
0000
,
0000
0000
3000
0000
0000
0001
0000
0004
,
0000
0000
0000
0000
,
0003
0000
0010
0010
,
0020
0000
0000
0000
0030
0000
0000
0200
,
0000
0000
0000
0000
0000
0300
0000
2000
,
0000
0000
0000
0000
0000
0000
0000
0000
0000
0000
0000
0000
0000
0000
0000
0000
0000
0000
0000
0000
0000
0000
0000
0000
0000
0000
0000
0000
0000
0000
0000
3000
,
4000
0000
3000
0000
;

//---------------dance-single - Ace Of Arrows (2019)----------------
#NOTES:
     dance-single:
     Ace Of Arrows (2019):
     Beginner:
     1:
     0.115,0.051,0.000,0.155,0.000:
0000
0000
0000
0000
,
0001
0000
0001
0000
,
0002
0000
0003
0000
,
2000
0000
3000
0000
,
0010
0000
0010
0000
,
0020
0000
0000
0030
0000
0000
0000
0000
,
0100
0000
0100
0000
,
0400
0000
0000
0300
0000
0000
0000
0000
,
0001
0000
0001
0000
,
0004
0000
0000
0003
0000
0000
0000
0000
,
2000
0000
0000
3000
0000
0000
0000
0000
,
0010
0000
0010
0000
,
0040
0000
0030
0000
,
0400
0000
0000
0300
0000
0000
0000
0000
,
0001
0000
0001
0000
,
0004
0000
0000
0003
0000
0000
0000
0000
,
1000
0000
1000
0000
,
4000
0000
0000
3000
0000
0000
0000
0000
,
0400
0000
0000
0300
0000
0000
0000
0000
,
0020
0000
0030
0000
,
0001
0000
0001
0000
,
0001
0000
2000
0000
,
3000
0000
2000
0000
,
3000
0000
0010
0000
,
0010
0000
0020
0000
,
0030
0000
0100
0000
,
0100
0000
0200
0000
,
0300
0000
0001
0000
,
0002
0000
0003
0000
,
2000
0000
0000
3000
0000
0000
0000
0000
,
0010
0000
0010
0000
,
0040
0000
0000
0030
0000
0000
0000
0000
,
0100
0000
0100
0000
,
0400
0000
0000
0300
0000
0000
0000
0000
,
0004
0000
0000
0003
0000
0000
0000
0000
,
1000
0000
1000
0000
,
4000
0000
3000
0000
,
0400
0000
0000
0300
0000
0000
0000
0000
,
0010
0000
0010
0000
,
0040
0000
0000
0030
0000
0000
0000
0000
,
0001
0000
0001
0000
,
0004
0000
0000
0003
0000
0000
0000
0000
,
4000
0000
0000
3000
0000
0000
0000
0000
,
0200
0000
0300
0000
,
0010
0000
0010
0000
,
0020
0000
0000
0000
,
0000
0030
0000
0000
,
0004
0000
0000
0000
,
0003
0000
1000
0000
,
2000
0000
3000
0000
,
0200
0000
0000
0000
0300
0000
0000
0020
,
0000
0000
0000
0000
,
0000
0000
0030
0000
;
