#TITLE:Look At Me;
#SUBTITLE:;
#ARTIST:Mitssi feat. Taka;
#TITLETRANSLIT:;
#SUBTITLETRANSLIT:;
#ARTISTTRANSLIT:;
#GENRE:;
#CREDIT:Ace Of Arrows;
#BANNER:Look At Me Banner.png;
#BACKGROUND:Look At Me - Bg.jpg;
#LYRICSPATH:;
#CDTITLE:Ace Of Arrows.png;
#MUSIC:Look At Me.ogg;
#OFFSET:1.220;
#SAMPLESTART:43.700;
#SAMPLELENGTH:12.000;
#SELECTABLE:YES;
#BPMS:0.000=69.000,12.000=138.000,28.000=69.000,44.000=138.000;
#STOPS:;
#BGCHANGES:;
#KEYSOUNDS:;

//---------------dance-single - AceOfArrows (2019)----------------
#NOTES:
     dance-single:
     AceOfArrows (2019):
     Hard:
     7:
     0.490,0.254,0.029,1.000,0.251:
0000
0000
0000
0000
,
0002
0000
0000
0013
0000
0200
0000
0000
2300
0000
0000
3001
0000
0100
0010
0000
,
2000
0000
0000
3002
0000
1003
0200
0000
0320
0000
0000
0230
0000
4300
0000
0000
,
3004
0000
0043
0000
,
0430
0000
4300
0000
,
3001
0000
0000
0000
0000
0000
0000
0000
0101
0000
0000
0100
0000
0000
0010
0000
,
1000
0000
0000
0001
0000
0010
0001
1000
,
0002
0000
0000
1003
0100
0010
0100
1000
0002
0000
0000
0023
0000
0000
0000
0030
,
0000
0200
0300
2000
0000
3000
0001
0010
0002
0000
1003
0200
0000
0000
0000
0000
,
0300
0000
0000
0010
0001
0010
0100
1000
0002
0000
0000
2003
0000
0000
3010
0000
,
0200
0000
0000
0302
0000
0000
0000
0000
0000
0000
0000
0000
0003
0000
0000
0000
,
2002
0000
3003
1000
0100
0010
0100
1000
,
0002
0000
0013
0200
0000
1300
0001
0100
,
0020
0000
0030
0200
0000
0301
1000
0100
,
0020
0000
0130
2000
0000
3000
0002
0000
,
0023
0000
0000
0230
0000
0000
1300
0000
0002
0000
0000
0000
1003
0000
0010
0000
,
0200
0000
0000
0000
0300
0000
0001
0000
2000
0000
0000
3002
0000
0000
0203
0000
,
0000
0000
0000
0020
0000
0000
0000
0000
0000
0000
0000
0000
0000
0000
0000
0000
,
0000
0000
0000
0000
0000
0330
0100
0001
,
2000
0000
0000
3002
0000
0000
0013
0000
0200
0000
0000
0000
1300
0000
0001
0000
,
2000
0000
0000
3020
0000
0000
0130
0000
0002
0000
0000
0000
0003
0000
1000
0000
,
0200
0000
0000
0320
0000
0000
0031
0000
2000
0000
0000
3020
0000
0000
0130
0000
,
0002
0000
0000
2003
0000
0000
3100
0000
0020
0000
0000
0000
0030
0000
0100
0000
,
2000
0000
0000
3002
0000
0000
0103
0000
0020
0000
0000
2030
0000
0000
3001
0000
,
0020
0000
0000
0230
0000
0000
1300
0000
0001
0000
0000
0000
0000
0000
2000
0000
,
0200
3000
0000
0320
0000
0031
1000
0010
,
0200
0000
0000
0302
0000
0000
1003
0000
0200
0000
0000
0000
0310
0000
0001
0000
,
2000
0000
0000
3020
0000
0000
0130
0000
0002
0000
0000
0000
1003
0000
0100
0000
,
0020
0000
0000
0230
0000
0000
1300
0000
0002
0000
0000
0000
0003
0000
1000
0000
,
0020
0000
0130
0002
0000
0000
1003
0000
0200
0000
0000
0320
0000
0000
0031
0000
,
2000
0000
0000
3020
0000
0000
0130
0000
0002
0000
0000
0000
0003
0000
1000
0000
,
0200
0000
0000
0320
0000
0000
0031
0000
2000
0000
0000
3002
0000
0000
0103
0000
,
0020
0000
0000
2030
0000
0000
3001
0000
0200
0000
0300
0000
0000
0000
0010
0000
,
0200
0000
0000
0302
0000
0000
1003
0000
0200
0000
0000
0320
0000
0000
0031
0000
,
2000
0000
0000
3200
0000
0000
0000
0000
0000
0000
0000
0000
0300
0000
0020
0000
,
0430
0000
0000
0000
,
2300
0000
0000
3002
0000
1003
0010
0100
,
0020
0000
0000
0000
0000
0000
4030
0004
0000
0000
0000
0000
0000
0000
0000
0000
,
3003
0000
0000
1000
0020
0000
1030
0001
,
0400
0040
0000
0000
0000
0000
0000
0000
0000
0000
0000
0000
0330
0000
0000
0000
,
0400
0004
0000
0000
0000
0000
0000
0000
0000
0000
0000
0000
0000
0000
0000
0000
,
0303
0000
0000
0000
0000
0000
0001
0000
2000
0000
0000
3200
0000
0000
0310
0000
,
0002
0000
0003
4000
0000
0000
3010
0100
,
0002
0000
0000
2003
0000
0000
3100
0000
0020
0000
0000
0000
0130
0000
1000
0000
,
0002
0000
0000
0203
0000
0000
0310
0000
2000
0000
0000
0000
3000
0000
0001
0000
,
0020
0000
0000
0230
0000
0000
0310
0000
0002
0000
0000
2003
0000
0000
3010
0000
,
0200
0000
0000
0302
0000
0000
1003
0000
0020
0000
0000
0000
0030
0000
0100
0000
,
0002
0000
0000
2003
0000
0000
3100
0000
0020
0000
0000
0230
0000
0000
1300
0000
,
0002
0000
0000
2003
0000
0000
3010
0000
1000
0000
0000
0000
0000
0000
0002
0000
,
0200
0003
0000
0320
0000
1030
0001
0010
,
0200
0000
0000
2300
0000
0000
3001
0000
0200
0000
0000
0000
0310
0000
0100
0000
,
0002
0000
0000
2003
0000
0000
3100
0000
0020
0000
0000
0000
0130
0000
1000
0000
,
0002
0000
0000
0203
0000
0000
0310
0000
2000
0000
0000
0000
3000
0000
0001
0000
,
2000
0000
3100
0020
0000
0000
0031
0000
2000
0000
0000
3020
0000
0000
0130
0000
,
0002
0000
0000
2003
0000
0000
3010
0000
0200
0000
0000
0000
0300
0000
0001
0000
,
2000
0000
0000
3200
0000
0000
0310
0000
0200
0000
0000
2300
0000
0000
3001
0000
,
0200
0000
0000
0320
0000
0000
1030
0000
0002
0000
0000
0023
0000
0000
0130
0000
,
2000
0000
3000
0002
0000
1003
0010
0100
,
0002
0000
0000
2003
0000
3100
1000
0001
,
0020
0000
0000
0200
0000
0000
0000
0000
,
0000
0000
0000
0030
,
2300
0000
0000
3002
0000
0103
0010
1000
,
0002
0000
0003
2000
0000
3010
1000
0001
,
4000
0400
0000
0000
0000
0000
0000
0000
0000
0000
0000
0000
3300
0000
0000
0000
,
0040
0004
0000
0000
0000
0000
0000
0000
0000
0000
0000
0000
0000
0000
0000
0000
,
0033
0000
0000
1001
0000
0000
1000
0000
,
1010
0000
0000
0020
0000
0430
0000
0000
,
0302
0000
1003
0020
0000
0230
0000
0000
,
0000
0000
0000
0000
,
0000
0000
0000
0300
;

//---------------dance-single - AceOfArrows (2019)----------------
#NOTES:
     dance-single:
     AceOfArrows (2019):
     Challenge:
     10:
     0.784,0.380,0.327,0.894,0.782:
0000
0000
0000
0000
,
1000
0010
0100
0002
0000
2003
0000
0000
3100
0010
0001
2000
0000
3010
0100
0001
,
0100
0010
1000
0002
0000
0013
0100
1000
0002
1000
0100
2003
0000
3400
0000
0300
,
0040
0004
0000
0000
0000
0000
0033
0000
0004
4000
0000
0000
0000
0000
0000
3003
,
1000
0010
0100
0010
1000
0001
0010
0100
0010
0001
1000
0001
0100
0001
1000
0100
,
2000
3000
0000
0000
0000
0000
0100
0010
0001
0000
0000
1001
0000
0000
1000
0000
,
0020
0030
0000
0000
0000
0000
0110
0000
0000
0000
0100
0000
0001
1000
0010
1000
,
0002
0000
0000
0103
0010
1000
0001
0010
0200
1000
0010
2300
0000
3002
0000
0000
,
0023
0230
0000
2300
0000
0000
3001
0100
0020
1000
0100
2030
0000
0002
3000
0000
,
0023
0001
0100
0031
1000
0010
0100
0001
0200
0010
0001
0320
0000
0000
1030
0001
,
0200
0001
0010
0302
0000
2000
0000
3000
0020
0000
0030
0000
2003
0000
0000
3000
,
1020
0000
0130
0001
1000
0000
0100
0000
0010
0001
1000
0000
0010
0000
0100
0000
,
0102
0000
0000
1003
0100
0000
0120
0000
0000
0000
0031
0000
1000
0010
0100
0000
,
0001
0000
1000
0001
1000
0000
0100
0000
0010
0100
1000
0000
0001
0000
0100
0000
,
0120
0000
1030
0001
0010
0000
0200
0000
0000
0000
0300
0000
2000
0000
0000
3000
,
1002
0000
0000
0203
0000
0000
0310
0000
2000
0000
0000
0000
3001
0000
1000
0000
,
2200
0000
0000
0000
3300
0000
0100
0000
0120
0000
0000
0002
0030
0000
2000
0000
,
0000
0000
0000
0020
0000
0000
0000
0000
0000
0000
0000
0000
3033
0000
0000
0000
,
0001
0010
0100
1000
0100
0010
0001
1000
0010
0100
0001
0100
0010
1000
0001
0010
,
0200
0000
1300
0001
0000
0001
1000
0000
0010
0100
0010
0000
1000
0000
0001
0000
,
0020
0000
0130
1000
0000
1000
0001
0000
1000
0010
1000
0000
0001
0000
0010
0000
,
0210
0000
1300
0001
0000
0001
0100
0000
0120
0000
1030
0001
0000
0001
1000
0000
,
1200
0000
0310
0001
0000
0001
1000
0000
1020
0000
0130
0000
0101
0000
0001
0000
,
2001
0000
0000
0100
0000
0000
3001
0000
0201
0000
0000
0010
0000
0000
0301
0000
,
2001
0000
0000
0000
0000
0000
0000
0000
0000
0100
0000
0000
0000
0000
0000
0000
0000
0000
3001
0000
0000
0000
0000
0000
0101
0000
0000
0000
0000
0000
0000
0000
0000
0000
0000
0000
0000
0000
0000
0000
0100
0000
0020
0000
0000
0000
0000
0000
,
0230
0000
0000
0000
0300
0000
0001
1000
0100
0010
0100
1000
0001
0010
0100
0010
,
0001
1000
0010
0100
0010
1000
0001
0010
0100
0010
0001
1000
0010
0100
0001
0000
,
2000
0000
3100
0010
0000
0010
0001
0000
1000
0010
1000
0000
0001
0000
0010
0000
,
0200
0000
1300
0001
0000
0001
0010
0000
0100
0010
0100
0000
1000
0000
0001
0000
,
0201
0000
0310
1000
0000
1000
0001
0000
0010
0100
0010
0100
0000
1000
0001
0000
,
0201
0000
0310
1000
0000
1000
0001
0000
0010
0100
0010
0000
0001
0000
1000
0000
,
1020
0000
0000
0100
0000
0000
1030
0000
1002
0000
0000
0010
0000
0000
1003
0000
,
1200
0000
0000
0010
0000
0000
1300
0000
1001
0000
0000
0000
0000
0000
0001
0000
,
0201
0000
0310
1000
0000
1000
0001
0000
0021
0000
0130
1000
0000
1000
0001
0000
,
0201
0000
0310
2000
0000
0000
3001
0000
0010
0000
0100
0000
1000
0000
0001
0100
,
0004
0000
0003
1001
0000
1000
0100
0010
,
0012
0000
0003
2001
0000
3020
0000
0030
,
0210
0000
0000
0000
0000
0000
0301
0100
0010
1000
0010
0100
0001
1000
0100
0010
,
0001
0000
0000
0000
0000
0000
1000
0100
0020
0000
0000
0130
2000
0000
3001
1000
,
0100
0010
0100
0010
0001
1000
0010
0100
0001
1000
0001
1000
0100
0010
0001
0010
,
0100
1000
0001
1000
0010
0100
0010
1000
0001
0010
0100
1000
0100
0010
0001
0010
,
0200
0300
0000
0000
0000
0000
1000
0001
0020
0000
0000
0032
0000
0000
1003
0000
,
0020
0000
0000
0000
0030
0000
0200
0000
0301
1000
0100
1000
0001
0100
0010
1000
,
0002
0000
0000
0023
0000
0000
0130
0000
2000
0000
0000
0000
3001
0000
0100
0000
,
0020
0000
0000
2030
0000
0000
3001
0000
0020
0000
0000
0000
0030
0000
0100
0000
,
2000
0000
0000
3002
0000
0000
0103
0000
0020
0000
0000
2030
0000
0000
3001
0000
,
0020
0000
0000
0032
0000
0000
1003
0000
0020
0000
0000
0000
0030
0000
0100
0000
,
0002
0000
0000
2003
0000
0000
3100
0000
0020
0000
0000
0230
0000
0000
1300
0000
,
0002
0000
0000
0000
0000
0000
0000
0000
0000
2003
0000
0000
0000
0000
0000
0000
0000
0000
3010
0000
0000
0000
0000
0000
0100
0000
0000
0000
0000
0000
0000
0000
0000
0000
0000
0000
0000
0000
0000
0000
0001
0000
2000
0000
0000
0000
0000
0000
,
3200
0000
0000
0320
0000
0130
1000
0001
,
0201
0000
0310
0100
0010
0000
1000
0001
0100
0001
1000
0100
1000
0000
0001
0000
,
0201
0000
0310
1000
0000
1000
0001
0000
0010
0100
0010
0000
0001
0000
1000
0000
,
1020
0000
0130
0001
0000
0001
1000
0000
0100
0010
0100
0000
1000
0000
0001
0000
,
0201
0000
0310
1000
0000
1000
0001
0000
0010
0100
1000
0100
0010
0001
1000
0010
,
0100
0001
1000
0010
1000
0001
0100
0001
1000
0100
0010
0001
1000
0010
0100
0000
,
0102
0000
0000
1000
0000
0000
0103
0000
0120
0000
0000
1000
0000
0000
0130
0000
,
0102
0000
0000
1000
0000
0000
0013
0000
0120
0000
0000
0001
0000
0000
0130
0000
,
2200
0000
3300
2002
3000
0103
0010
1000
,
1002
0000
0013
0100
0010
0000
0001
1000
0100
1000
0001
0100
0010
1000
0010
0100
,
0002
0000
0000
2000
0003
0100
0001
0010
,
0001
0000
0000
0100
0000
0001
0100
0001
,
3020
0000
0000
0230
0000
0301
1000
0010
,
2010
0000
0000
0000
0000
0000
3002
0000
0000
0000
0013
0100
1000
0100
0010
0001
,
1000
0010
1000
0010
0100
0001
0100
0001
1000
0100
1000
0100
0010
0001
0010
0001
,
1000
0001
1000
0001
0100
0010
0100
0010
1000
0001
1000
0001
0010
0100
1000
0100
,
0020
0030
0000
0000
0000
0000
0022
0033
0000
0000
0000
0000
0001
0000
0000
0000
,
2002
3003
0000
0000
0000
0000
1000
0010
0100
0001
0100
0010
1000
0001
1000
0100
,
0020
0000
0130
2000
0000
3002
0000
0000
,
0000
0000
0000
0000
,
0000
0000
0000
0003
;

//---------------dance-single - Ace Of Arrows (2019)----------------
#NOTES:
     dance-single:
     Ace Of Arrows (2019):
     Medium:
     5:
     0.269,0.152,0.000,0.429,0.142:
0000
0000
0000
0000
,
1000
0000
0000
2000
0000
0000
3000
0000
0001
0000
0000
0002
0000
0000
0003
0000
,
0100
0000
0000
0200
0000
0000
0300
0000
0010
0000
0000
0020
0000
0000
0030
0000
,
4000
0000
3004
0000
,
0043
0000
0430
0000
,
1300
0000
0001
0100
,
0001
0000
1000
0001
,
2000
0000
0000
0000
3001
0000
0010
0000
0001
0000
0000
0002
0000
0000
0000
0003
,
0000
1000
0000
0200
0000
0000
0310
0000
0002
0000
0000
2003
0000
0000
0000
0000
,
3000
0000
0000
0000
0001
0000
0100
0000
0002
0000
0000
0003
0000
0000
1000
0000
,
1000
0000
0000
0200
0000
0000
0000
0000
0000
0000
0000
0000
0300
0000
0000
0000
,
0000
0000
0010
0001
,
2000
0000
3001
0100
0000
0000
0001
0000
,
2000
0000
3000
0002
0000
0003
1000
0000
,
0020
0000
1030
0002
0000
0000
1003
0000
,
0200
0000
1300
0000
0002
0000
1003
0100
,
2000
0000
0000
0000
3000
0000
0001
0000
0200
0000
0000
0301
0000
0000
1000
0000
,
0000
0000
0000
0002
0000
0000
0000
0000
0000
0000
0000
0000
0000
0000
0000
0000
,
0000
0000
0003
1000
,
0002
0000
0000
0003
0000
0000
0010
0000
0020
0000
0000
0000
0130
0000
0000
0000
,
2000
0000
0000
3000
0000
0000
0001
0000
0002
0000
0000
0000
0003
0000
0000
0000
,
1000
0000
0000
1000
0000
0000
0000
0000
0010
0000
0000
0010
0000
0000
0000
0000
,
0100
0000
0000
0100
0000
0000
0000
0000
0200
0000
0000
0000
0300
0000
0000
0000
,
0001
0000
0000
0001
0000
0000
0000
0000
1000
0000
0000
1000
0000
0000
0000
0000
,
0100
0000
0000
0100
0000
0000
0000
0000
0100
0000
0000
0000
0000
0000
0020
0000
,
0000
0030
0001
1000
,
0002
0000
0000
0103
0200
0000
0300
0000
,
0020
0000
0000
0030
0000
0000
1000
0000
2000
0000
0000
0000
3001
0000
0000
0000
,
0020
0000
0000
0030
0000
0000
0100
0000
0200
0000
0000
0000
0300
0000
0000
0000
,
1000
0000
0000
1000
0000
0000
0000
0000
0001
0000
0000
0001
0000
0000
0000
0000
,
0010
0000
0000
0010
0000
0000
0000
0000
0020
0000
0000
0000
0030
0000
0000
0000
,
0100
0000
0000
0100
0000
0000
0000
0000
1000
0000
0000
1000
0000
0000
0000
0000
,
0001
0000
0000
0001
0000
0000
0000
0000
0001
0000
0000
0000
0000
0000
0000
0000
,
0100
0000
0000
0100
0000
0000
0000
0000
0001
0000
0000
0001
0000
0000
0000
0000
,
1000
0000
0000
2000
0000
0000
0000
0000
0000
0000
3000
0000
0000
0000
0000
0000
,
0004
0000
0000
0000
,
0103
0000
0000
0100
0000
0000
0000
0000
,
0010
0000
0000
0040
0000
0000
0000
0000
,
1030
0000
0000
1000
0000
0000
0001
0000
,
4000
0000
3000
0000
,
0400
0000
0300
0000
,
0010
0000
0000
0010
0000
0000
0000
0000
,
0001
0000
0000
0001
0000
0000
0000
0000
,
2000
0000
0000
3001
0001
0000
0000
0000
,
0020
0000
0000
0030
0000
0000
0100
0000
0100
0000
0000
0000
0000
0000
0000
0000
,
1000
0000
0000
1000
0000
0000
0000
0000
0001
0000
0000
0001
0000
0000
0000
0000
,
0010
0000
0000
0010
0000
0000
0000
0000
0020
0000
0000
0000
0030
0000
0000
0000
,
0100
0000
0000
0100
0000
0000
0000
0000
1000
0000
0000
1000
0000
0000
0000
0000
,
0001
0000
0000
0001
0000
0000
0000
0000
0001
0000
0000
0000
0000
0000
2000
0000
,
0000
0000
3000
0010
0000
0010
0000
0000
,
0200
0000
0000
0300
0000
0000
0001
0000
0002
0000
0000
0000
0003
0000
0000
0000
,
2000
0000
0000
3000
0000
0000
0001
0000
0002
0000
0000
0000
0013
0000
0000
0000
,
0020
0000
0000
0030
0000
0000
0100
0000
0200
0000
0000
0000
0300
0000
0000
0000
,
1000
0000
0000
1000
0000
0000
0000
0000
0001
0000
0000
0001
0000
0000
0000
0000
,
0100
0000
0000
0100
0000
0000
0000
0000
0200
0000
0000
0000
0300
0000
0000
0000
,
0010
0000
0000
0010
0000
0000
0000
0000
0100
0000
0000
0100
0000
0000
0000
0000
,
0001
0000
0000
0001
0000
0000
0000
0000
1000
0000
0000
1000
0000
0000
0000
0000
,
2000
0000
3000
0002
0000
0000
0013
0000
,
0002
0000
0000
2003
0000
0000
3010
0000
,
0200
0000
0000
0002
0000
0000
0000
0000
,
0000
0000
0303
0000
,
0200
0000
0000
0320
0000
0000
1030
0000
,
0002
0000
0000
0023
0000
0000
0130
0000
,
4000
0000
3000
0000
,
0004
0000
0003
0000
,
1000
0000
0000
0010
0000
0000
1000
0000
,
0001
0000
0000
1000
0000
0400
0000
0000
,
0320
0000
0000
0032
0000
2003
0000
0000
,
0000
0000
0000
0000
,
0000
0000
0000
3000
;

//---------------dance-single - Ace Of Arrows (2019)----------------
#NOTES:
     dance-single:
     Ace Of Arrows (2019):
     Easy:
     3:
     0.168,0.101,0.000,0.131,0.000: // measure 1
0000
0000
0000
0000
,  // measure 2
0001
0001
0002
0003
,  // measure 3
1000
1000
2000
3000
,  // measure 4
0004
0000
0003
0000
,  // measure 5
4000
0000
0000
0000
,  // measure 6
3000
0000
0010
0000
,  // measure 7
0020
0000
0030
0000
,  // measure 8
0000
0100
0200
0000
,  // measure 9
0300
0001
0001
0002
,  // measure 10
0003
1000
2000
3000
,  // measure 11
0100
0200
0000
0300
,  // measure 12
0000
0000
0010
0010
,  // measure 13
0020
0000
0030
0000
,  // measure 14
0001
0000
1000
1000
,  // measure 15
2000
0000
3000
0000
,  // measure 16
0010
0010
0010
0000
,  // measure 17
1000
0000
0001
0001
,  // measure 18
0002
0000
0000
0000
,  // measure 19
0000
0000
0003
0000
,  // measure 20
0100
0100
0100
0000
,  // measure 21
0010
0010
0010
0000
,  // measure 22
1000
1000
1000
0000
,  // measure 23
0001
0001
0001
0000
,  // measure 24
0010
0010
0010
0000
,  // measure 25
0100
0100
0100
0000
,  // measure 26
2000
0000
3000
0000
,  // measure 27
0001
0001
0001
0000
,  // measure 28
0100
0100
0100
0000
,  // measure 29
0010
0010
0010
0000
,  // measure 30
1000
1000
1000
0000
,  // measure 31
0001
0001
0001
0000
,  // measure 32
0010
0010
0010
0000
,  // measure 33
0100
0100
0100
0000
,  // measure 34
1000
1000
1000
0000
,  // measure 35
0002
0000
0003
0000
,  // measure 36
0400
0000
0000
0000
,  // measure 37
0300
0000
0000
0000
,  // measure 38
0010
0000
0040
0000
,  // measure 39
0030
0000
1000
0000
,  // measure 40
4000
0000
3000
0000
,  // measure 41
0004
0000
0003
0000
,  // measure 42
0010
0000
0010
0000
,  // measure 43
0020
0000
0030
0000
,  // measure 44
0100
0100
0100
0000
,  // measure 45
1000
1000
1000
0000
,  // measure 46
0001
0001
0001
0000
,  // measure 47
0100
0100
0100
0000
,  // measure 48
0010
0010
0010
0000
,  // measure 49
1000
1000
1000
0000
,  // measure 50
0002
0000
0003
0000
,  // measure 51
0010
0010
0010
0000
,  // measure 52
0100
0100
0100
0000
,  // measure 53
1000
1000
1000
0000
,  // measure 54
0001
0001
0001
0000
,  // measure 55
0100
0100
0100
0000
,  // measure 56
0001
0001
0001
0000
,  // measure 57
1000
1000
1000
0000
,  // measure 58
0100
0000
0010
0010
,  // measure 59
0010
0000
0001
0001
,  // measure 60
0001
0000
0002
0000
,  // measure 61
0000
0000
0003
0000
,  // measure 62
1000
0000
1000
0000
,  // measure 63
2000
0000
3000
0000
,  // measure 64
0040
0000
0030
0000
,  // measure 65
0400
0000
0300
0000
,  // measure 66
0001
0000
0001
0000
,  // measure 67
0002
0000
0003
0000
,  // measure 68
1000
0000
2000
0000
,  // measure 69
0000
0000
0000
0000
,  // measure 70
0000
0000
0000
3000
;

//---------------dance-single - Ace Of Arrows (2019)----------------
#NOTES:
     dance-single:
     Ace Of Arrows (2019):
     Beginner:
     1:
     0.074,0.051,0.000,0.138,0.000: // measure 1
0000
0000
0000
0000
,  // measure 2
1000
0000
1000
0000
,  // measure 3
2000
0000
3000
0000
,  // measure 4
0004
0000
0000
0000
,  // measure 5
0000
0000
0000
0000
,  // measure 6
0003
0000
0000
0000
,  // measure 7
0020
0000
0030
0000
,  // measure 8
0000
0100
0200
0300
,  // measure 9
0000
1000
2000
3000
,  // measure 10
0000
0000
0001
0000
,  // measure 11
0002
0000
0000
0003
,  // measure 12
0000
0000
0000
0000
,  // measure 13
0200
0000
0300
0000
,  // measure 14
0010
0000
0000
0000
,  // measure 15
0020
0000
0030
0000
,  // measure 16
1000
0000
0000
0000
,  // measure 17
1000
0000
0000
0000
,  // measure 18
2000
0000
0000
0000
,  // measure 19
0000
0000
3000
0000
,  // measure 20
0001
0000
0000
0000
,  // measure 21
0001
0000
0000
0000
,  // measure 22
0002
0000
0000
0000
,  // measure 23
0003
0000
0000
0000
,  // measure 24
0010
0000
0000
0000
,  // measure 25
0010
0000
0000
0000
,  // measure 26
0020
0000
0000
0000
,  // measure 27
0030
0000
0000
0000
,  // measure 28
0100
0000
0000
0000
,  // measure 29
0100
0000
0000
0000
,  // measure 30
0200
0000
0000
0000
,  // measure 31
0300
0000
0000
0000
,  // measure 32
1000
0000
0000
0000
,  // measure 33
1000
0000
0000
0000
,  // measure 34
2000
0000
0000
0000
,  // measure 35
3000
0000
0000
0000
,  // measure 36
0400
0000
0000
0000
,  // measure 37
0300
0000
0000
0000
,  // measure 38
0040
0000
0000
0000
,  // measure 39
0030
0000
0000
0000
,  // measure 40
0004
0000
0000
0000
,  // measure 41
0003
0000
0000
0000
,  // measure 42
2000
0000
0000
0000
,  // measure 43
3000
0000
0000
0000
,  // measure 44
0100
0000
0000
0000
,  // measure 45
0100
0000
0000
0000
,  // measure 46
0200
0000
0000
0000
,  // measure 47
0300
0000
0000
0000
,  // measure 48
0010
0000
0000
0000
,  // measure 49
0010
0000
0000
0000
,  // measure 50
0020
0000
0000
0000
,  // measure 51
0030
0000
0000
0000
,  // measure 52
0001
0000
0000
0000
,  // measure 53
0001
0000
0000
0000
,  // measure 54
0002
0000
0000
0000
,  // measure 55
0003
0000
0000
0000
,  // measure 56
1000
0000
0000
0000
,  // measure 57
1000
0000
0000
0000
,  // measure 58
2000
0000
0000
0000
,  // measure 59
3000
0000
0000
0000
,  // measure 60
0020
0000
0000
0000
,  // measure 61
0030
0000
0000
0000
,  // measure 62
0100
0000
0000
0000
,  // measure 63
0100
0000
0000
0000
,  // measure 64
0400
0000
0000
0000
,  // measure 65
0300
0000
0000
0000
,  // measure 66
0001
0000
0000
0000
,  // measure 67
0001
0000
0000
0000
,  // measure 68
0002
0000
0000
0000
,  // measure 69
0000
0000
0000
0000
,  // measure 70
0000
0000
0000
0003
;
