#TITLE:Good Morning;
#SUBTITLE:;
#ARTIST:Chata;
#TITLETRANSLIT:;
#SUBTITLETRANSLIT:;
#ARTISTTRANSLIT:;
#GENRE:;
#CREDIT:Ace Of Arrows;
#BANNER:Good Morning - Bn.png;
#BACKGROUND:Good Morning - Bg.jpg;
#LYRICSPATH:;
#CDTITLE:Ace Of Arrows.png;
#MUSIC:Good Morning.ogg;
#OFFSET:0.353;
#SAMPLESTART:77.100;
#SAMPLELENGTH:12.000;
#SELECTABLE:YES;
#BPMS:0.000=132.000,495.000=66.000,511.000=132.000,623.000=66.000;
#STOPS:;
#BGCHANGES:;
#KEYSOUNDS:;

//---------------dance-single - Ace Of Arrows (2019)----------------
#NOTES:
     dance-single:
     Ace Of Arrows (2019):
     Hard:
     8:
     0.573,0.335,0.271,1.000,0.118: // measure 1
0000
0000
0000
0000
,  // measure 2
0002
0000
1003
0040
0030
0200
0000
0000
,  // measure 3
0302
0000
1003
0200
0000
0320
0000
0230
,  // measure 4
0000
2300
0000
3000
0000
0002
0000
0000
,  // measure 5
2003
0000
0000
3001
0020
0000
0130
0000
0010
0000
0002
0000
0000
0000
2003
0000
,  // measure 6
0000
0000
3020
0000
0000
0000
0030
0000
0000
0000
1000
0001
2000
0000
3100
0000
,  // measure 7
0010
0002
0000
2003
3000
0200
0000
0310
,  // measure 8
0001
2000
0000
3010
0100
0002
2003
0000
,  // measure 9
3002
0000
0013
0100
1000
0200
0000
0300
,  // measure 10
0000
0000
1000
0000
0002
0000
0000
0203
0000
0000
0310
0000
2000
0000
0000
0000
,  // measure 11
3001
0000
0010
0000
0100
1000
0100
0010
,  // measure 12
0001
1000
0000
0000
0000
0010
0100
0000
,  // measure 13
0001
0000
1000
0010
0100
0001
0000
1000
,  // measure 14
0100
2000
0000
3001
0010
0000
0001
0000
,  // measure 15
1000
0000
0001
0000
1000
0100
0010
0001
,  // measure 16
0010
0100
0000
1000
0001
0010
0001
0000
,  // measure 17
1000
0000
0001
0010
0100
2000
0000
3100
,  // measure 18
0010
0001
2000
0000
3200
0300
0120
0000
,  // measure 19
0032
0000
2003
0000
3001
0200
0000
0301
,  // measure 20
1000
0100
0010
0001
2000
0000
3000
0000
,  // measure 21
0010
0000
0210
0000
0301
2000
0000
3100
,  // measure 22
1000
0001
0201
0000
0320
0000
0030
0000
,  // measure 23
2000
0000
3001
0010
0100
0020
0000
0031
,  // measure 24
1000
0002
0000
0003
0000
1000
1200
0000
,  // measure 25
0310
0002
0000
2003
3000
1020
0000
0130
,  // measure 26
0001
1000
0100
0010
0001
1000
2020
0000
,  // measure 27
3030
0010
0220
0000
0330
0100
0001
1000
,  // measure 28
0001
0000
0020
0000
0000
0000
0030
0000
0000
0000
0001
0010
0002
0000
0003
0000
,  // measure 29
1000
0040
0000
0230
0000
0302
0000
0000
,  // measure 30
2003
3000
0000
0001
0020
0030
0210
0000
,  // measure 31
2300
0000
3001
0100
0010
0200
0000
0301
,  // measure 32
1000
0200
0000
0300
0000
0010
0004
0000
,  // measure 33
1003
0020
0000
0130
0001
2000
0000
3001
,  // measure 34
0010
0000
0100
0000
1000
0000
0000
0000
0001
0000
1000
0100
2000
0000
3001
0000
,  // measure 35
0100
0020
0000
1030
0001
0200
0000
0301
,  // measure 36
1000
0040
0000
0030
0000
0100
0002
0000
,  // measure 37
1003
0200
0000
0310
0100
1000
1002
0000
,  // measure 38
0103
0000
0040
0000
0000
0000
0030
0000
0000
0000
1000
0001
2000
0000
3100
0000
,  // measure 39
0010
0001
0000
4000
0000
3020
0000
0130
,  // measure 40
0001
1000
0000
0001
0010
0200
0000
0000
,  // measure 41
1300
0002
0000
0013
0100
2200
0000
0000
,  // measure 42
0000
0000
0000
0000
3300
1001
0000
0000
,  // measure 43
0002
0000
0103
0040
0030
2010
0000
0000
,  // measure 44
3002
0000
0013
0200
0300
2100
0000
3002
,  // measure 45
0000
0203
0000
0300
0000
0120
0000
0000
,  // measure 46
2030
0000
0000
3001
0020
0000
0130
0000
0010
0000
0002
0000
0000
0000
1003
0000
,  // measure 47
0000
0000
2020
0000
0000
0000
3030
0000
0000
0000
0010
0100
0020
0000
1030
0000
,  // measure 48
0001
0020
0030
0001
1000
0200
0000
0310
,  // measure 49
0001
0000
4000
0000
0000
0000
3000
0000
0000
0000
0001
0100
0002
0000
0000
0000
,  // measure 50
1003
0200
0000
0310
0001
2000
0000
3000
,  // measure 51
0020
0000
1030
0004
0003
0021
0000
0000
,  // measure 52
0230
0000
1300
0002
0003
0201
0000
0320
,  // measure 53
0000
2030
0000
3000
0000
0002
0000
0000
,  // measure 54
0023
0000
0000
0130
2000
0000
3001
0000
1000
0000
0020
0000
0000
0000
0230
0000
,  // measure 55
0300
0000
0202
0000
0000
0000
0303
0000
0000
0000
0001
1000
0002
0000
0013
0000
,  // measure 56
0100
2000
0000
3004
0003
0201
0000
0310
,  // measure 57
1000
0002
0000
0013
0100
2000
3000
0000
,  // measure 58
0001
0200
0000
0310
1000
0002
0000
0000
,  // measure 59
0000
0003
0000
0011
,  // measure 60
0010
0000
0110
0000
0100
1000
0001
0100
,  // measure 61
0001
1000
0000
0000
0000
0100
0010
0000
,  // measure 62
0001
0000
1000
0010
1000
0001
0000
0010
,  // measure 63
0100
2000
0000
3001
0100
0000
0110
0000
,  // measure 64
0010
0000
1010
0000
1000
0001
0010
0001
,  // measure 65
1000
0010
0000
1000
0001
0010
0100
0000
,  // measure 66
1000
0000
0001
0100
0010
2010
0000
3001
,  // measure 67
0010
0100
1000
0100
0020
0030
0012
0000
,  // measure 68
2003
0000
3020
0000
0130
0102
0000
1003
,  // measure 69
0100
0010
0100
1000
0002
0000
2003
0000
,  // measure 70
3020
0000
0230
0000
0301
2001
0000
3100
,  // measure 71
0010
0001
2001
0000
3020
0030
0210
0000
,  // measure 72
0302
0000
1003
0100
0010
0002
0000
1003
,  // measure 73
0010
0200
0000
0300
0000
0001
4001
0000
,  // measure 74
3100
0020
0000
0230
0300
2200
0000
0000
,  // measure 75
0000
0000
3300
1000
0001
0100
0140
0000
,  // measure 76
0030
1000
1002
0000
0003
0010
0100
1000
,  // measure 77
0001
0000
0200
0000
0000
0000
0300
0000
0000
0000
0010
1000
0020
0000
0030
0000
,  // measure 78
0100
0002
0000
2003
3000
1200
0000
0320
,  // measure 79
0000
0030
0000
0001
1000
1020
0000
0130
,  // measure 80
0002
0000
1003
0100
0010
0012
0000
1003
,  // measure 81
0010
0200
0000
0300
0000
0001
4000
0000
,  // measure 82
3100
0020
0000
0130
1000
2002
3000
0103
,  // measure 83
0010
0000
1000
0000
0002
0000
0000
0000
0023
0000
0031
1000
0001
0000
0100
0000
,  // measure 84
0010
2000
3000
0001
0010
0200
0000
0310
,  // measure 85
0001
4000
0000
3000
0000
0001
0200
0000
,  // measure 86
0310
2000
0000
3001
0010
0100
0020
0000
,  // measure 87
0031
0000
4000
0000
0000
0000
3000
0000
0000
0000
0001
0100
0001
0000
1000
0000
,  // measure 88
0100
0010
0000
0200
0300
2100
0000
3001
,  // measure 89
0100
0020
0030
0100
0001
2001
0000
0000
,  // measure 90
3100
0020
0000
0031
1000
2020
0000
0000
,  // measure 91
0000
0000
0000
0000
3030
1001
0000
0000
,  // measure 92
0002
0000
0013
0400
0300
2100
0000
0000
,  // measure 93
3002
0000
0103
0020
0030
2010
0000
3002
,  // measure 94
0003
0022
0000
0033
0000
0210
0000
0000
,  // measure 95
2300
0000
0000
3001
0200
0000
0301
0000
1000
0000
0200
0000
0000
0000
0320
0000
,  // measure 96
0030
0000
0022
0000
0000
0000
0033
0000
0000
0000
0001
1000
0002
0000
0103
0000
,  // measure 97
0010
4000
3000
0001
0010
0200
0000
0310
,  // measure 98
0001
0000
4000
0000
0000
0000
3000
0000
0000
0000
0010
0100
0020
0000
0000
0000
,  // measure 99
1030
0002
0000
0013
0100
2200
0000
3300
,  // measure 100
2000
0000
3001
0400
0300
0120
0000
0000
,  // measure 101
2030
0000
3001
0020
0030
0210
0000
2300
,  // measure 102
3000
1002
0000
0000
0003
0201
0000
0000
,  // measure 103
0320
0000
0000
1030
0002
0000
0013
0000
0100
0000
2000
0000
0000
0000
3002
0000
,  // measure 104
0003
0000
0202
0000
0000
0000
0000
0000
0303
0000
0100
0010
0200
0000
0301
0000
,  // measure 105
1000
0200
0000
0340
0030
0012
0000
1003
,  // measure 106
0100
0020
0000
0130
1000
0002
0000
0003
,  // measure 107
1000
0020
0000
1030
0001
0022
0000
0000
,  // measure 108
0000
0033
0000
0110
,  // measure 109
0100
0000
1100
0000
1000
0001
0100
0010
,  // measure 110
0100
0001
0000
1000
0100
0010
0100
0000
,  // measure 111
1000
0000
0001
0100
0010
1010
0000
1000
,  // measure 112
0001
0010
0100
1000
0100
0000
0110
0000
,  // measure 113
0010
0000
0011
0000
0001
0100
0010
1000
,  // measure 114
0010
0100
0000
0001
1000
0100
0010
0000
,  // measure 115
0011
0000
0001
1000
0010
0110
0000
0100
,  // measure 116
0001
0000
1000
0000
0100
0000
0010
0000
0001
0010
0100
0010
0002
0000
1003
0000
,  // measure 117
0010
1000
0001
0100
0000
0000
0010
1000
,  // measure 118
0001
0000
1000
0000
0100
0000
0000
0000
1000
0100
0010
0100
2000
0000
3001
0000
,  // measure 119
0100
0020
0130
0001
0000
0000
1000
0100
,  // measure 120
0010
0001
0010
0100
1000
0001
0200
0310
,  // measure 121
1000
0002
0013
0100
0000
0000
0010
0001
,  // measure 122
1000
0010
0100
0010
2000
3000
2002
0000
,  // measure 123
0000
3000
0203
0000
0300
0220
0000
0300
,  // measure 124
2030
0000
3001
0020
0030
0210
0000
2300
,  // measure 125
3001
0000
0020
0000
0000
0000
0032
0000
0000
0000
2003
0000
0000
0000
3020
0000
0000
0000
0030
0000
0000
0000
0210
0000
0000
0000
0000
0000
0302
0000
0000
1003
,  // measure 126
0100
0000
0010
0000
0100
0000
2000
0000
0000
0000
3002
0000
0000
0000
0203
0000
0000
0000
0300
0000
0000
0000
0010
0100
0020
0000
1030
0000
0001
0000
2000
0000
,  // measure 127
0000
0000
3001
0000
0010
0000
0200
0000
0000
0000
1300
0000
0001
0000
2000
0000
0000
0000
3000
0000
0000
0000
0001
0010
0002
0000
0000
0000
1003
0000
0020
0000
,  // measure 128
0000
1030
0001
0020
0000
0030
0200
0000
1300
0004
0003
2001
0000
0000
0000
0000
,  // measure 129
3020
0000
0130
0002
0003
2001
0000
3020
,  // measure 130
0030
0210
0000
0300
0000
0102
0000
0000
,  // measure 131
2003
0000
0000
3100
0020
0000
0130
0000
1000
0000
0002
0000
0000
0000
0103
0000
,  // measure 132
0000
0000
0220
0000
0000
0000
0330
0000
0000
0000
0010
1000
0020
0000
0130
0000
,  // measure 133
0001
2000
0000
3004
0003
0021
0000
0130
,  // measure 134
1000
0002
0000
1003
0010
0200
0300
0000
,  // measure 135
0001
2000
0000
3001
0010
0220
0000
0030
,  // measure 136
2300
0000
3001
0200
0300
0120
0000
0000
,  // measure 137
2030
0000
3001
2000
3000
1200
0000
0320
,  // measure 138
0030
0022
0000
0000
0033
2001
0000
0000
,  // measure 139
3020
0000
0000
0130
0002
0000
1003
0000
0001
0000
0020
0000
0000
0000
0230
0000
,  // measure 140
0300
0000
2200
0000
0000
0000
3300
0000
0000
0000
1000
0001
2000
0000
3010
0000
,  // measure 141
0100
0002
0003
1000
0100
0020
0000
0130
,  // measure 142
1000
0000
0004
0000
0000
0000
0003
0000
0000
0000
1000
0010
2000
0000
0000
0000
,  // measure 143
3001
0020
0000
0130
1000
0002
0000
0003
,  // measure 144
2000
0000
3010
0400
0300
0102
0000
0000
,  // measure 145
2003
0000
3100
0020
0030
0012
0000
2003
,  // measure 146
0000
3020
0000
0030
0000
0210
0000
0000
,  // measure 147
0302
0000
0000
1003
0200
0000
0310
0000
0100
0000
4000
0000
0000
0000
3002
0000
,  // measure 148
0003
0000
0202
0000
0000
0000
0000
0000
0303
0000
0100
0010
0200
0000
0301
0000
,  // measure 149
1000
0002
0000
0023
0030
0210
0000
1300
,  // measure 150
0001
0020
0000
0031
1000
0200
0300
0000
,  // measure 151
1000
0002
0000
1003
0001
0202
0000
0003
,  // measure 152
0340
4000
0000
0000
0000
0000
0000
0000
3030
0000
0000
0000
1000
0000
0001
0000
,  // measure 153
0010
0001
1000
0100
1000
0002
0000
1003
,  // measure 154
0100
0020
0000
0130
1000
0002
0003
0000
,  // measure 155
1000
0200
0000
0310
0100
2200
0000
0300
,  // measure 156
3004
0400
0000
0000
0000
0000
0000
0000
0303
0000
0000
0000
0100
0000
0010
0000
,  // measure 157
1000
0000
0001
0010
0002
1003
0001
0010
0000
0000
0000
0001
1000
0000
0010
0000
,  // measure 158
2000
3001
0010
0100
0000
0000
1000
0100
2000
0000
3000
0000
0001
0000
0100
0000
,  // measure 159
0001
0000
1000
0100
0020
0130
1000
0001
0000
1000
0010
0100
0001
0000
1000
0000
,  // measure 160
0002
0013
0100
1000
0000
0100
0010
0001
0020
0000
0000
0000
0030
0000
0000
0000
;

//---------------dance-single - Ace Of Arrows (2019)----------------
#NOTES:
     dance-single:
     Ace Of Arrows (2019):
     Challenge:
     10:
     0.754,0.387,0.449,0.704,0.376:
0000
0000
0000
0000
,
2000
0000
3100
0040
0030
0012
0000
0000
,
2003
0000
3010
0200
0300
0102
0000
2003
,
0000
3200
0000
0300
0000
0120
0000
0000
,
0032
0000
0000
1003
0010
0000
0100
0000
0001
0000
2001
0000
0000
0000
3200
0000
,
0000
0000
0320
0000
0000
0000
0030
0000
0000
0000
0001
0010
0200
0000
1300
0000
,
0001
0200
0000
0320
0030
2010
0000
3001
,
1000
0000
0000
0200
0000
0000
0000
0000
0000
0310
0000
0000
0001
0000
0000
1000
0010
0100
0002
0000
0000
0000
0000
0000
,
2003
0000
3100
0010
0100
1000
0004
0000
,
0000
0000
0103
0000
0020
0000
0000
2030
0000
0000
3001
0000
0011
0000
0000
0000
,
0010
0000
0000
0000
0000
0000
0000
0000
0110
0000
0000
0000
0000
0000
0000
0000
0100
0000
0000
0000
1000
0000
0000
0100
0020
0000
0000
0000
0031
0000
0000
0000
,
1000
0010
0200
0302
0003
1000
0100
0000
,
0110
0000
0010
0001
1000
1010
0010
0100
,
0001
1000
0100
0010
0011
0001
1001
0000
,
1000
0000
0000
0000
0000
0000
0000
0000
1010
0000
0000
0000
0000
0000
0000
0000
0010
0000
0000
0000
0100
0000
0000
0001
1000
0000
0000
0000
0100
0000
0000
0000
,
0010
0001
2000
3020
0130
0001
1001
0000
,
1000
0000
0200
0310
0001
2001
0000
3010
,
0100
0001
1000
0100
0020
0030
0012
0000
,
1003
0000
0020
0000
0130
0002
0000
1003
,
0100
0010
0011
0001
1000
0010
0110
0000
,
0200
0000
0302
0000
1003
1200
0000
0310
,
0001
1000
1020
0000
0130
0001
1000
0100
,
0020
0030
0011
0001
1000
0020
0000
0130
,
0001
0000
2000
0000
3100
0000
0010
0001
0010
0000
0100
0000
2000
0000
0000
0000
,
3001
0200
0000
0320
0030
2010
0000
3001
,
0010
0100
1000
1001
0101
0100
0220
0000
,
0330
0010
2020
0000
3030
1000
1001
0001
,
0010
0000
0200
0000
0000
0000
1300
0001
1000
0000
0100
0010
0001
0000
0000
0000
,
1000
1040
0000
0230
0300
0102
0000
0000
,
2003
0000
3010
0000
0100
0000
0001
1000
0001
0000
0010
0100
0020
0000
0000
0000
,
0032
0000
1003
0010
0100
0102
0000
1003
,
0100
0000
0020
0000
0000
0000
0130
0000
1000
0001
1000
0000
0040
0000
0130
0000
,
0001
2000
0000
3001
0010
0210
0000
1300
,
0001
0000
0100
0010
0100
0000
0001
0000
1000
0000
0001
0100
0020
0000
1030
0001
,
0000
1000
0001
0000
0010
0000
0100
0000
1000
0000
0001
0000
0200
0000
0310
1000
,
0000
0010
1000
0000
0004
0000
0000
0000
1003
0000
1100
0000
0200
0000
0310
0001
,
0000
0010
0001
0000
1000
0000
0010
0000
0100
0000
0001
1000
0001
0000
0010
0100
,
0000
0010
0100
0000
1000
0000
0001
0000
1000
0000
0010
0100
0001
1000
0100
0010
,
0100
1000
0001
0000
0100
0000
0040
0000
0030
0000
2010
0000
3001
0010
0100
1000
,
0100
0010
0001
0000
0100
0000
0010
0000
1000
0000
0001
0000
0021
0000
0000
0000
,
0130
1000
0100
0000
0010
0000
0001
0000
1000
0000
2020
0000
0000
0000
0000
0000
,
0000
0000
0000
0000
3030
0110
0000
0000
,
0200
0000
0000
0000
0301
0000
4000
0000
3000
0000
1200
0000
0000
0000
0310
0001
,
0010
0000
0100
0000
1000
0001
1000
0000
0100
0000
0010
0001
0010
0000
0100
0000
,
1000
0000
0001
0100
0001
0000
1000
0000
0100
0000
0010
0100
0010
0000
0001
0000
,
2000
0000
0000
3010
0100
0000
0001
0000
1000
0000
1200
0000
0000
0000
0320
0000
,
0030
0000
0012
0000
0000
0000
1003
0000
0010
0000
0100
0001
2000
0000
3001
0000
,
0010
0200
0300
1000
0001
0201
0000
0310
,
1000
0000
0004
0000
0000
0000
0013
0100
0010
0000
0001
0010
0200
0000
1300
0000
,
0001
0200
0000
0310
1000
0001
0011
0010
,
0200
0000
0000
0000
1300
0000
0001
0100
0001
0000
1000
0000
1200
0000
0310
0100
,
0010
0000
0001
0000
1000
0010
1000
0000
0001
0000
0100
0010
0100
0000
0001
0000
,
1000
0000
0001
0010
0001
0000
0010
0000
0110
0000
0200
0000
0000
0000
0000
0000
,
2300
0000
0000
3001
0010
0000
0001
0000
1000
0000
1200
0000
0000
0000
0320
0000
,
0030
0000
0012
0000
0000
0000
1003
0000
1010
0000
0010
0100
0001
0000
1000
0000
,
0100
0120
0000
0034
0003
2001
0000
3010
,
0100
0002
0000
1003
0100
0010
0012
0000
,
1003
0020
0000
0130
0001
1000
0100
0110
,
0011
0000
0001
0010
0100
1000
0100
0010
0001
0000
1000
0000
1010
0000
0000
0000
,
0010
0000
0000
0000
0000
0000
0000
0000
0110
0000
0000
0000
0000
0000
0000
0000
0100
0000
0000
0000
0001
0000
0000
1000
0200
0000
0000
0000
0310
0000
0000
0000
,
0001
1000
0020
0230
0300
0001
1000
0000
,
1100
0000
0000
0000
0000
0000
0000
0000
0100
0000
0000
0000
0010
0000
0000
0001
1000
0000
0000
0000
1100
0000
0000
0000
0000
0000
0000
0000
0200
0000
0000
0000
,
0320
0000
0031
1000
0001
0000
0100
0000
0010
0100
0010
0000
1010
0000
0000
0000
,
1000
0000
0000
0000
0000
0000
0000
0000
1001
0000
0000
0000
0000
0000
0000
0000
0001
0000
0000
0000
0100
0000
0000
0010
2000
0000
0000
0000
3001
0000
0000
0000
,
0010
0000
0000
0000
0110
0000
0000
0000
0200
0000
0000
1300
0001
0000
0000
0000
0200
0000
0000
0000
0310
0000
0000
0000
1000
0000
0000
0000
0000
0000
0000
0000
,
1001
0000
0000
0000
0000
0000
0000
0000
0002
0000
0000
0000
0013
0000
0000
0100
1000
0000
0000
0000
1002
0000
0000
0000
0000
0000
0000
0000
0103
0000
0000
0000
,
0010
1000
0001
0100
0020
0030
2010
0000
,
3002
0000
0013
0100
0010
0000
0001
0000
1000
0000
0001
0100
0001
0000
1000
0000
,
0001
0000
0010
0000
0200
0000
1300
0001
1000
0000
0010
0100
0020
0000
1030
0000
,
0001
0010
0210
1300
0001
0200
0310
1000
,
0001
0000
1000
0100
1000
0000
0001
0000
0010
0000
0001
1000
0001
0000
0100
0000
,
0010
0000
0100
0000
0001
0000
1000
0000
0100
0000
0010
0000
0002
0000
0013
0100
,
0010
0000
0001
0000
1000
0000
0010
0100
0010
0000
1000
0000
0004
0000
0013
0000
,
0100
1000
0001
0100
0010
1000
0001
0010
,
0110
0100
1000
1001
0101
0100
0040
1030
,
1001
0001
0200
0310
1010
1000
1001
0001
,
0010
0000
0210
0000
0000
0000
1300
0001
0100
0010
0100
0001
1000
0000
0100
0000
,
0010
0002
0000
1003
0010
0200
0301
1000
,
0200
0000
0000
0000
0320
0000
0031
1000
0001
0000
0100
0010
0100
0000
0001
0000
,
2000
0000
3100
0010
0001
2002
3003
1000
,
0010
0000
0200
0000
0000
0000
0301
0000
1000
0100
1000
0000
0004
0000
0000
0000
,
0013
0200
0000
1300
0001
0200
0310
1000
,
0001
0100
0010
1000
0010
0100
0001
0000
1000
0000
0100
0010
0002
0000
1003
0010
,
0100
0010
1000
0000
0001
0000
0010
0000
0110
0000
0100
0000
1000
0000
0001
0010
,
0100
0010
0001
0000
1000
0000
0001
0000
0101
0000
0100
0000
0010
0000
1000
0001
,
0100
0001
1000
0000
0100
0000
0010
0000
0011
0000
0001
1000
0001
0000
0100
0010
,
0000
0100
0010
0000
1000
0000
0001
0000
0011
0000
0010
0100
1000
0001
0100
0010
,
0100
0001
1000
0000
0100
0000
0010
0000
0011
0000
0002
0000
1003
0010
0100
0001
,
1000
0100
0010
0001
1000
0000
0010
0000
0110
0000
0100
0000
0102
0000
0000
0000
,
1003
0100
2000
0000
0000
0000
3001
0000
0100
0000
0220
0000
0000
0000
0000
0000
,
0000
0000
0000
0000
0330
1010
0000
0000
,
2000
0000
3001
0040
0030
0210
0000
1300
,
0001
0000
0100
0010
0100
0000
0001
0000
1001
0000
1000
0100
1000
0000
0001
0000
,
0100
0000
0010
0100
0010
0000
1000
0000
1001
0000
0001
0100
0001
0000
1000
0000
,
0100
0000
0010
0001
0010
0000
0100
0000
1000
0000
2002
0000
3000
0000
0203
0000
,
0300
0000
0120
0000
0000
0000
1030
0000
0001
0000
0010
0100
1000
0000
0001
0000
,
0100
0140
0030
1000
0001
0020
0000
0130
,
1000
0000
1004
0000
0000
0000
0103
0000
0110
0000
0010
1000
0002
0000
0013
0000
,
0100
0000
1000
0100
1000
0000
0001
0000
0100
0000
0020
0000
0000
0000
1030
0000
,
0002
0000
0013
0100
1000
0100
0010
0000
0001
0000
1000
0010
2000
0000
3001
0000
,
0020
0000
0130
1000
0100
0000
0010
0000
0011
0000
0001
1000
0001
0000
0100
0000
,
0010
0000
0100
0001
0100
0000
0010
0000
1010
0000
1000
0001
1000
0000
0100
0000
,
0020
0000
0031
0010
0001
0000
1000
0010
1000
0000
0002
0000
0000
0000
0023
0000
,
0030
0000
0210
0000
1300
0000
0001
0100
0001
0000
1000
0100
0010
0000
0100
0000
,
1000
0000
0001
0010
0100
0010
0001
0000
1000
0000
0010
0100
0010
0000
1000
0000
,
0001
0000
0010
0100
0010
0000
0001
0000
1000
0000
0010
0000
0210
0000
0000
0000
,
0301
2001
0000
3010
0100
0102
0000
1003
,
1100
0000
0100
0010
0001
0010
0100
1000
0001
1000
0001
0000
0101
0000
0000
0000
,
0100
0000
0000
0000
0000
0000
0000
0000
0110
0000
0000
0000
0000
0000
0000
0010
2000
0000
0000
0000
3001
0000
0000
0010
0200
0000
0000
0000
1300
0000
0000
0000
,
0001
0000
0100
0010
1000
0001
0100
0010
1000
0000
0001
0000
0010
0000
0000
0000
,
0110
0000
0000
0000
0200
0000
1300
0000
0001
0000
0101
0000
0000
0000
0100
0010
,
0100
0000
0001
0000
1000
0100
0010
0001
0010
0100
1000
0000
0001
0000
0000
0000
,
0100
0000
0000
0000
0000
0000
0000
0000
0110
0000
0000
0000
0000
0000
0000
0010
2000
0000
0000
0000
3001
0000
0000
0010
0200
0000
0000
0000
1300
0000
0000
0000
,
0001
0000
0000
0000
0100
0000
0010
0000
0100
0000
0000
0001
2000
0000
0000
0000
3100
0000
0000
0000
0010
0000
0000
0000
0001
0000
0000
0000
0000
0000
0000
0000
,
1001
0000
0000
0000
2000
0000
3010
0000
0100
0000
0001
1000
0001
0000
0100
0001
,
1000
0001
0100
0000
0010
1000
0010
0000
0100
0001
1000
0001
0020
0000
0130
0000
,
1000
0002
0103
0010
1010
1000
0001
0010
,
0110
0000
0100
1000
0100
0000
0010
0000
0001
0010
0100
0010
0002
0000
1003
0000
,
0010
0200
0301
1000
1100
0100
0010
0001
,
1000
0000
0000
0000
0010
0000
0100
0000
0010
0000
0000
0000
1000
0000
0000
0000
1001
0000
0000
0000
0001
0000
0000
0010
0200
0000
0000
0000
1300
0000
0000
0000
,
0001
0200
0310
1000
1001
0001
0010
0100
,
1000
0000
0000
0000
0001
0000
0100
0000
0001
0000
0000
0000
1000
0000
0000
0100
0020
0000
0000
0000
0030
0000
0000
0000
0012
0000
0000
0000
1003
0000
0000
0000
,
0010
0000
0100
0001
1000
2200
0000
3000
,
0320
0000
0031
2000
3000
1020
0100
2030
,
3001
0000
0020
0000
0030
0000
0210
0000
1000
0000
0320
0000
0000
0000
0032
0000
0000
0000
0003
0000
0000
0000
2001
0000
0010
0000
0000
0000
3002
0000
0000
0013
,
0100
0000
1000
0000
0001
0000
0100
0000
0010
0000
1000
0000
0001
0000
0010
0000
0000
0000
0200
0000
0000
0000
1300
0100
2000
0000
3001
0000
0100
0000
0010
0000
,
0000
0000
1000
0000
0001
0000
0021
0000
0100
0000
0031
0000
1000
0000
0002
0000
0000
0000
0003
0000
0000
0000
1000
0010
2000
0000
0000
0000
3001
0000
0020
0000
,
0000
0130
1000
0002
0000
0003
2000
0000
3100
0040
0030
0012
0000
0000
1003
0000
,
0010
0000
0100
0001
0100
0000
0010
0000
1010
0000
1000
0001
1000
0000
0100
0000
,
0010
0000
0001
0010
0001
0000
1000
0000
1010
0000
0010
0100
0010
0000
1000
0000
,
0001
0000
0010
0100
0010
0000
0001
0000
1001
0000
2000
0000
0000
0000
3020
0000
,
0030
0000
0210
0000
0000
0000
0301
0000
1000
0000
0001
0010
0100
0000
1000
0000
,
0001
0000
0100
0000
0010
0000
1000
0001
1000
0000
0100
0010
0100
0000
1000
0000
,
0001
0000
0100
0010
0200
0000
0301
0000
1000
0000
0100
0000
0120
0000
0031
1000
,
0001
0000
0100
0010
0100
0000
0001
0000
1000
0000
0100
0000
0120
0000
0031
0000
,
1000
0100
0010
0001
0010
0100
1000
0000
0001
0000
0100
0000
0120
0000
1030
0000
,
0001
0000
0010
0100
0010
0000
0001
0000
1001
0000
1000
0100
1000
0000
0001
0000
,
0010
0000
0100
1000
0100
0000
0010
0000
0011
0000
0001
1000
0001
0000
0100
0000
,
0020
0000
1030
0001
1000
0000
0100
0010
0100
0000
2100
0000
0000
0000
3002
0000
,
0003
0000
0201
0000
0000
0000
0310
0000
1000
0000
0001
0100
0010
0000
1000
0000
,
0001
0020
0030
0100
0010
0012
0000
1003
,
0010
0000
0400
0000
0000
0000
0301
1000
0001
0000
0010
0100
2000
0000
3001
0000
,
0100
0020
0000
1030
0001
0022
0000
0033
,
0020
0000
0130
1000
0100
0010
0001
0000
1000
0000
0010
0000
0210
0000
0301
0000
,
1000
0000
0001
0010
0001
0000
1000
0000
1100
0000
0100
0010
0100
0000
1000
0000
,
0001
0000
0100
0010
0100
0000
0001
0000
1001
0000
1000
0100
1000
0000
0001
0000
,
0010
0000
0100
0010
0100
0000
1000
0000
0001
0000
0401
0000
0000
0000
0320
0000
,
0030
0000
2010
0000
0000
0000
3001
0000
0100
0000
0010
1000
0010
0000
0100
0000
,
0001
2000
0000
3200
0300
0120
0000
0031
,
1000
1020
0000
0130
0001
2000
3000
0000
,
0001
0021
0000
0130
1000
2002
3000
0103
,
0110
0000
0010
1000
0001
0010
0001
1000
0010
1000
0001
0000
0021
0000
0130
0000
,
1000
0001
0201
0310
1000
1002
0000
0013
,
0100
2000
0000
3001
0010
0200
0000
0300
,
0010
0002
0000
1003
0010
0220
0030
0301
,
1001
0000
1000
0100
0010
0001
0010
0100
1000
0001
1000
0000
0010
0000
1000
0000
,
0001
0000
0000
0000
1000
0000
0100
0000
0010
0000
0100
0000
1000
0000
0001
0000
0200
0000
0310
0100
0010
0000
1000
0000
0001
0000
0000
0000
0010
0000
0000
0000
,
0100
0000
1000
0000
0001
0000
0100
0000
0000
0000
0000
0000
0010
0000
1000
0000
0001
0010
0001
0000
2000
0000
3010
0000
0100
0000
0000
0000
0001
0000
0000
0000
,
1000
0000
0100
0010
0100
1000
0001
0100
0000
0010
0100
0001
1000
0000
0100
0000
,
0010
0100
1000
0001
0000
1000
0100
0010
0002
0000
0000
0000
0003
0000
0000
0000
;

//---------------dance-single - Ace Of Arrows (2019)----------------
#NOTES:
     dance-single:
     Ace Of Arrows (2019):
     Medium:
     5:
     0.396,0.335,0.000,0.933,0.029:
0000
0000
0000
0000
,
2000
0000
3001
0010
0000
0002
0000
0000
,
2003
0000
3001
0200
0000
0320
0000
0230
,
0000
0302
0000
0003
0000
2000
0000
0000
,
3002
0000
0023
0000
0130
2000
0000
3002
,
0000
2003
0000
3000
0000
0000
0020
0000
,
1030
0002
0000
0023
0000
0230
0000
0000
,
0310
0002
0000
0000
1003
0100
0000
0000
,
0020
0000
0230
0000
1300
0002
0000
0003
,
0000
1000
0020
0000
0230
0000
0302
0000
,
1003
0100
1000
0002
,
1003
0010
0000
0000
0000
1000
0001
0000
,
0010
0000
0002
0000
1003
0010
0000
0000
,
0000
0000
0000
1000
,
0001
0010
0001
2000
,
3001
0100
0000
0000
0010
0000
1000
0000
,
0001
0000
2000
0000
3001
0020
0000
0000
,
0000
0030
0000
0000
,
0002
0000
2003
0000
3010
0200
0000
0000
,
0310
1000
0001
0000
,
2000
0000
3200
0000
0310
0002
0000
0000
,
1003
0010
1000
0000
,
0002
0000
0023
0000
0130
2000
0000
0000
,
3001
0200
0000
0000
0300
0001
2000
0000
,
3001
0020
0000
0032
0000
2003
0000
0000
,
0000
0000
3000
0000
0000
0001
0020
0000
,
0030
0001
0020
0000
0030
0001
2000
0000
,
3001
0200
0000
0000
0300
0001
1000
0000
,
0001
0040
0000
0230
0000
0320
0000
0000
,
0031
0000
0000
1000
0020
0000
2030
0000
,
3002
0000
0023
0000
0031
2000
0000
0000
,
3001
0200
0000
0000
0300
0010
4000
0000
,
3001
0020
0000
0032
0000
2003
0000
0000
,
0000
0000
3000
0000
0000
0010
0200
0000
,
0301
2000
0000
0000
3001
0020
0000
0000
,
0130
4000
0000
0000
3000
0001
0200
0000
,
0301
2000
0000
0000
3001
0000
0200
0000
,
0301
0400
0000
0300
0000
0001
2000
0000
,
3100
0020
0000
0034
0000
2003
0000
0000
,
3001
0100
0000
0000
0010
0200
0000
0000
,
0301
2000
0000
0000
3001
0200
0000
0000
,
0000
0000
0300
0000
,
0020
0000
0130
0001
0000
2000
0000
0000
,
3002
0000
0013
0200
0000
0320
0000
0032
,
0000
2003
0000
3000
0000
0020
0000
0000
,
2030
0000
3002
0000
0013
0200
0000
0320
,
0000
0032
0000
0000
0003
0000
2000
0000
,
3001
0100
0000
0000
0001
2000
0000
0000
,
3001
0040
0000
0030
0000
0001
2000
0000
,
3100
0020
0000
0000
0130
2000
0000
3000
,
0002
0000
1003
0010
0000
2000
0000
0000
,
3002
0000
1003
0020
0000
0230
0000
0320
,
0000
2030
0000
0000
3000
0002
0000
0000
,
0023
0000
0032
0000
1003
0020
0000
0230
,
0000
0320
0000
0000
0030
0000
2000
0000
,
3001
0010
0000
0200
0000
0320
0000
0000
,
0031
2000
0000
0000
3001
0100
0000
0000
,
0010
0200
0000
0302
0000
2003
0000
0000
,
0000
3000
0000
0001
,
0010
0001
1000
0002
,
1003
0010
0000
0000
0000
0000
1000
0000
,
0001
0000
0020
0000
0130
1000
0000
0000
,
0000
0000
0000
0001
,
0100
0010
1000
0002
,
0013
0100
0000
0000
0010
0000
0001
0000
,
1000
0000
0002
0000
1003
0020
0000
0000
,
0000
0030
0000
0000
,
2000
0000
3002
0000
0013
0200
0000
0310
,
0001
1000
0002
0003
,
2000
0000
3020
0000
0130
0002
0000
1003
,
0100
0020
0230
0300
,
2000
0000
3002
0000
0103
0020
0000
0000
,
1030
0002
0000
0000
0003
0010
0400
0000
,
0310
0002
0000
2003
0000
3002
0000
0000
,
0000
0000
0003
0000
0000
1000
0040
0000
,
0030
1000
0002
0000
0003
1000
0200
0000
,
1300
0002
0000
0000
0003
1000
0010
0000
,
1000
0002
0000
2003
0000
3200
0000
0320
,
0000
0030
0000
0001
2000
0000
3002
0000
,
0203
0000
0320
0000
1030
0002
0000
0000
,
1003
0200
0000
0000
0300
0010
0004
0000
,
1003
0020
0000
2030
0000
3002
0000
0000
,
0003
0000
0000
0000
0000
1000
0200
0000
,
1300
0002
0000
0000
1003
0020
0000
0000
,
0130
0004
0000
0003
0000
1000
0200
0000
,
0310
0002
0000
0000
1003
0000
0020
0000
,
1030
0004
0000
0003
0000
0010
0200
0000
,
0310
0001
0000
2000
0000
3020
0000
0000
,
0130
0001
0000
0000
1000
0002
0000
0000
,
1003
0200
0000
0000
0310
0200
0000
0000
,
0000
0000
0300
0000
,
2000
0000
3001
0100
0000
0020
0000
0000
,
0230
0000
0301
2000
0000
3002
0000
0023
,
0000
0230
0000
0000
0300
2000
0000
0000
,
3002
0000
0023
0000
0130
2000
0000
3002
,
0000
0203
0000
0300
0000
0000
0020
0000
,
1030
0002
0000
0000
1003
0200
0000
0000
,
0310
0004
0000
0003
0000
1000
0020
0000
,
1030
0002
0000
0000
0013
0200
0000
0300
,
2000
0000
3001
0100
0000
0002
0000
0000
,
2003
0000
3100
0020
0000
0032
0000
2003
,
0000
3002
0000
0003
0000
2000
0000
0000
,
3020
0000
0230
0000
0301
2000
0000
3002
,
0000
0023
0000
0000
0030
0000
0002
0000
,
1003
0020
0000
0430
0000
0320
0000
0000
,
1030
0002
0000
0000
0013
0100
0000
0000
,
1000
0002
0000
2003
0000
3020
0000
0000
,
0000
0030
0000
0100
,
0001
1000
0001
0020
,
0130
1000
0000
0000
0000
0001
0100
0000
,
0010
0000
0200
0000
0301
1000
0000
0000
,
0000
0000
0000
0100
,
0010
0001
0010
0200
,
1300
0001
0000
1000
0010
0000
1000
0000
,
0001
0000
2000
0000
3100
0010
0000
0000
,
0000
0000
0001
2000
,
3010
0200
0000
0301
0000
0000
0000
0000
,
0000
0000
1000
0200
,
0310
0002
0000
1003
0000
0000
0000
0000
,
0000
0000
0010
0200
,
0301
2000
0000
3100
0000
0000
0000
0000
,
0000
0000
2000
3002
,
0000
0000
0203
0000
0000
0320
0000
0000
,
2030
0000
3001
0010
0000
0002
0000
1003
,
0100
0000
0000
1000
0000
0001
0000
2000
0000
3000
0000
0002
0000
0000
0013
0000
,
0100
0000
0000
1000
0000
0100
0000
2000
0000
3000
0000
0000
0001
0000
0000
0001
,
0000
0000
0000
0100
0000
0000
0000
0400
0000
0000
0300
0000
0010
0000
0000
0010
,
0000
0000
0000
0020
0000
0030
2000
0000
3001
0010
0000
0002
0000
0000
0000
0000
,
2003
0000
3010
0200
0000
0320
0000
2030
,
0000
3002
0000
0000
0003
2000
0000
0000
,
3200
0000
0320
0000
0031
2000
0000
3002
,
0000
0203
0000
0000
0300
0000
0020
0000
,
1030
0002
0000
2003
0000
3200
0000
0000
,
0310
0002
0000
0000
1003
0020
0000
0030
,
1000
0002
0000
0023
0000
0032
0000
0000
,
2003
0000
3100
0010
0000
0200
0000
0000
,
2300
0000
3001
0200
0000
0320
0000
2030
,
0000
3002
0000
0000
0003
0020
0000
0000
,
0032
0000
2003
0000
3010
0200
0000
0302
,
0000
2003
0000
0000
3000
0000
0200
0000
,
0310
0002
0000
0000
1003
0020
0000
0000
,
1030
0004
0000
0003
0000
0010
0200
0000
,
0310
0002
0000
0000
1003
0020
0000
0030
,
2000
0000
3001
0010
0000
0200
0000
0000
,
0320
0000
0031
2000
0000
3002
0000
0203
,
0000
0320
0000
0000
0030
0200
0000
0000
,
0302
0000
2003
0000
3001
0020
0000
0230
,
0000
2300
0000
0000
3000
0000
0002
0000
,
0103
0020
0000
2030
0000
3002
0000
0000
,
1003
0020
0000
0000
1030
0001
0000
0000
,
0010
0200
0000
2300
0000
3002
0000
0000
,
0000
0003
0000
2000
,
3010
0000
0200
0000
0301
2000
0000
0000
,
3001
0020
0000
0000
0130
1000
0000
0000
,
0100
0020
0000
0000
0031
2000
0000
0000
,
0000
0000
3000
0000
0000
0000
0001
0100
,
0001
0000
1000
0000
0002
0000
0000
0013
0000
0000
0000
0000
0001
0000
1000
0000
,
0002
0000
0000
0103
0000
0000
0000
0000
0000
0000
0000
0000
0010
0000
0100
0000
,
0010
0000
1000
0000
0002
0000
0000
0013
0000
0000
0001
0000
1000
0000
0001
0000
,
0020
0000
0000
0230
0000
0000
0000
0000
0000
0000
0000
0000
0300
0000
0000
0000
;

//---------------dance-single - Ace Of Arrows (2019)----------------
#NOTES:
     dance-single:
     Ace Of Arrows (2019):
     Easy:
     4:
     0.208,0.181,0.000,0.129,0.027:
0000
0000
0000
0000
,
0001
0000
0001
0000
0000
0010
0000
0000
,
0010
0000
0010
0000
0000
0100
0000
0100
,
0000
0200
0000
0300
0000
1000
0000
0000
,
1000
0000
1000
0000
0000
0001
0000
0001
,
0000
0002
0000
0000
0003
0000
0100
0000
,
0000
0100
0000
0000
0000
0010
0000
0000
,
0000
0010
0000
0000
0000
0010
0000
0000
,
1000
0000
1000
0000
0000
2000
0000
3000
,
0000
0001
0001
0001
,
0001
0001
0000
0010
,
0000
0010
0000
0000
0000
0000
0100
0000
,
0100
0000
0100
0000
0000
0100
0000
0000
,
0000
0000
0000
1000
,
1000
1000
0000
0001
,
0000
0001
0000
0000
0000
0000
0100
0000
,
0100
0000
0100
0000
0000
0200
0000
0000
,
0000
0300
0000
0000
,
0010
0000
0010
0000
0000
0010
0000
0000
,
1000
1000
1000
0000
,
0001
0000
0001
0000
0000
0001
0000
0000
,
0010
0010
0010
0000
,
0100
0000
0100
0000
0000
0100
0000
0000
,
0000
0200
0000
0000
0300
0000
1000
0000
,
0000
1000
0000
1000
0000
2000
0000
0000
,
0000
3000
0000
0001
,
0000
0001
0000
0001
,
0000
0002
0000
0000
0003
0000
0010
0000
,
0000
0010
0000
0010
0000
0020
0000
0000
,
0030
0000
0100
0100
,
0100
0000
0100
0000
0000
1000
0000
1000
,
0000
2000
0000
0000
3000
0000
0001
0000
,
0000
0001
0000
0001
0000
0002
0000
0000
,
0000
0003
0000
1000
,
0000
1000
0000
0000
0000
0010
0000
0000
,
0000
0040
0000
0000
0030
0000
0100
0000
,
0000
0100
0000
0000
0000
0000
0001
0000
,
0000
0004
0000
0000
0003
0000
1000
0000
,
0000
1000
0000
0000
0000
0100
0000
0100
,
0000
0100
0000
0000
0000
0010
0000
0000
,
0000
0010
0000
0000
0000
0020
0000
0000
,
0000
0000
0030
0000
,
0001
0000
0001
0000
0000
1000
0000
0000
,
1000
0000
1000
0000
0000
0010
0000
0010
,
0000
0010
0000
0000
0000
0100
0000
0000
,
0100
0000
0100
0000
0000
0001
0000
0001
,
0000
0002
0000
0000
0003
0000
1000
0000
,
0000
1000
0000
0000
0000
0100
0000
0100
,
0000
0400
0000
0000
0300
0000
0010
0000
,
0000
0010
0000
0000
0000
0010
0000
0000
,
0001
0000
0001
0000
0000
1000
0000
0000
,
1000
0000
1000
0000
0000
0001
0000
0001
,
0000
0001
0000
0000
0000
0100
0000
0000
,
0100
0000
0100
0000
0000
0010
0000
0010
,
0000
0020
0000
0000
0030
0000
1000
0000
,
0000
1000
0000
0000
0000
0001
0000
0001
,
0000
0001
0000
0000
0000
0010
0000
0000
,
0000
0100
0000
0100
0000
0200
0000
0000
,
0000
0300
0000
1000
,
1000
1000
0000
0001
,
0000
0001
0000
0000
0000
0000
0100
0000
,
0100
0000
0100
0000
0000
0100
0000
0000
,
0000
0000
0000
0010
,
0010
0010
0000
1000
,
0000
1000
0000
0000
0000
0000
0001
0000
,
0001
0000
0001
0000
0000
0002
0000
0000
,
0000
0003
0000
0000
,
1000
0000
1000
0000
0000
0100
0000
0000
,
0100
0100
0100
0000
,
0010
0000
0010
0000
0000
0001
0000
0000
,
0001
0001
0001
0000
,
1000
0000
1000
0000
0000
0010
0000
0000
,
0000
0020
0000
0000
0030
0000
0100
0000
,
0000
0100
0000
0100
0000
0200
0000
0000
,
0000
0300
0000
0001
,
0000
0001
0000
1000
,
0000
2000
0000
0000
3000
0000
0100
0000
,
0000
0100
0000
0100
0000
0200
0000
0000
,
0300
0000
0010
0010
,
0010
0000
0010
0000
0000
0001
0000
0001
,
0000
0002
0000
0000
0003
0000
1000
0000
,
0000
1000
0000
1000
0000
2000
0000
0000
,
0000
3000
0000
0010
,
0000
0010
0000
0000
0000
0100
0000
0100
,
0000
0400
0000
0000
0300
0000
0001
0000
,
0000
0001
0000
0000
0000
0000
1000
0000
,
0000
4000
0000
0000
3000
0000
0100
0000
,
0000
0100
0000
0000
0000
0010
0000
0000
,
0000
0010
0000
0000
0000
0001
0000
0000
,
0000
0001
0000
0001
0000
0002
0000
0000
,
0000
0000
0003
0000
,
1000
0000
1000
0000
0000
0010
0000
0000
,
0010
0000
0010
0000
0000
0100
0000
0100
,
0000
0200
0000
0300
0000
0001
0000
0000
,
0001
0000
0001
0000
0000
1000
0000
1000
,
0000
2000
0000
3000
0000
0000
0100
0000
,
0000
0100
0000
0000
0000
0010
0000
0000
,
0000
0040
0000
0000
0030
0000
0001
0000
,
0000
0001
0000
0001
0000
0001
0000
0000
,
0010
0000
0010
0000
0000
0100
0000
0000
,
0100
0000
0100
0000
0000
1000
0000
1000
,
0000
2000
0000
3000
0000
0001
0000
0000
,
0001
0000
0001
0000
0000
0100
0000
0100
,
0000
0200
0000
0000
0300
0000
0010
0000
,
0000
0010
0000
0000
0000
1000
0000
0000
,
0000
1000
0000
1000
0000
1000
0000
0000
,
0000
0001
0000
0001
0000
0002
0000
0000
,
0000
0003
0000
0010
,
0010
0010
0000
0100
,
0000
0100
0000
0000
0000
0000
1000
0000
,
1000
0000
1000
0000
0000
1000
0000
0000
,
0000
0000
0000
0001
,
0001
0001
0000
0100
,
0000
0100
0000
0000
0000
0000
0010
0000
,
0010
0000
0010
0000
0000
0010
0000
0000
,
0000
0000
0000
1000
,
0000
1000
0000
1000
0000
0000
0000
0000
,
0000
0000
0001
0001
,
0000
0010
0000
0010
0000
0000
0000
0000
,
0000
0000
0100
0100
,
0000
1000
0000
1000
0000
0000
0000
0000
,
0000
0000
0001
0002
,
0003
0000
0010
0000
0000
0010
0000
0000
,
0100
0000
0100
0000
0000
1000
0000
1000
,
1000
0000
0000
0001
0000
0001
0000
0002
0000
0000
0003
0100
0000
0000
0100
0000
,
0100
0000
0000
0010
0000
0010
0000
0020
0000
0000
0030
0000
1000
0000
0000
1000
,
0000
0000
0000
0001
0000
0000
0000
0004
0000
0000
0003
0000
0010
0000
0000
0010
,
0000
0000
0000
0010
0000
0000
0100
0000
0100
0000
0000
1000
0000
0000
0000
0000
,
1000
0000
1000
0000
0000
0001
0000
0001
,
0000
0002
0000
0003
0000
0100
0000
0000
,
0100
0000
0100
0000
0000
0010
0000
0010
,
0000
0020
0000
0030
0000
0000
1000
0000
,
0000
1000
0000
0000
0000
0001
0000
0001
,
0000
0001
0000
0000
0000
0010
0000
0000
,
0000
0100
0000
0100
0000
0100
0000
0000
,
1000
0000
1000
0000
0000
0001
0000
0000
,
0001
0000
0001
0000
0000
0100
0000
0100
,
0000
0200
0000
0300
0000
0010
0000
0000
,
0010
0000
0010
0000
0000
1000
0000
1000
,
0000
2000
0000
3000
0000
0000
0001
0000
,
0000
0001
0000
0000
0000
0010
0000
0000
,
0000
0040
0000
0000
0030
0000
0100
0000
,
0000
0100
0000
0100
0000
0100
0000
0000
,
0010
0000
0010
0000
0000
0001
0000
0000
,
0001
0000
0001
0000
0000
1000
0000
1000
,
0000
2000
0000
3000
0000
0010
0000
0000
,
0010
0000
0010
0000
0000
0100
0000
0100
,
0000
0200
0000
0000
0300
0000
0001
0000
,
0000
0001
0000
0000
0000
1000
0000
1000
,
0000
1000
0000
0000
0000
0100
0000
0000
,
0000
0010
0000
0010
0000
0020
0000
0000
,
0000
0030
0000
0001
,
0001
0000
0001
0000
0000
1000
0000
1000
,
0000
2000
0000
3000
0000
0010
0000
0000
,
0000
0100
0000
0100
0000
0200
0000
0000
,
0000
0000
0300
0000
0000
0000
0001
0001
,
0001
0000
0000
0000
1000
0000
0000
1000
0000
0000
0000
0000
0100
0000
0100
0000
,
0100
0000
0000
0100
0000
0000
0000
0000
0000
0000
0000
0000
0010
0000
0010
0000
,
0010
0000
0000
0000
0001
0000
0000
0001
0000
0000
0000
0000
1000
0000
1000
0000
,
1000
0000
0000
0200
0000
0000
0000
0000
0000
0000
0000
0000
0300
0000
0000
0000
;

//---------------dance-single - Ace Of Arrows (2019)----------------
#NOTES:
     dance-single:
     Ace Of Arrows (2019):
     Beginner:
     1:
     0.145,0.103,0.000,0.239,0.000:
0000
0000
0000
0000
,
0000
0000
0000
1000
,
0000
1000
0000
2000
,
0000
3000
0000
0010
,
0000
0010
0000
0020
,
0000
0030
0000
0100
,
0000
0100
0000
0200
,
0000
0300
0000
0001
,
0000
0001
0000
0002
,
0000
0003
0000
1000
,
0000
1000
0000
2000
,
0000
3000
0000
0100
,
0000
0100
0000
0100
,
0000
0000
0000
0010
,
0000
0010
0000
0020
,
0000
0030
0000
0001
,
0000
0001
0000
0002
,
0000
0003
0000
0000
,
0000
1000
0000
1000
,
0000
2000
0000
3000
,
0000
0010
0000
0010
,
0000
0020
0000
0030
,
0000
0100
0000
0200
,
0000
0300
0000
0001
,
0000
0001
0000
0002
,
0000
0003
0000
1000
,
0000
1000
0000
2000
,
0000
3000
0000
0001
,
0000
0001
0000
0002
,
0000
0003
0000
0010
,
0000
0010
0000
0020
,
0000
0030
0000
0100
,
0000
0100
0000
0200
,
0000
0300
0000
1000
,
0000
1000
0000
2000
,
0000
3000
0000
0001
,
0000
0001
0000
0002
,
0000
0003
0000
0100
,
0000
0100
0000
0200
,
0000
0300
0000
0010
,
0000
0010
0000
0020
,
0000
0000
0000
0030
,
0000
0000
0000
1000
,
0000
1000
0000
2000
,
0000
3000
0000
0001
,
0000
0001
0000
0002
,
0000
0003
0000
0010
,
0000
0010
0000
0020
,
0000
0030
0000
0100
,
0000
0100
0000
0100
,
0000
0000
0000
0010
,
0000
0010
0000
0020
,
0000
0030
0000
0001
,
0000
0001
0000
0002
,
0000
0003
0000
1000
,
0000
1000
0000
2000
,
0000
3000
0000
0010
,
0000
0010
0000
0020
,
0000
0030
0000
0100
,
0000
0100
0000
0200
,
0000
0300
0000
0001
,
0000
0001
0000
0001
,
0000
0000
0000
1000
,
0000
1000
0000
2000
,
0000
3000
0000
0100
,
0000
0100
0000
0200
,
0000
0300
0000
0000
,
0000
0010
0000
0010
,
0000
0020
0000
0030
,
0000
0001
0000
0001
,
0000
0002
0000
0003
,
0000
1000
0000
2000
,
0000
3000
0000
0010
,
0000
0010
0000
0020
,
0000
0030
0000
0100
,
0000
0100
0000
0200
,
0000
0300
0000
0001
,
0000
0001
0000
0002
,
0000
0003
0000
1000
,
0000
1000
0000
2000
,
0000
3000
0000
0001
,
0000
0001
0000
0002
,
0000
0003
0000
0010
,
0000
0010
0000
0020
,
0000
0030
0000
0100
,
0000
0100
0000
0200
,
0000
0300
0000
1000
,
0000
1000
0000
2000
,
0000
3000
0000
0001
,
0000
0001
0000
0002
,
0000
0000
0000
0003
,
0000
0000
0000
0100
,
0000
0100
0000
0200
,
0000
0300
0000
0010
,
0000
0010
0000
0020
,
0000
0030
0000
1000
,
0000
1000
0000
2000
,
0000
3000
0000
0001
,
0000
0001
0000
0001
,
0000
0000
0000
0010
,
0000
0010
0000
0020
,
0000
0030
0000
0100
,
0000
0100
0000
0200
,
0000
0300
0000
1000
,
0000
1000
0000
2000
,
0000
3000
0000
0001
,
0000
0001
0000
0002
,
0000
0003
0000
1000
,
0000
1000
0000
2000
,
0000
3000
0000
0010
,
0000
0010
0000
0010
,
0000
0000
0000
0100
,
0000
0100
0000
0200
,
0000
0300
0000
0001
,
0000
0001
0000
0001
,
0000
0000
0000
1000
,
0000
2000
0000
3000
,
0000
0000
0000
0100
,
0000
0200
0000
0300
,
0000
0000
0000
0010
,
0000
0020
0000
0030
,
0000
0000
0000
0001
,
0000
0001
0000
0002
,
0000
0003
0000
1000
,
1000
2000
3000
0100
,
0100
0200
0300
1000
,
1000
2000
3000
0001
,
0001
0001
0000
0100
,
0000
0100
0000
0200
,
0000
0300
0000
0010
,
0000
0010
0000
0020
,
0000
0030
0000
1000
,
0000
1000
0000
2000
,
0000
3000
0000
0001
,
0000
0001
0000
0002
,
0000
0003
0000
0010
,
0000
0010
0000
0020
,
0000
0030
0000
0001
,
0000
0001
0000
0002
,
0000
0003
0000
1000
,
0000
1000
0000
2000
,
0000
3000
0000
0010
,
0000
0010
0000
0020
,
0000
0030
0000
0100
,
0000
0100
0000
0200
,
0000
0300
0000
0001
,
0000
0001
0000
0002
,
0000
0003
0000
1000
,
0000
1000
0000
2000
,
0000
3000
0000
0100
,
0000
0100
0000
0200
,
0000
0300
0000
0010
,
0000
0010
0000
0020
,
0000
0030
0000
0001
,
0000
0001
0000
0002
,
0000
0003
0000
1000
,
1000
2000
3000
0001
,
0001
0001
0000
0100
,
0100
0200
0300
0001
,
0001
0002
0000
0003
;
